Скачать через торрент Охотник х Охотник: Последняя миссия бесплатно Аниме Все серии на русском torrent

Если у вас наблюдаются проблемы со скриншотами, переходом по ссылками, скачиванием торрентов - проблемы в блокировщике рекламы AdBlock. #хорошегоДня!


Статистика раздачи
Размер:  1.54 GB   |    Зарегистрирован:  2 года 11 месяцев   |    .torrent скачан:  30 раз   |   
Раздают:  1  
   
Загрузка...
 
Автор Сообщение

Galfimbul

avatar Galfimbul


Страна: Япония
Год выпуска: 2013 г.
Жанр: приключения, фэнтези
Тип: Movie
Продолжительность: 98 мин.
Режиссер: Кавагучи Кейчиро
Студия:
Перевод:
<ol class="post-ul">
русские субтитры от Cafesubs
(Переводчик/Перевод песен: Anku, Редактор/Оформление: mutagenb)
</ol>
Озвучка:
<ol class="post-ul">
одноголосая (муж.) от JAM
</ol>
Описание: Действие происходит в мире, где существует некая организация Охотников. Их лицензия даёт им множество привилегий — возможность бесплатно путешествовать первыми классами различных видов транспорта, доступ к закрытой для других людей информации и право брать крупные суммы денег в банках. Из-за этого довольно много желающих стать Охотниками. Поэтому ежегодно проводится экзамен, на котором выбираются те немногие, кто действительно достоин быть Охотником.
Фильм расскажет о том как произошел раскол в стране охотников, некоторые из них переходят на темную сторону и нападают на Килуа и Курапику.
Качество: BDRip
Автор рипа: Hatsuyuki
Тип релиза: Без хардсаба
Формат видео: MKV
Наличие линковки: Нет
Видео: AVC (10bit), 1280x720, 1588 kbps, 23,976 fps
Аудио RUS (ext.): AAC, 192 kbps, 48000 Hz, 2ch - JAM
Аудио JAP: AC3, 448 kbps, 48000 Hz, 6ch
Формат : Matroska
Версия формата : Version 4 / Version 2
Размер файла : 1.41 GiB
Продолжительность : 1h 37mn
Общий поток : 2 077 Kbps
Дата кодирования : UTC 2014-09-26 17:44:23
Программа кодирования : mkvmerge v7.1.0 ('Good Love') 32bit built on Jul 27 2014 12:59:18
Библиотека кодирования : libebml v1.3.0 + libmatroska v1.4.1

Video
Идентификатор : 1
Формат : AVC
Формат/Информация : Advanced Video Codec
Профиль формата : High 10@L4.1
Параметр CABAC формата : Yes
Параметр ReFrames формата : 9 frames
Идентификатор кодека : V_MPEG4/ISO/AVC
Продолжительность : 1h 37mn
Битрейт : 1 588 Kbps
Ширина : 1 280 pixels
Высота : 720 pixels
Соотношение сторон : 16:9
Режим частоты кадров : Constant
Частота кадров : 23.976 fps
Цветовое пространство : YUV
Субдискретизация насыщенности : 4:2:0
Битовая глубина : 10 bits
Тип развёртки : Progressive
Бит/(Пиксели*Кадры) : 0.072
Размер потока : 1.08 GiB (76%)
Библиотека кодирования : x264 core 142 r2431 ac76440
Настройки программы : cabac=1 / ref=9 / deblock=1:0:0 / analyse=0x3:0x133 / me=umh / subme=10 / psy=1 / psy_rd=0.80:0.00 / mixed_ref=1 / me_range=32 / chroma_me=1 / trellis=2 / 8x8dct=1 / cqm=0 / deadzone=21,11 / fast_pskip=0 / chroma_qp_offset=-2 / threads=12 / lookahead_threads=2 / sliced_threads=0 / nr=0 / decimate=1 / interlaced=0 / bluray_compat=0 / constrained_intra=0 / bframes=8 / b_pyramid=2 / b_adapt=2 / b_bias=0 / direct=3 / weightb=1 / open_gop=0 / weightp=2 / keyint=250 / keyint_min=23 / scenecut=40 / intra_refresh=0 / rc_lookahead=60 / rc=crf / mbtree=1 / crf=18.0 / qcomp=0.60 / qpmin=0 / qpmax=81 / qpstep=4 / ip_ratio=1.40 / aq=2:1.00
Default : No
Forced : No
Color primaries : BT.709
Transfer characteristics : BT.709
Matrix coefficients : BT.709

Audio
Идентификатор : 2
Формат : AC-3
Формат/Информация : Audio Coding 3
Расширение режима : CM (complete main)
Параметр Endianness формата : Big
Идентификатор кодека : A_AC3
Продолжительность : 1h 37mn
Вид битрейта : Constant
Битрейт : 448 Kbps
Каналы : 6 channels
Расположение каналов : Front: L C R, Side: L R, LFE
Частота : 48.0 KHz
Битовая глубина : 16 bits
Метод сжатия : Lossy
Размер потока : 311 MiB (22%)
Язык : Japanese
Default : Yes
Forced : No

Menu
00:00:00.000 : en:Intro
00:00:27.468 : en:Intro
00:04:47.360 : en:Title
00:04:56.998 : en:Chapter 1
00:24:02.874 : en:Chapter 2
00:33:47.650 : en:Chapter 3
00:44:42.056 : en:Chapter 4
00:59:22.057 : en:Chapter 5
01:14:36.800 : en:Chapter 6
01:27:46.632 : en:Chapter 7
01:32:03.571 : en:Ending
[url]...4794770[/url] - наличие озвучки
[url]...4809953[/url] - наличие озвучки


Трекер:  [ 26-Сен-2014 21:30 ]

  

Скачать .torrent

Размер .torrent файла 16 KB


Размер: 1.54 GB
Хэш (hash) релиза: 2cc1f319fda6e5247566391e2cddaac7ca13583e
Подписка на обновления:

Еще никто не оставлял запись к записи скачать торрент Охотник х Охотник: Последняя миссия . Будь первым!

!Обратная связь