Скачать порно через торрент [WetAndPissy.com] Charlotte UnionPeer.org бесплатно онлайн HD качество

Скачать новое порно 2015, 2014 новинки через торрент UnionPeer.org

Порно торрент бесплатно ЮнионПир.орг

Если у вас наблюдаются проблемы со скриншотами, переходом по ссылками, скачиванием торрентов - проблемы в блокировщике рекламы AdBlock. #хорошегоДня!


Статистика раздачи
Размер:  200 MB   |    Зарегистрирован:  2 года 11 месяцев   |    .torrent скачан:  224 раза   |   
Раздают:  1  
   
Загрузка...
 
Автор Сообщение

Galfimbul

avatar Galfimbul


Charlotte - Super Pump

Имя актрисы: Charlotte
Подсайт и сайт:WetAndPissy.com
Год производства: 11.09.2014 г.
Жанр: Pissing, Pump, Toy Play, Legal Teen, Masturbation, Degustation
Продолжительность: 00:29:57
Описание:
Charlotte''s role as a sexy secretary fits like a glove. Being finished with her duties, her work area becomes her play area for the rest of the day.
The action unfolds on top of the table after Charlotte pulls her panties down to her shoes while sitting down.
Her knees are spread apart for maximum exposure as she pees onto the table, wetting her dropped panties.
She has a smile that never quits, using it effortlessly and genuinely at the same time. Eventually, a vase finds it''s way below her as she gets on her knees,
towering above it to pee again. Starting from a full body view, the camera is zoomed in as Charlotte relieves herself into the vase.
She''s far from finished, peeing while probing herself with a pump and later with one foot on the floor and her other leg straddled on the table.

Доп. информация:
http://www.wetandpissy.com/updates/video-super-pump/?nats= [url=...1889167] 1080p [/url] [url=...1891774] 720p [/url] [url=...1892073] 480p [/url]
Тип HD видео: 320p
Формат видео: MPEG-4
Видео: MPEG4 Video (H264) 640x360 25.00fps 800Kbps
Аудио: AAC 48000Hz stereo 125Kbps
Формат : MPEG-4
Профиль формата : Base Media
Идентификатор кодека : isom
Размер файла : 200 Мбайт
Продолжительность : 29 м.
Режим общего битрейта : Переменный
Общий поток : 931 Кбит/сек
Программа кодирования : Lavf54.63.104

Видео
Идентификатор : 1
Формат : AVC
Формат/Информация : Advanced Video Codec
Профиль формата : High@L3.2
Параметр CABAC формата : Да
Параметр ReFrames формата : 4 кадра
Идентификатор кодека : avc1
Идентификатор кодека/Информация : Advanced Video Coding
Продолжительность : 29 м.
Битрейт : 800 Кбит/сек
Ширина : 640 пикселей
Высота : 360 пикселей
Соотношение сторон : 16:9
Режим частоты кадров : Постоянный
Частота кадров : 25,000 кадров/сек
Цветовое пространство : YUV
Субдискретизация насыщенности : 4:2:0
Битовая глубина : 8 бит
Тип развёртки : Прогрессивная
Бит/(Пиксели*Кадры) : 0.139
Размер потока : 171 Мбайт (86%)
Библиотека кодирования : x264 core 130 r2274 c832fe9
Настройки программы : cabac=1 / ref=3 / deblock=1:-1:-1 / analyse=0x3:0x133 / me=umh / subme=9 / psy=1 / psy_rd=1.00:0.00 / mixed_ref=1 / me_range=16 / chroma_me=1 / trellis=2 / 8x8dct=1 / cqm=0 / deadzone=21,11 / fast_pskip=1 / chroma_qp_offset=-2 / threads=12 / lookahead_threads=1 / sliced_threads=0 / nr=0 / decimate=1 / interlaced=0 / bluray_compat=0 / constrained_intra=0 / bframes=3 / b_pyramid=2 / b_adapt=2 / b_bias=0 / direct=3 / weightb=1 / open_gop=0 / weightp=2 / keyint=250 / keyint_min=25 / scenecut=40 / intra_refresh=0 / rc_lookahead=60 / rc=crf / mbtree=1 / crf=19.0 / qcomp=0.60 / qpmin=0 / qpmax=69 / qpstep=4 / vbv_maxrate=800 / vbv_bufsize=25000 / crf_max=0.0 / nal_hrd=none / ip_ratio=1.40 / aq=1:1.00
Язык : English

Аудио
Идентификатор : 2
Формат : AAC
Формат/Информация : Advanced Audio Codec
Профиль формата : LC
Идентификатор кодека : 40
Продолжительность : 29 м.
Вид битрейта : Переменный
Битрейт : 125 Кбит/сек
Максимальный битрейт : 800 Кбит/сек
Каналы : 2 канала
Расположение каналов : Front: L R
Частота : 48,0 КГц
Метод сжатия : С потерями
Размер потока : 26,9 Мбайт (13%)
Язык : English


Трекер:  [ 19-Сен-2014 07:00 ]

  

Скачать .torrent

Размер .torrent файла 31 KB


Размер: 200 MB
Хэш (hash) релиза: db52a0f06d616cf7af0c5c420413e082a089baa0

Торренты, похожие на [WetAndPissy.com] Charlotte скачать торрент

Форум Название Автор Размер S L Добавлен
Мочеиспускание ·· [WetAndPissy.com] Charlotte (Super Pump / 11-09-2014) [2014 г., Pissing, Pump, Toy Play, Legal Teen, Masturbation, Degustation, 480p] Galfimbul 360297986344 MB 2 0 1411099421

07:03

19-Сен-14

Мочеиспускание ·· [WetAndPissy.com] Charlotte (Super Pump / 11-09-2014) [2014 г., Pissing, Pump, Toy Play, Legal Teen, Masturbation, Degustation, HDRip, 720p] Galfimbul 477836510456 MB 0 0 1411034587

13:03

18-Сен-14

Мочеиспускание ·· [WetAndPissy.com] Charlotte (Super Pump / 11-09-2014) [2014 г., Pissing, Pump, Toy Play, Legal Teen, Masturbation, Degustation, HDRip, 1080p] Galfimbul 18253195711.7 GB 0 0 1410481987

03:33

12-Сен-14

Еще никто не оставлял запись к записи скачать торрент [WetAndPissy.com] Charlotte . Будь первым!

!Обратная связь