Скачать через торрент музыку Joshua Redman - discography дискография бесплатно без регистрации torrent

Если у вас наблюдаются проблемы со скриншотами, переходом по ссылками, скачиванием торрентов - проблемы в блокировщике рекламы AdBlock. #хорошегоДня!


Статистика раздачи
Размер:  6.44 GB   |    Зарегистрирован:  6 лет 6 месяцев   |    .torrent скачан:  92 раза   |   
Раздают:  1  
   
Загрузка...
 
Автор Сообщение

L


Joshua Redman
discography / дискография
Жанр: Neo-Bop, Post-Bop, Straight-Ahead Jazz, Jazz-Funk, Fusion
Выпуск альбомов: 1993 - 2009
Аудио кодек: WavPack (*.wv)
Тип рипа: image+.cue
Битрейт аудио: lossless
Общая продолжительность: 16:13:57
Источник: Рипы от simple.i
Наличие сканов в содержимом раздачи: да

кроме Blues for Pat

Джошуа Редман - современный американский джазовый тенор-саксофонист. Родился 1 февраля 1969 года, в Беркли, штат Калифорния США. Сын известного саксофониста Дьюи Редмана и балерины Рене Шедрофф. В 9 лет Джошуа Редман начал учиться играть на кларнете, но год спустя перешел на тенор-саксофон, который и стал для него инструментом №1. В 1991 году он закончил с отличием Гарвардский колледж и стал лауреатом Thelonious Monk International Jazz Saxophone Competition, после чего решил полностью посвятить себя музыкальной карьере. С Редманом быстро заключила контракт компания Warner Bros. Records, и весной 1993 года вышел его дебютный альбом, который впоследствии стал его первой номинацией на Гремми ...
Редман один из тех музыкантов, которые стали известны в 90-е годы, переиграли со множеством великих импровизаторов и получили признание публики и критики. Он - прекрасно образованный человек, делавший в свое время выбор между карьерой музыканта и врача. Он - воплощение духа времени, его импровизации динамичны, Джошуа словно рисует звуком дискретный, резкий, но манящий мир. Его манера игры интеллигентна, но ее нельзя назвать сдержанной - скорее он раскрепощен и естествен.
Продолжительность: 1:05:10
Год издания альбома: 1993
Издатель (лейбл): Warner Bros. Records Inc.
Номер по каталогу: 9362-45242-2

Треклист:

01. Blues On Sunday - 5:02
02. Wish - 7:32
03. Trinkle Tinkle - 7:05
04. Echoes - 6:22
05. I Got You (I Feel Good) - 4:40
06. Body & Soul - 4:51
07. Tribalism - 6:05
08. Groove X (By Any Means Necessary) - 5:51
09. Salt Peanuts - 3:14
10. On The Sunny Side Of The Street - 5:34
11. Sublimation - 8:54
Joshua Redman - Tenor Saxophone
Kevin Hays - Piano
Christian McBride - Bass
Gregory Hutchinson - Drums
 
Exact Audio Copy V0.99 prebeta 5 from 4. May 2009

EAC extraction logfile from 14. July 2010, 23:28

Joshua Redman / Joshua Redman

Used drive : HL-DT-STDVD-RAM GSA-H55N Adapter: 0 ID: 2

Read mode : SecureUtilize accurate stream : YesDefeat audio cache : YesMake use of C2 pointers : No

Read offset correction : 102Overread into Lead-In and Lead-Out : YesFill up missing offset samples with silence : YesDelete leading and trailing silent blocks : NoNull samples used in CRC calculations : YesUsed interface : Installed external ASPI interface

Used output format : User Defined EncoderSelected bitrate : 128 kBit/sQuality : HighAdd ID3 tag : NoCommand line compressor : G:\Program Files\Exact Audio Copy\Encoder\wavpack.exeAdditional command line options : -hm -w "CUESHEET=@F:\WAV\%a - %g.cue" -w "Year=%y" -w "Genre=%m" %s %d

TOC of the extracted CD

Track | Start | Length | Start sector | End sector --------------------------------------------------------- 1 | 0:00.00 | 5:02.27 | 0 | 22676 2 | 5:02.27 | 7:32.13 | 22677 | 56589 3 | 12:34.40 | 7:04.72 | 56590 | 88461 4 | 19:39.37 | 6:21.50 | 88462 | 117086 5 | 26:01.12 | 4:39.40 | 117087 | 138051 6 | 30:40.52 | 4:51.10 | 138052 | 159886 7 | 35:31.62 | 6:04.53 | 159887 | 187239 8 | 41:36.40 | 5:51.37 | 187240 | 213601 9 | 47:28.02 | 3:14.13 | 213602 | 228164 10 | 50:42.15 | 5:34.00 | 228165 | 253214 11 | 56:16.15 | 8:53.65 | 253215 | 293254

Range status and errors

Selected range

Filename F:\WAV\Joshua Redman - Joshua Redman.wav

Peak level 100.0 % Range quality 99.9 % Test CRC 537722EE Copy CRC 537722EE Copy OK

No errors occurred

AccurateRip summary

Track 1 accurately ripped (confidence 12) [031D9E83]Track 2 accurately ripped (confidence 10) [B68D0AB9]Track 3 accurately ripped (confidence 10) [08AD91C0]Track 4 accurately ripped (confidence 11) [C8D86995]Track 5 accurately ripped (confidence 11) [B89B614B]Track 6 accurately ripped (confidence 11) [732597DD]Track 7 accurately ripped (confidence 10) [9716FE4C]Track 8 accurately ripped (confidence 11) [CE78C8DE]Track 9 accurately ripped (confidence 11) [D013170E]Track 10 accurately ripped (confidence 12) [389F9F7F]Track 11 accurately ripped (confidence 10) [7C75FA8B]

All tracks accurately ripped

End of status report
 
REM GENRE JazzREM DATE 1993REM DISCID 930F460BREM COMMENT "ExactAudioCopy v0.99pb5"PERFORMER "Joshua Redman"TITLE "Joshua Redman"FILE "Joshua Redman - Joshua Redman.wv" WAVE TRACK 01 AUDIO TITLE "Blues On Sunday" PERFORMER "Joshua Redman" INDEX 01 00:00:00 TRACK 02 AUDIO TITLE "Wish" PERFORMER "Joshua Redman" INDEX 00 05:00:25 INDEX 01 05:02:27 TRACK 03 AUDIO TITLE "Trinkle Tinkle" PERFORMER "Joshua Redman" INDEX 00 12:33:25 INDEX 01 12:34:40 TRACK 04 AUDIO TITLE "Echoes" PERFORMER "Joshua Redman" INDEX 00 19:37:42 INDEX 01 19:39:37 TRACK 05 AUDIO TITLE "I Got You (I Feel Good)" PERFORMER "Joshua Redman" INDEX 00 25:59:07 INDEX 01 26:01:12 TRACK 06 AUDIO TITLE "Body & Soul" PERFORMER "Joshua Redman" INDEX 00 30:39:00 INDEX 01 30:40:52 TRACK 07 AUDIO TITLE "Tribalism" PERFORMER "Joshua Redman" INDEX 00 35:29:65 INDEX 01 35:31:62 TRACK 08 AUDIO TITLE "Groove X (By Any Means Necessary)" PERFORMER "Joshua Redman" INDEX 00 41:34:35 INDEX 01 41:36:40 TRACK 09 AUDIO TITLE "Salt Peanuts" PERFORMER "Joshua Redman" INDEX 00 47:26:10 INDEX 01 47:28:02 TRACK 10 AUDIO TITLE "On The Sunny Side Of The Street" PERFORMER "Joshua Redman" INDEX 00 50:40:15 INDEX 01 50:42:15 TRACK 11 AUDIO TITLE "Sublimation" PERFORMER "Joshua Redman" INDEX 00 56:14:22 INDEX 01 56:16:15
Продолжительность: 1:01:44
Год издания альбома: 1993
Издатель (лейбл): Warner Bros. Records Inc.
Номер по каталогу: 9362-45365-2

Треклист:

01. Turnaround - 6:26
02. Soul Dance - 6:33
03. Make Sure You're Sure - 5:26
04. The Deserving Many - 5:40
05. We Had A Sister - 5:47
06. Moose The Mooche - 3:33
07. Tears In Heaven - 3:24
08. Whittlin' - 5:23
09. Wish (Live) - 7:24
10. Blues For Pat (Live) - 12:09
Joshua Redman - Tenor Saxophone
Pat Metheny - Guitar
Charlie Haden - Bass
Billy Higgins - Drums
 
Exact Audio Copy V0.99 prebeta 5 from 4. May 2009

EAC extraction logfile from 19. July 2010, 0:11

Joshua Redman / Wish

Used drive : HL-DT-STDVD-RAM GSA-H55N Adapter: 0 ID: 2

Read mode : SecureUtilize accurate stream : YesDefeat audio cache : YesMake use of C2 pointers : No

Read offset correction : 102Overread into Lead-In and Lead-Out : YesFill up missing offset samples with silence : YesDelete leading and trailing silent blocks : NoNull samples used in CRC calculations : YesUsed interface : Installed external ASPI interface

Used output format : User Defined EncoderSelected bitrate : 128 kBit/sQuality : HighAdd ID3 tag : NoCommand line compressor : G:\Program Files\Exact Audio Copy\Encoder\wavpack.exeAdditional command line options : -hm -w "CUESHEET=@F:\WAV\%a - %g.cue" -w "Year=%y" -w "Genre=%m" %s %d

TOC of the extracted CD

Track | Start | Length | Start sector | End sector --------------------------------------------------------- 1 | 0:00.00 | 6:25.43 | 0 | 28917 2 | 6:25.43 | 6:32.67 | 28918 | 58384 3 | 12:58.35 | 5:26.13 | 58385 | 82847 4 | 18:24.48 | 5:39.72 | 82848 | 108344 5 | 24:04.45 | 5:47.33 | 108345 | 134402 6 | 29:52.03 | 3:32.57 | 134403 | 150359 7 | 33:24.60 | 3:23.70 | 150360 | 165654 8 | 36:48.55 | 5:22.58 | 165655 | 189862 9 | 42:11.38 | 7:24.10 | 189863 | 223172 10 | 49:35.48 | 12:08.40 | 223173 | 277812

Range status and errors

Selected range

Filename F:\WAV\Joshua Redman - Wish.wav

Peak level 100.0 % Range quality 99.9 % Test CRC 2F1F31C6 Copy CRC 2F1F31C6 Copy OK

No errors occurred

AccurateRip summary

Track 1 accurately ripped (confidence 42) [678596F7]Track 2 accurately ripped (confidence 42) [340F0387]Track 3 accurately ripped (confidence 43) [CFDAA24D]Track 4 accurately ripped (confidence 43) [591EC242]Track 5 accurately ripped (confidence 43) [7DEB274C]Track 6 accurately ripped (confidence 42) [62B30CEA]Track 7 accurately ripped (confidence 43) [7FCA9E36]Track 8 accurately ripped (confidence 43) [08CA27D1]Track 9 accurately ripped (confidence 43) [2DCD903E]Track 10 accurately ripped (confidence 40) [065F8DB6]

All tracks accurately ripped

End of status report
 
REM GENRE JazzREM DATE 1993REM DISCID 820E780AREM COMMENT "ExactAudioCopy v0.99pb5"CATALOG 0093624536529PERFORMER "Joshua Redman"TITLE "Wish"FILE "Joshua Redman - Wish.wv" WAVE TRACK 01 AUDIO TITLE "Turnaround" PERFORMER "Joshua Redman" INDEX 01 00:00:00 TRACK 02 AUDIO TITLE "Soul Dance" PERFORMER "Joshua Redman" INDEX 00 06:24:33 INDEX 01 06:25:43 TRACK 03 AUDIO TITLE "Make Sure You're Sure" PERFORMER "Joshua Redman" INDEX 00 12:57:70 INDEX 01 12:58:35 TRACK 04 AUDIO TITLE "The Deserving Many" PERFORMER "Joshua Redman" INDEX 00 18:22:63 INDEX 01 18:24:48 TRACK 05 AUDIO TITLE "We Had A Sister" PERFORMER "Joshua Redman" INDEX 00 24:03:60 INDEX 01 24:04:45 TRACK 06 AUDIO TITLE "Moose The Mooche" PERFORMER "Joshua Redman" INDEX 00 29:50:58 INDEX 01 29:52:03 TRACK 07 AUDIO TITLE "Tears In Heaven" PERFORMER "Joshua Redman" INDEX 00 33:23:53 INDEX 01 33:24:60 TRACK 08 AUDIO TITLE "Whittlin'" PERFORMER "Joshua Redman" INDEX 00 36:47:23 INDEX 01 36:48:55 TRACK 09 AUDIO TITLE "Wish (Live)" PERFORMER "Joshua Redman" INDEX 00 42:09:70 INDEX 01 42:11:38 TRACK 10 AUDIO TITLE "Blues For Pat (Live)" PERFORMER "Joshua Redman" INDEX 01 49:35:48
Продолжительность: 1:09:58
Год издания альбома: 1994
Издатель (лейбл): Warner Bros. Records Inc.
Номер по каталогу: 9362-45643-2

Треклист:

01. Sweet Sorrow - 8:43
02. Chill - 7:43
03. Rejoice - 11:12
04. Faith - 4:33
05. Alone In The Morning - 5:06
06. Mischief - 5:51
07. Dialogue - 5:44
08. The Oneness Of Two (In Three) - 5:13
09. Past In The Present - 4:54
10. Obsession - 6:54
11. Headin' Home - 4:05
Joshua Redman - Saxophones
Brad Mehldau - Piano
Christian McBride - Bass
Brian Blade - Drums
 
Exact Audio Copy V0.99 prebeta 5 from 4. May 2009

EAC extraction logfile from 18. July 2010, 2:29

Joshua Redman Quartet / MoodSwing

Used drive : HL-DT-STDVD-RAM GSA-H55N Adapter: 0 ID: 2

Read mode : SecureUtilize accurate stream : YesDefeat audio cache : YesMake use of C2 pointers : No

Read offset correction : 102Overread into Lead-In and Lead-Out : YesFill up missing offset samples with silence : YesDelete leading and trailing silent blocks : NoNull samples used in CRC calculations : YesUsed interface : Installed external ASPI interface

Used output format : User Defined EncoderSelected bitrate : 128 kBit/sQuality : HighAdd ID3 tag : NoCommand line compressor : G:\Program Files\Exact Audio Copy\Encoder\wavpack.exeAdditional command line options : -hm -w "CUESHEET=@F:\WAV\%a - %g.cue" -w "Year=%y" -w "Genre=%m" %s %d

TOC of the extracted CD

Track | Start | Length | Start sector | End sector --------------------------------------------------------- 1 | 0:00.00 | 8:43.05 | 0 | 39229 2 | 8:43.05 | 7:43.05 | 39230 | 73959 3 | 16:26.10 | 11:12.30 | 73960 | 124389 4 | 27:38.40 | 4:33.17 | 124390 | 144881 5 | 32:11.57 | 5:05.65 | 144882 | 167821 6 | 37:17.47 | 5:50.48 | 167822 | 194119 7 | 43:08.20 | 5:43.42 | 194120 | 219886 8 | 48:51.62 | 5:12.68 | 219887 | 243354 9 | 54:04.55 | 4:53.60 | 243355 | 265389 10 | 58:58.40 | 6:54.37 | 265390 | 296476 11 | 65:53.02 | 4:05.18 | 296477 | 314869

Range status and errors

Selected range

Filename F:\WAV\Joshua Redman Quartet - MoodSwing.wav

Peak level 100.0 % Range quality 100.0 % Test CRC 1877C9E2 Copy CRC 1877C9E2 Copy OK

No errors occurred

AccurateRip summary

Track 1 accurately ripped (confidence 36) [294F45E8]Track 2 accurately ripped (confidence 37) [99CA196D]Track 3 accurately ripped (confidence 35) [9ADDCE3F]Track 4 accurately ripped (confidence 36) [5C0FDE65]Track 5 accurately ripped (confidence 37) [3D5C0E78]Track 6 accurately ripped (confidence 34) [43A18558]Track 7 accurately ripped (confidence 34) [830613CD]Track 8 accurately ripped (confidence 35) [CD2EF321]Track 9 accurately ripped (confidence 35) [2A055DB3]Track 10 accurately ripped (confidence 33) [70E1C360]Track 11 accurately ripped (confidence 31) [44B13C7D]

All tracks accurately ripped

End of status report
 
REM GENRE JazzREM DATE 1994REM DISCID A610660BREM COMMENT "ExactAudioCopy v0.99pb5"CATALOG 9362456430208PERFORMER "Joshua Redman Quartet"TITLE "MoodSwing"FILE "Joshua Redman Quartet - MoodSwing.wv" WAVE TRACK 01 AUDIO TITLE "Sweet Sorrow" PERFORMER "Joshua Redman Quartet" INDEX 01 00:00:00 TRACK 02 AUDIO TITLE "Chill" PERFORMER "Joshua Redman Quartet" INDEX 01 08:43:05 TRACK 03 AUDIO TITLE "Rejoice" PERFORMER "Joshua Redman Quartet" INDEX 01 16:26:10 TRACK 04 AUDIO TITLE "Faith" PERFORMER "Joshua Redman Quartet" INDEX 00 27:36:42 INDEX 01 27:38:40 TRACK 05 AUDIO TITLE "Alone In The Morning" PERFORMER "Joshua Redman Quartet" INDEX 01 32:11:57 TRACK 06 AUDIO TITLE "Mischief" PERFORMER "Joshua Redman Quartet" INDEX 00 37:16:50 INDEX 01 37:17:47 TRACK 07 AUDIO TITLE "Dialogue" PERFORMER "Joshua Redman Quartet" INDEX 00 43:06:27 INDEX 01 43:08:20 TRACK 08 AUDIO TITLE "The Oneness Of Two (In Three)" PERFORMER "Joshua Redman Quartet" INDEX 00 48:50:17 INDEX 01 48:51:62 TRACK 09 AUDIO TITLE "Past In The Present" PERFORMER "Joshua Redman Quartet" INDEX 00 54:02:47 INDEX 01 54:04:55 TRACK 10 AUDIO TITLE "Obsession" PERFORMER "Joshua Redman Quartet" INDEX 00 58:58:02 INDEX 01 58:58:40 TRACK 11 AUDIO TITLE "Headin' Home" PERFORMER "Joshua Redman Quartet" INDEX 00 65:50:42 INDEX 01 65:53:02
Продолжительность: 2:27:44
Год издания альбома: 1995
Издатель (лейбл): Warner Bros. Records Inc.
Номер по каталогу: 9 45923-2

Треклист:

CD1:
01. Jig-A-Jug - 11:31
02. My One And Only Love - 11:02
03. Count Me Out - 7:08
04. Second Snow - 13:56
05. Remember - 9:56
06. Dialogue - 6:53
07. St. Thomas - 12:11

CD2:
01. Herbs And Roots - 12:48
02. Wait No Longer - 11:44
03. Neverend - 13:45
04. Just In Time - 8:50
05. Mt. Zion - 10:12
06. Slapstick - 5:51
07. Lyric - 11:58
.
Joshua Redman - Saxophone
Peter Martin - Piano
Christopher Thomas - Bass
Brian Blade - Drums
 
Exact Audio Copy V1.0 beta 1 from 15. November 2010

EAC extraction logfile from 16. February 2011, 23:10

Joshua Redman Quartet / Spirit Of The Moment: Live At The Village Vanguard.CD1

Used drive : HL-DT-STDVD-RAM GSA-H55N Adapter: 0 ID: 2

Read mode : SecureUtilize accurate stream : YesDefeat audio cache : YesMake use of C2 pointers : No

Read offset correction : 102Overread into Lead-In and Lead-Out : YesFill up missing offset samples with silence : YesDelete leading and trailing silent blocks : NoNull samples used in CRC calculations : YesUsed interface : Installed external ASPI interface

Used output format : User Defined EncoderSelected bitrate : 128 kBit/sQuality : HighAdd ID3 tag : NoCommand line compressor : G:\Program Files\Exact Audio Copy\Encoder\wavpack.exeAdditional command line options : -hm -w "Year=%y" -w "Genre=%m" %s %d

TOC of the extracted CD

Track | Start | Length | Start sector | End sector --------------------------------------------------------- 1 | 0:00.32 | 11:31.08 | 32 | 51864 2 | 11:31.40 | 11:01.62 | 51865 | 101501 3 | 22:33.27 | 7:07.43 | 101502 | 133569 4 | 29:40.70 | 13:56.02 | 133570 | 196271 5 | 43:36.72 | 9:55.48 | 196272 | 240944 6 | 53:32.45 | 6:52.45 | 240945 | 271889 7 | 60:25.15 | 12:11.00 | 271890 | 326714

Range status and errors

Selected range

Filename F:\WAV\Joshua Redman Quartet - Spirit Of The Moment. Live At The Village Vanguard.CD1.wav

Peak level 100.0 % Extraction speed 1.3 X Range quality 100.0 % Test CRC 0A165533 Copy CRC 0A165533 Copy OK

No errors occurred

AccurateRip summary

Track 1 accurately ripped (confidence 28) [C3E1BC00]Track 2 accurately ripped (confidence 28) [D3B97507]Track 3 accurately ripped (confidence 27) [3B921883]Track 4 accurately ripped (confidence 27) [2C477134]Track 5 accurately ripped (confidence 27) [F1089CD3]Track 6 accurately ripped (confidence 28) [73F6E851]Track 7 accurately ripped (confidence 26) [BD8E06DE]

All tracks accurately ripped

End of status report

==== Log checksum 33021795532EA86140C3A5010D23CC8F906A57E364223D86A83E98651CE812EE ====
 
Exact Audio Copy V1.0 beta 1 from 15. November 2010

EAC extraction logfile from 17. February 2011, 0:07

Joshua Redman Quartet / Spirit Of The Moment: Live At The Village Vanguard.CD2

Used drive : HL-DT-STDVD-RAM GSA-H55N Adapter: 0 ID: 2

Read mode : SecureUtilize accurate stream : YesDefeat audio cache : YesMake use of C2 pointers : No

Read offset correction : 102Overread into Lead-In and Lead-Out : YesFill up missing offset samples with silence : YesDelete leading and trailing silent blocks : NoNull samples used in CRC calculations : YesUsed interface : Installed external ASPI interface

Used output format : User Defined EncoderSelected bitrate : 128 kBit/sQuality : HighAdd ID3 tag : NoCommand line compressor : G:\Program Files\Exact Audio Copy\Encoder\wavpack.exeAdditional command line options : -hm -w "Year=%y" -w "Genre=%m" %s %d

TOC of the extracted CD

Track | Start | Length | Start sector | End sector --------------------------------------------------------- 1 | 0:00.32 | 12:48.00 | 32 | 57631 2 | 12:48.32 | 11:44.25 | 57632 | 110456 3 | 24:32.57 | 13:45.25 | 110457 | 172356 4 | 38:18.07 | 8:49.40 | 172357 | 212071 5 | 47:07.47 | 10:12.25 | 212072 | 257996 6 | 57:19.72 | 5:50.58 | 257997 | 284304 7 | 63:10.55 | 11:58.20 | 284305 | 338174

Range status and errors

Selected range

Filename F:\WAV\Joshua Redman Quartet - Spirit Of The Moment. Live At The Village Vanguard.CD2.wav

Peak level 100.0 % Extraction speed 1.2 X Range quality 100.0 % Test CRC 774F9306 Copy CRC 774F9306 Copy OK

No errors occurred

AccurateRip summary

Track 1 accurately ripped (confidence 24) [9900CEF9]Track 2 accurately ripped (confidence 24) [4685DC60]Track 3 accurately ripped (confidence 24) [89A3D8B3]Track 4 accurately ripped (confidence 24) [366CA589]Track 5 accurately ripped (confidence 23) [C29D3BAA]Track 6 accurately ripped (confidence 23) [D7C6D335]Track 7 accurately ripped (confidence 23) [6140B3C6]

All tracks accurately ripped

End of status report

==== Log checksum DCFC9CD1EB5D93EC9A89A8C48823EBFD9E5C47BF2F49710DE0B5585177C459B5 ====
 
REM GENRE JazzREM DATE 1995REM DISCID 61110407REM COMMENT "ExactAudioCopy v1.0b1"CATALOG 0075994592329PERFORMER "Joshua Redman Quartet"TITLE "Spirit Of The Moment: Live At The Village Vanguard.CD1"FILE "Joshua Redman Quartet - Spirit Of The Moment. Live At The Village Vanguard.CD1.wv" WAVE TRACK 01 AUDIO TITLE "Jig-A-Jug" PERFORMER "Joshua Redman Quartet" INDEX 00 00:00:00 INDEX 01 00:00:32 TRACK 02 AUDIO TITLE "My One And Only Love" PERFORMER "Joshua Redman Quartet" INDEX 00 11:31:37 INDEX 01 11:31:40 TRACK 03 AUDIO TITLE "Count Me Out" PERFORMER "Joshua Redman Quartet" INDEX 00 22:33:25 INDEX 01 22:33:27 TRACK 04 AUDIO TITLE "Second Snow" PERFORMER "Joshua Redman Quartet" INDEX 00 29:40:67 INDEX 01 29:40:70 TRACK 05 AUDIO TITLE "Remember" PERFORMER "Joshua Redman Quartet" INDEX 00 43:36:70 INDEX 01 43:36:72 TRACK 06 AUDIO TITLE "Dialogue" PERFORMER "Joshua Redman Quartet" INDEX 00 53:32:42 INDEX 01 53:32:45 TRACK 07 AUDIO TITLE "St. Thomas" PERFORMER "Joshua Redman Quartet" INDEX 00 60:25:12 INDEX 01 60:25:15
 
REM GENRE JazzREM DATE 1995REM DISCID 5B119D07REM COMMENT "ExactAudioCopy v1.0b1"CATALOG 0075994592329PERFORMER "Joshua Redman Quartet"TITLE "Spirit Of The Moment: Live At The Village Vanguard.CD2"FILE "Joshua Redman Quartet - Spirit Of The Moment. Live At The Village Vanguard.CD2.wv" WAVE TRACK 01 AUDIO TITLE "Herbs And Roots" PERFORMER "Joshua Redman Quartet" INDEX 00 00:00:00 INDEX 01 00:00:32 TRACK 02 AUDIO TITLE "Wait No Longer" PERFORMER "Joshua Redman Quartet" INDEX 00 12:48:30 INDEX 01 12:48:32 TRACK 03 AUDIO TITLE "Neverend" PERFORMER "Joshua Redman Quartet" INDEX 00 24:32:55 INDEX 01 24:32:57 TRACK 04 AUDIO TITLE "Just In Time" PERFORMER "Joshua Redman Quartet" INDEX 00 38:18:05 INDEX 01 38:18:07 TRACK 05 AUDIO TITLE "Mt. Zion" PERFORMER "Joshua Redman Quartet" INDEX 00 47:07:45 INDEX 01 47:07:47 TRACK 06 AUDIO TITLE "Slapstick" PERFORMER "Joshua Redman Quartet" INDEX 00 57:19:70 INDEX 01 57:19:72 TRACK 07 AUDIO TITLE "Lyric" PERFORMER "Joshua Redman Quartet" INDEX 00 63:10:52 INDEX 01 63:10:55
Продолжительность: 1:09:06
Год издания альбома: 1996
Издатель (лейбл): Warner Bros. Records Inc.
Номер по каталогу: 9 46330-2

Треклист:

01. Hide and Seek - 5:37
02. One Shining Soul - 8:14
03. Streams of Consciousness - 8:54
04. When the Sun Comes Down - 7:15
05. Home Fries - 4:45
06. Invocation - 10:00
07. Dare I Ask? - 6:03
08. Cat Battles - 5:41
09. Pantomime - 7:28
10. Can't Dance - 5:10
Joshua Redman - Saxophones
Peter Martin - Piano
Peter Bernstein - Guitar
Christopher Thomas - Bass
Brian Blade - Drums
 
Exact Audio Copy V0.99 prebeta 5 from 4. May 2009

EAC extraction logfile from 17. July 2010, 23:54

Joshua Redman / Freedom in the Groove

Used drive : HL-DT-STDVD-RAM GSA-H55N Adapter: 0 ID: 2

Read mode : SecureUtilize accurate stream : YesDefeat audio cache : YesMake use of C2 pointers : No

Read offset correction : 102Overread into Lead-In and Lead-Out : YesFill up missing offset samples with silence : YesDelete leading and trailing silent blocks : NoNull samples used in CRC calculations : YesUsed interface : Installed external ASPI interface

Used output format : User Defined EncoderSelected bitrate : 128 kBit/sQuality : HighAdd ID3 tag : NoCommand line compressor : G:\Program Files\Exact Audio Copy\Encoder\wavpack.exeAdditional command line options : -hm -w "CUESHEET=@F:\WAV\%a - %g.cue" -w "Year=%y" -w "Genre=%m" %s %d

TOC of the extracted CD

Track | Start | Length | Start sector | End sector --------------------------------------------------------- 1 | 0:00.32 | 5:36.43 | 32 | 25274 2 | 5:37.00 | 8:13.57 | 25275 | 62306 3 | 13:50.57 | 8:53.63 | 62307 | 102344 4 | 22:44.45 | 7:15.22 | 102345 | 134991 5 | 29:59.67 | 4:44.60 | 134992 | 156351 6 | 34:44.52 | 10:00.35 | 156352 | 201386 7 | 44:45.12 | 6:03.15 | 201387 | 228626 8 | 50:48.27 | 5:40.45 | 228627 | 254171 9 | 56:28.72 | 7:27.68 | 254172 | 287764 10 | 63:56.65 | 5:09.47 | 287765 | 310986

Range status and errors

Selected range

Filename F:\WAV\Joshua Redman - Freedom in the Groove.wav

Peak level 100.0 % Range quality 99.9 % Test CRC 77F7A3E2 Copy CRC 77F7A3E2 Copy OK

No errors occurred

AccurateRip summary

Track 1 accurately ripped (confidence 53) [B7547C43]Track 2 accurately ripped (confidence 53) [059B9B4F]Track 3 accurately ripped (confidence 54) [FD7186EC]Track 4 accurately ripped (confidence 54) [C7581F7D]Track 5 accurately ripped (confidence 54) [CE840F6F]Track 6 accurately ripped (confidence 53) [2A14B79C]Track 7 accurately ripped (confidence 56) [27CB16EA]Track 8 accurately ripped (confidence 56) [402825DF]Track 9 accurately ripped (confidence 55) [62FAD147]Track 10 accurately ripped (confidence 56) [2485B752]

All tracks accurately ripped

End of status report
 
REM GENRE JazzREM DATE 1996REM DISCID 8C10320AREM COMMENT "ExactAudioCopy v0.99pb5"CATALOG 0075994633022PERFORMER "Joshua Redman"TITLE "Freedom in the Groove"FILE "Joshua Redman - Freedom in the Groove.wv" WAVE TRACK 01 AUDIO TITLE "Hide and Seek" PERFORMER "Joshua Redman" INDEX 00 00:00:00 INDEX 01 00:00:32 TRACK 02 AUDIO TITLE "One Shining Soul" PERFORMER "Joshua Redman" INDEX 00 05:36:31 INDEX 01 05:37:00 TRACK 03 AUDIO TITLE "Streams of Consciousness" PERFORMER "Joshua Redman" INDEX 00 13:49:01 INDEX 01 13:50:57 TRACK 04 AUDIO TITLE "When the Sun Comes Down" PERFORMER "Joshua Redman" INDEX 00 22:42:73 INDEX 01 22:44:45 TRACK 05 AUDIO TITLE "Home Fries" PERFORMER "Joshua Redman" INDEX 00 29:58:38 INDEX 01 29:59:67 TRACK 06 AUDIO TITLE "Invocation" PERFORMER "Joshua Redman" INDEX 00 34:43:13 INDEX 01 34:44:52 TRACK 07 AUDIO TITLE "Dare I Ask?" PERFORMER "Joshua Redman" INDEX 01 44:45:12 TRACK 08 AUDIO TITLE "Cat Battles" PERFORMER "Joshua Redman" INDEX 01 50:48:27 TRACK 09 AUDIO TITLE "Pantomime" PERFORMER "Joshua Redman" INDEX 00 56:27:46 INDEX 01 56:28:72 TRACK 10 AUDIO TITLE "Can't Dance" PERFORMER "Joshua Redman" INDEX 00 63:56:48 INDEX 01 63:56:65
Продолжительность: 1:03:31
Год издания альбома: 1998
Издатель (лейбл): Warner Bros. Records Inc.
Номер по каталогу: 9362-47052-2

Треклист:

01. Summertime - 6:17
02. Interlude 1 - 0:45
03. Visions - 4:25
04. Yesterdays - 7:20
05. Interlude 2 - 0:35
06. I Had A King - 5:40
07. The Times They Are A-Changin' - 5:08
08. Interlude 3 - 0:20
09. It Might As Well Be Spring - 6:28
10. Interlude 4 - 0:14
11. How Deep Is The Ocean - 4:04
12. Interlude 5 - 0:25
13. Love For Sale - 6:31
14. Interlude 6 - 0:59
15. Eleanor Rigby - 8:47
16. Interlude 7 - 0:35
17. How Come U Don't Call Me Anymore - 5:00
.
Joshua Redman - Saxophones
Brad Mehldau - Piano
Larry Grenadier - Bass
Brian Blade - Drums
 
Exact Audio Copy V0.99 prebeta 5 from 4. May 2009

EAC extraction logfile from 20. July 2010, 23:12

Joshua Redman / Timeless Tales (For Changing Times)

Used drive : HL-DT-STDVD-RAM GSA-H55N Adapter: 0 ID: 2

Read mode : SecureUtilize accurate stream : YesDefeat audio cache : YesMake use of C2 pointers : No

Read offset correction : 102Overread into Lead-In and Lead-Out : YesFill up missing offset samples with silence : YesDelete leading and trailing silent blocks : NoNull samples used in CRC calculations : YesUsed interface : Installed external ASPI interface

Used output format : User Defined EncoderSelected bitrate : 128 kBit/sQuality : HighAdd ID3 tag : NoCommand line compressor : G:\Program Files\Exact Audio Copy\Encoder\wavpack.exeAdditional command line options : -hm -w "CUESHEET=@F:\WAV\%a - %g.cue" -w "Year=%y" -w "Genre=%m" %s %d

TOC of the extracted CD

Track | Start | Length | Start sector | End sector --------------------------------------------------------- 1 | 0:00.00 | 6:16.65 | 0 | 28264 2 | 6:16.65 | 0:45.25 | 28265 | 31664 3 | 7:02.15 | 4:24.47 | 31665 | 51511 4 | 11:26.62 | 7:19.48 | 51512 | 84484 5 | 18:46.35 | 0:34.65 | 84485 | 87099 6 | 19:21.25 | 5:39.47 | 87100 | 112571 7 | 25:00.72 | 5:07.65 | 112572 | 135661 8 | 30:08.62 | 0:20.23 | 135662 | 137184 9 | 30:29.10 | 6:28.35 | 137185 | 166319 10 | 36:57.45 | 0:13.52 | 166320 | 167346 11 | 37:11.22 | 4:03.63 | 167347 | 185634 12 | 41:15.10 | 0:24.42 | 185635 | 187476 13 | 41:39.52 | 6:31.33 | 187477 | 216834 14 | 48:11.10 | 0:58.55 | 216835 | 221239 15 | 49:09.65 | 8:46.45 | 221240 | 260734 16 | 57:56.35 | 0:34.52 | 260735 | 263336 17 | 58:31.12 | 5:00.15 | 263337 | 285851

Range status and errors

Selected range

Filename F:\WAV\Joshua Redman - Timeless Tales (For Changing Times).wav

Peak level 99.8 % Range quality 100.0 % Test CRC 11A4AB8A Copy CRC 11A4AB8A Copy OK

No errors occurred

AccurateRip summary

Track 1 accurately ripped (confidence 20) [FA1BBA15]Track 2 accurately ripped (confidence 21) [A882399E]Track 3 accurately ripped (confidence 20) [FCACCE39]Track 4 accurately ripped (confidence 21) [0DB18B96]Track 5 accurately ripped (confidence 21) [6D183966]Track 6 accurately ripped (confidence 21) [9F0A7918]Track 7 accurately ripped (confidence 21) [95D2E569]Track 8 accurately ripped (confidence 21) [32AAAF47]Track 9 accurately ripped (confidence 21) [B6233463]Track 10 accurately ripped (confidence 21) [D38EED4C]Track 11 accurately ripped (confidence 21) [733BDCE9]Track 12 accurately ripped (confidence 20) [0E4C9207]Track 13 accurately ripped (confidence 20) [3CC0AF10]Track 14 accurately ripped (confidence 19) [61924F36]Track 15 accurately ripped (confidence 21) [B6655B17]Track 16 accurately ripped (confidence 21) [F7FD82D1]Track 17 accurately ripped (confidence 20) [FEFA4090]

All tracks accurately ripped

End of status report
 
REM GENRE JazzREM DATE 1998REM DISCID E70EE311REM COMMENT "ExactAudioCopy v0.99pb5"CATALOG 9362470520206PERFORMER "Joshua Redman"TITLE "Timeless Tales (For Changing Times)"FILE "Joshua Redman - Timeless Tales (For Changing Times).wav" WAVE TRACK 01 AUDIO TITLE "Summertime" PERFORMER "Joshua Redman" ISRC USWB19800519 INDEX 01 00:00:00 TRACK 02 AUDIO TITLE "Interlude 1" PERFORMER "Joshua Redman" ISRC USWB19800520 INDEX 01 06:16:65 TRACK 03 AUDIO TITLE "Visions" PERFORMER "Joshua Redman" ISRC USWB19800521 INDEX 00 07:02:14 INDEX 01 07:02:15 TRACK 04 AUDIO TITLE "Yesterdays" PERFORMER "Joshua Redman" ISRC USWB19800522 INDEX 00 11:26:61 INDEX 01 11:26:62 TRACK 05 AUDIO TITLE "Interlude 2" PERFORMER "Joshua Redman" ISRC USWB19800523 INDEX 00 18:46:34 INDEX 01 18:46:35 TRACK 06 AUDIO TITLE "I Had A King" PERFORMER "Joshua Redman" ISRC USWB19800524 INDEX 00 19:21:24 INDEX 01 19:21:25 TRACK 07 AUDIO TITLE "The Times They Are A-Changin'" PERFORMER "Joshua Redman" ISRC USWB19800525 INDEX 00 25:00:71 INDEX 01 25:00:72 TRACK 08 AUDIO TITLE "Interlude 3" PERFORMER "Joshua Redman" ISRC USWB19800526 INDEX 00 30:08:61 INDEX 01 30:08:62 TRACK 09 AUDIO TITLE "It Might As Well Be Spring" PERFORMER "Joshua Redman" ISRC USWB19800527 INDEX 00 30:29:09 INDEX 01 30:29:10 TRACK 10 AUDIO TITLE "Interlude 4" PERFORMER "Joshua Redman" ISRC USWB19800528 INDEX 00 36:57:44 INDEX 01 36:57:45 TRACK 11 AUDIO TITLE "How Deep Is The Ocean" PERFORMER "Joshua Redman" ISRC USWB19800529 INDEX 00 37:11:21 INDEX 01 37:11:22 TRACK 12 AUDIO TITLE "Interlude 5" PERFORMER "Joshua Redman" ISRC USWB19800530 INDEX 00 41:15:09 INDEX 01 41:15:10 TRACK 13 AUDIO TITLE "Love For Sale" PERFORMER "Joshua Redman" ISRC USWB19800531 INDEX 01 41:39:52 TRACK 14 AUDIO TITLE "Interlude 6" PERFORMER "Joshua Redman" ISRC USWB19800532 INDEX 00 48:11:09 INDEX 01 48:11:10 TRACK 15 AUDIO TITLE "Eleanor Rigby" PERFORMER "Joshua Redman" ISRC USWB19800533 INDEX 00 49:09:64 INDEX 01 49:09:65 TRACK 16 AUDIO TITLE "Interlude 7" PERFORMER "Joshua Redman" ISRC USWB19800534 INDEX 00 57:56:34 INDEX 01 57:56:35 TRACK 17 AUDIO TITLE "How Come U Don't Call Me Anymore" PERFORMER "Joshua Redman" ISRC USWB19800535 INDEX 00 58:31:11 INDEX 01 58:31:12
Продолжительность: 1:13:38
Год издания альбома: 2000
Издатель (лейбл): Warner Bros. Records Inc.
Номер по каталогу: 9362-47465-2

Треклист:

01. Courage (Asymmetric Aria) - 7:34
02. Belonging (Lopsided Lullaby) - 5:50
03. Neverend - 4:28
04. Leap Of Faith - 9:07
05. Balance - 9:05
06. Twilight ... And Beyond - 11:00
07. Stoic Revolutions - 6:13
08. Suspended Emanations - 6:22
09. Last Rites Of Rock 'N' Roll - 7:06
10. A Life? - 6:52
Joshua Redman - Saxophones
Aaron Goldberg - Piano
Reuben Rogers - Bass
Gregory Hutchinson - Drums
 
Exact Audio Copy V0.99 prebeta 5 from 4. May 2009

EAC extraction logfile from 18. July 2010, 23:17

Joshua Redman / Beyond

Used drive : HL-DT-STDVD-RAM GSA-H55N Adapter: 0 ID: 2

Read mode : SecureUtilize accurate stream : YesDefeat audio cache : YesMake use of C2 pointers : No

Read offset correction : 102Overread into Lead-In and Lead-Out : YesFill up missing offset samples with silence : YesDelete leading and trailing silent blocks : NoNull samples used in CRC calculations : YesUsed interface : Installed external ASPI interface

Used output format : User Defined EncoderSelected bitrate : 128 kBit/sQuality : HighAdd ID3 tag : NoCommand line compressor : G:\Program Files\Exact Audio Copy\Encoder\wavpack.exeAdditional command line options : -hm -w "CUESHEET=@F:\WAV\%a - %g.cue" -w "Year=%y" -w "Genre=%m" %s %d

TOC of the extracted CD

Track | Start | Length | Start sector | End sector --------------------------------------------------------- 1 | 0:00.00 | 7:34.07 | 0 | 34056 2 | 7:34.07 | 5:50.18 | 34057 | 60324 3 | 13:24.25 | 4:27.55 | 60325 | 80404 4 | 17:52.05 | 9:06.67 | 80405 | 121421 5 | 26:58.72 | 9:05.15 | 121422 | 162311 6 | 36:04.12 | 11:00.30 | 162312 | 211841 7 | 47:04.42 | 6:13.00 | 211842 | 239816 8 | 53:17.42 | 6:22.28 | 239817 | 268494 9 | 59:39.70 | 7:05.65 | 268495 | 300434 10 | 66:45.60 | 6:51.70 | 300435 | 331329

Range status and errors

Selected range

Filename F:\WAV\Joshua Redman - Beyond.wav

Peak level 99.8 % Range quality 100.0 % Test CRC 18DCBD9D Copy CRC 18DCBD9D Copy OK

No errors occurred

AccurateRip summary

Track 1 accurately ripped (confidence 31) [D92DD2BD]Track 2 accurately ripped (confidence 30) [4CF7DF01]Track 3 accurately ripped (confidence 31) [45B812EA]Track 4 accurately ripped (confidence 31) [63AEE336]Track 5 accurately ripped (confidence 31) [FE46631D]Track 6 accurately ripped (confidence 30) [BBA96C10]Track 7 accurately ripped (confidence 29) [34E63467]Track 8 accurately ripped (confidence 31) [18F02420]Track 9 accurately ripped (confidence 31) [1D0136C5]Track 10 accurately ripped (confidence 30) [68F8C309]

All tracks accurately ripped

End of status report
 
REM GENRE JazzREM DATE 2000REM DISCID 8711410AREM COMMENT "ExactAudioCopy v0.99pb5"CATALOG 0093624746522PERFORMER "Joshua Redman"TITLE "Beyond"FILE "Joshua Redman - Beyond.wv" WAVE TRACK 01 AUDIO TITLE "Courage (Asymmetric Aria)" PERFORMER "Joshua Redman" ISRC USWB10000111 INDEX 01 00:00:00 TRACK 02 AUDIO TITLE "Belonging (Lopsided Lullaby)" PERFORMER "Joshua Redman" ISRC USWB10000112 INDEX 00 07:32:32 INDEX 01 07:34:07 TRACK 03 AUDIO TITLE "Neverend" PERFORMER "Joshua Redman" ISRC USWB10000113 INDEX 00 13:22:35 INDEX 01 13:24:25 TRACK 04 AUDIO TITLE "Leap Of Faith" PERFORMER "Joshua Redman" ISRC USWB10000114 INDEX 00 17:50:35 INDEX 01 17:52:05 TRACK 05 AUDIO TITLE "Balance" PERFORMER "Joshua Redman" ISRC USWB10000115 INDEX 00 26:55:40 INDEX 01 26:58:72 TRACK 06 AUDIO TITLE "Twilight ... And Beyond" PERFORMER "Joshua Redman" ISRC USWB10000116 INDEX 01 36:04:12 TRACK 07 AUDIO TITLE "Stoic Revolutions" PERFORMER "Joshua Redman" ISRC USWB10000117 INDEX 01 47:04:42 TRACK 08 AUDIO TITLE "Suspended Emanations" PERFORMER "Joshua Redman" ISRC USWB10000118 INDEX 00 53:15:67 INDEX 01 53:17:42 TRACK 09 AUDIO TITLE "Last Rites Of Rock 'N' Roll" PERFORMER "Joshua Redman" ISRC USWB10000119 INDEX 00 59:35:62 INDEX 01 59:39:70 TRACK 10 AUDIO TITLE "A Life?" PERFORMER "Joshua Redman" ISRC USWB10000120 INDEX 00 66:42:62 INDEX 01 66:45:60
Продолжительность: 54:09
Год издания альбома: 2001
Издатель (лейбл): Warner Bros. Records Inc.
Номер по каталогу: 9 47997-2

Треклист:

01. Before - 1:51
02. Free Speech, Phase I - 7:05
03. Free Speech, Phase II - 4:29
04. Our Minuet - 8:28
05. Bronze - 8:28
06. Time - 10:38
07. Enemies Within - 9:24
08. After - 3:45
Joshua Redman - Tenor Saxophone
Aaron Goldberg - Piano
Reuben Rogers - Bass
Gregory Hutchinson - Drums
 
Exact Audio Copy V1.0 beta 1 from 15. November 2010

EAC extraction logfile from 8. February 2011, 20:56

Joshua Redman Quartet / Passage of Time

Used drive : HL-DT-STDVD-RAM GSA-H55N Adapter: 0 ID: 2

Read mode : SecureUtilize accurate stream : YesDefeat audio cache : YesMake use of C2 pointers : No

Read offset correction : 102Overread into Lead-In and Lead-Out : YesFill up missing offset samples with silence : YesDelete leading and trailing silent blocks : NoNull samples used in CRC calculations : YesUsed interface : Installed external ASPI interface

Used output format : User Defined EncoderSelected bitrate : 128 kBit/sQuality : HighAdd ID3 tag : NoCommand line compressor : G:\Program Files\Exact Audio Copy\Encoder\wavpack.exeAdditional command line options : -hm -w "CUESHEET=@F:\WAV\%a - %g.cue" -w "Year=%y" -w "Genre=%m" %s %d

TOC of the extracted CD

Track | Start | Length | Start sector | End sector --------------------------------------------------------- 1 | 0:00.32 | 1:50.68 | 32 | 8349 2 | 1:51.25 | 7:05.20 | 8350 | 40244 3 | 8:56.45 | 4:29.22 | 40245 | 60441 4 | 13:25.67 | 8:28.35 | 60442 | 98576 5 | 21:54.27 | 8:27.70 | 98577 | 136671 6 | 30:22.22 | 10:38.23 | 136672 | 184544 7 | 41:00.45 | 9:23.65 | 184545 | 226834 8 | 50:24.35 | 3:44.62 | 226835 | 243696

Range status and errors

Selected range

Filename F:\WAV\Joshua Redman Quartet - Passage of Time.wav

Peak level 99.8 % Extraction speed 0.4 X Range quality 100.0 % Test CRC E188302B Copy CRC E188302B Copy OK

No errors occurred

AccurateRip summary

Track 1 accurately ripped (confidence 11) [CDE34F4A]Track 2 accurately ripped (confidence 12) [16B12262]Track 3 accurately ripped (confidence 12) [3265BB76]Track 4 accurately ripped (confidence 12) [08D41ED9]Track 5 accurately ripped (confidence 12) [4166D92D]Track 6 accurately ripped (confidence 12) [B861ED32]Track 7 accurately ripped (confidence 12) [3C505935]Track 8 accurately ripped (confidence 11) [E4414F3F]

All tracks accurately ripped

End of status report

==== Log checksum E79C94A1D36C85AAD51A760948A55CF734064D76943C93AC146F7608E6B6DCAB ====
 
REM GENRE JazzREM DATE 2001REM DISCID 590CB108REM COMMENT "ExactAudioCopy v1.0b1"CATALOG 0093624799726PERFORMER "Joshua Redman Quartet"TITLE "Passage of Time"FILE "Joshua Redman Quartet - Passage of Time.wv" WAVE TRACK 01 AUDIO TITLE "Before" PERFORMER "Joshua Redman Quartet" ISRC USWB10100033 INDEX 00 00:00:00 INDEX 01 00:00:32 TRACK 02 AUDIO TITLE "Free Speech, Phase I" PERFORMER "Joshua Redman Quartet" ISRC USWB10100034 INDEX 01 01:51:25 TRACK 03 AUDIO TITLE "Free Speech, Phase II" PERFORMER "Joshua Redman Quartet" ISRC USWB10100035 INDEX 01 08:56:45 TRACK 04 AUDIO TITLE "Our Minuet" PERFORMER "Joshua Redman Quartet" ISRC USWB10100036 INDEX 01 13:25:67 TRACK 05 AUDIO TITLE "Bronze" PERFORMER "Joshua Redman Quartet" ISRC USWB10100037 INDEX 01 21:54:27 TRACK 06 AUDIO TITLE "Time" PERFORMER "Joshua Redman Quartet" ISRC USWB10100038 INDEX 01 30:22:22 TRACK 07 AUDIO TITLE "Enemies Within" PERFORMER "Joshua Redman Quartet" ISRC USWB10100038 INDEX 01 41:00:45 TRACK 08 AUDIO TITLE "After" PERFORMER "Joshua Redman Quartet" ISRC USWB10100040 INDEX 01 50:24:35
Продолжительность: 1:09:20
Год издания альбома: 2002
Издатель (лейбл): Warner Bros. Records Inc.
Номер по каталогу: 9362-48279-2

Треклист:

01. Molten Soul - 8:10
02. Jazz Crimes - 6:44
03. The Long Way Home - 5:44
04. Oumou - 3:43
05. Still Pushin' That Rock - 8:28
06. Can a Good Thing Last Forever? - 6:18
07. Boogielastic - 7:55
08. Unknowing - 3:29
09. News from the Front - 5:57
10. Letting Go - 5:07
11. The Birthday Song, Part 1 - 2:44
12. The Birthday Song, Part 2 - 5:02
Joshua Redman - Saxophones
Sam Yahel - Piano, Electric Piano, Clavinet, Fender Rhodes, Hammond Organ, Synthesizer, Vocals
Brian Blade - Drums
Bashiri Johnson - Bongos, Conga, Shaker, Tambourine
 
Exact Audio Copy V0.99 prebeta 5 from 4. May 2009

EAC extraction logfile from 17. July 2010, 19:55

Joshua Redman / Elastic

Used drive : HL-DT-STDVD-RAM GSA-H55N Adapter: 0 ID: 2

Read mode : SecureUtilize accurate stream : YesDefeat audio cache : YesMake use of C2 pointers : No

Read offset correction : 102Overread into Lead-In and Lead-Out : YesFill up missing offset samples with silence : YesDelete leading and trailing silent blocks : NoNull samples used in CRC calculations : YesUsed interface : Installed external ASPI interface

Used output format : User Defined EncoderSelected bitrate : 128 kBit/sQuality : HighAdd ID3 tag : NoCommand line compressor : G:\Program Files\Exact Audio Copy\Encoder\wavpack.exeAdditional command line options : -hm -w "CUESHEET=@F:\WAV\%a - %g.cue" -w "Year=%y" -w "Genre=%m" %s %d

TOC of the extracted CD

Track | Start | Length | Start sector | End sector --------------------------------------------------------- 1 | 0:00.00 | 8:10.32 | 0 | 36781 2 | 8:10.32 | 6:43.48 | 36782 | 67054 3 | 14:54.05 | 5:43.52 | 67055 | 92831 4 | 20:37.57 | 3:42.65 | 92832 | 109546 5 | 24:20.47 | 8:27.60 | 109547 | 147631 6 | 32:48.32 | 6:18.00 | 147632 | 175981 7 | 39:06.32 | 7:55.05 | 175982 | 211611 8 | 47:01.37 | 3:28.43 | 211612 | 227254 9 | 50:30.05 | 5:57.17 | 227255 | 254046 10 | 56:27.22 | 5:07.28 | 254047 | 277099 11 | 61:34.50 | 2:43.60 | 277100 | 289384 12 | 64:18.35 | 5:01.45 | 289385 | 312004 13 | 71:52.05 | 7:16.72 | 323405 | 356176

Range status and errors

Selected range

Filename F:\WAV\Joshua Redman - Elastic.wav

Peak level 99.8 % Range quality 100.0 % Test CRC 9619F721 Copy CRC 9619F721 Copy OK

No errors occurred

AccurateRip summary

Track 1 accurately ripped (confidence 23) [1DEDBBF5]Track 2 accurately ripped (confidence 23) [75A6C8F6]Track 3 accurately ripped (confidence 23) [95DF58C1]Track 4 accurately ripped (confidence 23) [1BA04E76]Track 5 accurately ripped (confidence 23) [E778349C]Track 6 accurately ripped (confidence 22) [8906D001]Track 7 accurately ripped (confidence 23) [4032CE52]Track 8 accurately ripped (confidence 23) [76162CBD]Track 9 accurately ripped (confidence 23) [644B3519]Track 10 accurately ripped (confidence 23) [AB675003]Track 11 accurately ripped (confidence 22) [2B70710F]Track 12 accurately ripped (confidence 22) [7DEAC881]

All tracks accurately ripped

End of status report
 
REM GENRE JazzREM DATE 2002REM DISCID C9128D0DREM COMMENT "ExactAudioCopy v0.99pb5"CATALOG 0093624827924PERFORMER "Joshua Redman"TITLE "Elastic"FILE "Joshua Redman - Elastic.wv" WAVE TRACK 01 AUDIO TITLE "Molten Soul" PERFORMER "Joshua Redman" ISRC USWB10201891 INDEX 01 00:00:00 TRACK 02 AUDIO TITLE "Jazz Crimes" PERFORMER "Joshua Redman" ISRC USWB10201892 INDEX 00 08:08:12 INDEX 01 08:10:32 TRACK 03 AUDIO TITLE "The Long Way Home" PERFORMER "Joshua Redman" ISRC USWB10201893 INDEX 01 14:54:05 TRACK 04 AUDIO TITLE "Oumou" PERFORMER "Joshua Redman" ISRC USWB10201894 INDEX 01 20:37:57 TRACK 05 AUDIO TITLE "Still Pushin' That Rock" PERFORMER "Joshua Redman" ISRC USWB10201895 INDEX 00 24:17:67 INDEX 01 24:20:47 TRACK 06 AUDIO TITLE "Can a Good Thing Last Forever?" PERFORMER "Joshua Redman" ISRC USWB10201896 INDEX 00 32:47:15 INDEX 01 32:48:32 TRACK 07 AUDIO TITLE "Boogielastic" PERFORMER "Joshua Redman" ISRC USWB10201897 INDEX 00 39:05:05 INDEX 01 39:06:32 TRACK 08 AUDIO TITLE "Unknowing" PERFORMER "Joshua Redman" ISRC USWB10201898 INDEX 00 47:00:27 INDEX 01 47:01:37 TRACK 09 AUDIO TITLE "News from the Front" PERFORMER "Joshua Redman" ISRC USWB10201899 INDEX 01 50:30:05 TRACK 10 AUDIO TITLE "Letting Go" PERFORMER "Joshua Redman" ISRC USWB10201900 INDEX 00 56:26:02 INDEX 01 56:27:22 TRACK 11 AUDIO TITLE "The Birthday Song, Part 1" PERFORMER "Joshua Redman" ISRC USWB10201901 INDEX 01 61:34:50 TRACK 12 AUDIO TITLE "The Birthday Song, Part 2" PERFORMER "Joshua Redman" ISRC USWB10201902 INDEX 01 64:18:35
В папке Extra находится мультимедийная часть данного издания. Видеоролик - интервью Джошуа Режмана перед концертом Elastic Band.
Продолжительность: 57:37
Год издания альбома: 2005
Издатель (лейбл): Nonesuch Records Inc.
Номер по каталогу: 7559-79864-2

Треклист:

01. Soundcheck - 1:26
02. Sweet Nasty - 6:20
03. Just a Moment - 1:21
04. Shut Your Mouth - 5:37
05. The Crunge - 2:38
06. Riverwide - 6:21
07. Greasy G - 4:35
08. Lonely Woman - 6:12
09. Swunk - 8:16
10. Blowing Changes - 2:10
11. Double Jeopardy - 4:42
12. Put It in Your Pocket - 6:52
13. Showtime - 1:07
Joshua Redman - Saxophones, Organ, Bass Synthesizer, Clavinet
Sam Yahel - Synthesizers, Fender Rhodes, Clavinet, Organ
Brian Blade - Drums (tr. 1, 2, 3, 5, 6, 7, 10, 11)
Jeff Ballard - Drums (tr. 4, 8, 9, 13)

Flea - Bass (tr. 5, 10, 11)
Jeff Parker - Guitar (tr. 6)
Meshell Ndegeocello - Bass (tr. 7)
Eric Krasno - Guitar (tr. 7)
Stefon Harris - Vibraphone (tr. 8, 9)
Kurt Rosenwinkel - Guitar (tr. 9)
Peter Bernstein - Guitar (tr. 11, 12)
Nicholas Payton - Trumpet (tr. 12)
?uestlove - Drums (tr. 12)
 
Exact Audio Copy V0.99 prebeta 5 from 4. May 2009

EAC extraction logfile from 17. July 2010, 18:16

Joshua Redman Elastic Band / Momentum

Used drive : HL-DT-STDVD-RAM GSA-H55N Adapter: 0 ID: 2

Read mode : SecureUtilize accurate stream : YesDefeat audio cache : YesMake use of C2 pointers : No

Read offset correction : 102Overread into Lead-In and Lead-Out : YesFill up missing offset samples with silence : YesDelete leading and trailing silent blocks : NoNull samples used in CRC calculations : YesUsed interface : Installed external ASPI interface

Used output format : User Defined EncoderSelected bitrate : 128 kBit/sQuality : HighAdd ID3 tag : NoCommand line compressor : G:\Program Files\Exact Audio Copy\Encoder\wavpack.exeAdditional command line options : -hm -w "CUESHEET=@F:\WAV\%a - %g.cue" -w "Year=%y" -w "Genre=%m" %s %d

TOC of the extracted CD

Track | Start | Length | Start sector | End sector --------------------------------------------------------- 1 | 0:00.00 | 1:26.14 | 0 | 6463 2 | 1:26.14 | 6:20.08 | 6464 | 34971 3 | 7:46.22 | 1:21.03 | 34972 | 41049 4 | 9:07.25 | 5:37.13 | 41050 | 66337 5 | 14:44.38 | 2:38.25 | 66338 | 78212 6 | 17:22.63 | 6:20.51 | 78213 | 106763 7 | 23:43.39 | 4:35.34 | 106764 | 127422 8 | 28:18.73 | 6:11.70 | 127423 | 155317 9 | 34:30.68 | 8:15.71 | 155318 | 192513 10 | 42:46.64 | 2:10.10 | 192514 | 202273 11 | 44:56.74 | 4:41.44 | 202274 | 223392 12 | 49:38.43 | 6:51.69 | 223393 | 254286 13 | 56:30.37 | 1:06.70 | 254287 | 259306

Range status and errors

Selected range

Filename F:\WAV\Joshua Redman Elastic Band - Momentum.wav

Peak level 100.0 % Range quality 100.0 % Test CRC FE4A4428 Copy CRC FE4A4428 Copy OK

No errors occurred

AccurateRip summary

Track 1 accurately ripped (confidence 43) [C8BEC0A2]Track 2 accurately ripped (confidence 42) [95584E8D]Track 3 accurately ripped (confidence 42) [027E55C2]Track 4 accurately ripped (confidence 42) [13CC7664]Track 5 accurately ripped (confidence 42) [1CC2EB96]Track 6 accurately ripped (confidence 42) [83FCB34B]Track 7 accurately ripped (confidence 43) [13A544A8]Track 8 accurately ripped (confidence 42) [0F367DBD]Track 9 accurately ripped (confidence 43) [034B1425]Track 10 accurately ripped (confidence 44) [29AF076E]Track 11 accurately ripped (confidence 42) [464ACA6E]Track 12 accurately ripped (confidence 42) [DD3A555C]Track 13 accurately ripped (confidence 44) [2125CAE0]

All tracks accurately ripped

End of status report
 
REM GENRE JazzREM DATE 2005REM DISCID C60D810DREM COMMENT "ExactAudioCopy v0.99pb5"CATALOG 0075597986426PERFORMER "Joshua Redman Elastic Band"TITLE "Momentum"FILE "Joshua Redman Elastic Band - Momentum.wv" WAVE TRACK 01 AUDIO TITLE "Soundcheck" PERFORMER "Joshua Redman Elastic Band" ISRC USNO10486401 INDEX 01 00:00:00 TRACK 02 AUDIO TITLE "Sweet Nasty" PERFORMER "Joshua Redman Elastic Band" ISRC USNO10486402 INDEX 01 01:26:14 TRACK 03 AUDIO TITLE "Just a Moment" PERFORMER "Joshua Redman Elastic Band" ISRC USNO10486403 INDEX 01 07:46:22 TRACK 04 AUDIO TITLE "Shut Your Mouth" PERFORMER "Joshua Redman Elastic Band" ISRC USNO10486404 INDEX 01 09:07:25 TRACK 05 AUDIO TITLE "The Crunge" PERFORMER "Joshua Redman Elastic Band" ISRC USNO10486405 INDEX 01 14:44:38 TRACK 06 AUDIO TITLE "Riverwide" PERFORMER "Joshua Redman Elastic Band" ISRC USNO10486406 INDEX 00 17:21:56 INDEX 01 17:22:63 TRACK 07 AUDIO TITLE "Greasy G" PERFORMER "Joshua Redman Elastic Band" ISRC USNO10486407 INDEX 01 23:43:39 TRACK 08 AUDIO TITLE "Lonely Woman" PERFORMER "Joshua Redman Elastic Band" ISRC USNO10486408 INDEX 00 28:17:39 INDEX 01 28:18:73 TRACK 09 AUDIO TITLE "Swunk" PERFORMER "Joshua Redman Elastic Band" ISRC USNO10486409 INDEX 00 34:30:16 INDEX 01 34:30:68 TRACK 10 AUDIO TITLE "Blowing Changes" PERFORMER "Joshua Redman Elastic Band" ISRC USNO10486410 INDEX 01 42:46:64 TRACK 11 AUDIO TITLE "Double Jeopardy" PERFORMER "Joshua Redman Elastic Band" ISRC USNO10486411 INDEX 00 44:55:61 INDEX 01 44:56:74 TRACK 12 AUDIO TITLE "Put It in Your Pocket" PERFORMER "Joshua Redman Elastic Band" ISRC USNO10486412 INDEX 00 49:37:44 INDEX 01 49:38:43 TRACK 13 AUDIO TITLE "Showtime" PERFORMER "Joshua Redman Elastic Band" ISRC USNO10486413 INDEX 01 56:30:37
Продолжительность: 1:03:23
Год издания альбома: 2007
Издатель (лейбл): Nonesuch Records Inc.
Номер по каталогу: 7559-79993-8

Треклист:

01. The Surrey with the Fringe on Top - 5:14
02. East of the Sun (and West of the Moon) - 5:37
03. Zarafah - 7:58
04. Indian Song - 6:12
05. I'm an Old Cowhand - 6:07
06. Wagon Wheels - 5:58
07. Back East - 6:43
08. Mantra #5 - 6:12
09. Indonesia - 4:43
10. India - 4:58
11. GJ - 3:40
Joshua Redman - Soprano & Tenor Saxophones
Larry Grenadier - Bass
Christian McBride - Bass
Reuben Rogers - Bass
Brian Blade - Drums
Eric Harland - Drums
Ali Muhammed Jackson - Drums

Guests:
Chris Cheek - Soprano Saxophone
Joe Lovano - Tenor Saxophone
Dewey Redman - Alto & Tenor Saxophones
 
Exact Audio Copy V0.99 prebeta 5 from 4. May 2009

EAC extraction logfile from 17. July 2010, 16:55

Joshua Redman / Back East

Used drive : HL-DT-STDVD-RAM GSA-H55N Adapter: 0 ID: 2

Read mode : SecureUtilize accurate stream : YesDefeat audio cache : YesMake use of C2 pointers : No

Read offset correction : 102Overread into Lead-In and Lead-Out : YesFill up missing offset samples with silence : YesDelete leading and trailing silent blocks : NoNull samples used in CRC calculations : YesUsed interface : Installed external ASPI interface

Used output format : User Defined EncoderSelected bitrate : 128 kBit/sQuality : HighAdd ID3 tag : NoCommand line compressor : G:\Program Files\Exact Audio Copy\Encoder\wavpack.exeAdditional command line options : -hm -w "CUESHEET=@F:\WAV\%a - %g.cue" -w "Year=%y" -w "Genre=%m" %s %d

TOC of the extracted CD

Track | Start | Length | Start sector | End sector --------------------------------------------------------- 1 | 0:00.00 | 5:13.42 | 0 | 23516 2 | 5:13.42 | 5:36.57 | 23517 | 48773 3 | 10:50.24 | 7:58.36 | 48774 | 84659 4 | 18:48.60 | 6:12.29 | 84660 | 112588 5 | 25:01.14 | 6:06.69 | 112589 | 140107 6 | 31:08.08 | 5:58.26 | 140108 | 166983 7 | 37:06.34 | 6:43.14 | 166984 | 197222 8 | 43:49.48 | 6:12.08 | 197223 | 225130 9 | 50:01.56 | 4:43.12 | 225131 | 246367 10 | 54:44.68 | 4:57.69 | 246368 | 268711 11 | 59:42.62 | 3:40.26 | 268712 | 285237

Range status and errors

Selected range

Filename F:\WAV\Joshua Redman - Back East.wav

Peak level 99.8 % Range quality 100.0 % Test CRC 9C2A6DBE Copy CRC 9C2A6DBE Copy OK

No errors occurred

AccurateRip summary

Track 1 accurately ripped (confidence 25) [A084E86B]Track 2 accurately ripped (confidence 24) [80AC3A21]Track 3 accurately ripped (confidence 24) [FF1E29A1]Track 4 accurately ripped (confidence 24) [3EA01DD4]Track 5 accurately ripped (confidence 24) [A84FB52A]Track 6 accurately ripped (confidence 24) [0B3D8766]Track 7 accurately ripped (confidence 24) [961E2C54]Track 8 accurately ripped (confidence 24) [CB38FA59]Track 9 accurately ripped (confidence 24) [B97C304D]Track 10 accurately ripped (confidence 24) [24C60EF9]Track 11 accurately ripped (confidence 24) [FC3ACEED]

All tracks accurately ripped

End of status report
 
REM GENRE JazzREM DATE 2007REM DISCID 7D0EDB0BREM COMMENT "ExactAudioCopy v0.99pb5"CATALOG 0075597999389PERFORMER "Joshua Redman"TITLE "Back East"FILE "Joshua Redman - Back East.wv" WAVE TRACK 01 AUDIO TITLE "The Surrey with the Fringe on Top" PERFORMER "Joshua Redman" ISRC USNO10600976 INDEX 01 00:00:00 TRACK 02 AUDIO TITLE "East of the Sun (and West of the Moon)" PERFORMER "Joshua Redman" ISRC USNO10600977 INDEX 00 05:12:51 INDEX 01 05:13:42 TRACK 03 AUDIO TITLE "Zarafah" PERFORMER "Joshua Redman" ISRC USNO10600978 INDEX 00 10:48:68 INDEX 01 10:50:24 TRACK 04 AUDIO TITLE "Indian Song" PERFORMER "Joshua Redman" ISRC USNO10600978 INDEX 01 18:48:60 TRACK 05 AUDIO TITLE "I'm an Old Cowhand" PERFORMER "Joshua Redman" ISRC USNO10600980 INDEX 00 24:59:33 INDEX 01 25:01:14 TRACK 06 AUDIO TITLE "Wagon Wheels" PERFORMER "Joshua Redman" ISRC USNO10600981 INDEX 01 31:08:08 TRACK 07 AUDIO TITLE "Back East" PERFORMER "Joshua Redman" ISRC USNO10600982 INDEX 01 37:06:34 TRACK 08 AUDIO TITLE "Mantra #5" PERFORMER "Joshua Redman" ISRC USNO10601018 INDEX 00 43:47:23 INDEX 01 43:49:48 TRACK 09 AUDIO TITLE "Indonesia" PERFORMER "Joshua Redman" ISRC USNO10600984 INDEX 00 49:59:55 INDEX 01 50:01:56 TRACK 10 AUDIO TITLE "India" PERFORMER "Joshua Redman" ISRC USNO10600985 INDEX 00 54:42:71 INDEX 01 54:44:68 TRACK 11 AUDIO TITLE "GJ" PERFORMER "Joshua Redman" ISRC USNO10600986 INDEX 00 59:39:11 INDEX 01 59:42:62
Продолжительность: 1:12:42
Год издания альбома: 2009
Издатель (лейбл): Nonesuch Records Inc.
Номер по каталогу: 7559-79923-0

Треклист:

01. Uncharted - 2:06
02. Faraway - 6:44
03. Identity Thief - 6:39
04. Just Like You - 7:33
05. Hutchhiker's Guide - 5:49
06. Ghost - 3:39
07. Insomnomaniac - 8:42
08. Moonlight - 5:03
09. Un Peu Fou - 5:05
10. March - 3:23
11. Round Reuben - 6:27
12. Little Ditty - 8:33
13. Through The Valley - 3:00
Joshua Redman - Saxophones
Larry Grenadier - Bass
Reuben Rogers - Bass
Brian Blade - Drums
Gregory Hutchinson - Drums
 
Exact Audio Copy V0.99 prebeta 5 from 4. May 2009

EAC extraction logfile from 17. July 2010, 14:23

Joshua Redman / Compass

Used drive : HL-DT-STDVD-RAM GSA-H55N Adapter: 0 ID: 2

Read mode : SecureUtilize accurate stream : YesDefeat audio cache : YesMake use of C2 pointers : No

Read offset correction : 102Overread into Lead-In and Lead-Out : YesFill up missing offset samples with silence : YesDelete leading and trailing silent blocks : NoNull samples used in CRC calculations : YesUsed interface : Installed external ASPI interface

Used output format : User Defined EncoderSelected bitrate : 128 kBit/sQuality : HighAdd ID3 tag : NoCommand line compressor : G:\Program Files\Exact Audio Copy\Encoder\wavpack.exeAdditional command line options : -hm -w "CUESHEET=@F:\WAV\%a - %g.cue" -w "Year=%y" -w "Genre=%m" %s %d

TOC of the extracted CD

Track | Start | Length | Start sector | End sector --------------------------------------------------------- 1 | 0:00.00 | 2:05.49 | 0 | 9423 2 | 2:05.49 | 6:43.59 | 9424 | 39707 3 | 8:49.33 | 6:39.14 | 39708 | 69646 4 | 15:28.47 | 7:32.66 | 69647 | 103612 5 | 23:01.38 | 5:49.20 | 103613 | 129807 6 | 28:50.58 | 3:38.63 | 129808 | 146220 7 | 32:29.46 | 8:41.45 | 146221 | 185340 8 | 41:11.16 | 5:03.36 | 185341 | 208101 9 | 46:14.52 | 5:05.15 | 208102 | 230991 10 | 51:19.67 | 3:22.44 | 230992 | 246185 11 | 54:42.36 | 6:26.64 | 246186 | 275199 12 | 61:09.25 | 8:32.60 | 275200 | 313659 13 | 69:42.10 | 2:59.51 | 313660 | 327135

Range status and errors

Selected range

Filename F:\WAV\Joshua Redman - Compass.wav

Peak level 100.0 % Range quality 100.0 % Test CRC 5E54862A Copy CRC 5E54862A Copy OK

No errors occurred

AccurateRip summary

Track 1 accurately ripped (confidence 44) [0A221451]Track 2 accurately ripped (confidence 45) [1A430A22]Track 3 accurately ripped (confidence 45) [BBC0CD46]Track 4 accurately ripped (confidence 45) [540792CC]Track 5 accurately ripped (confidence 45) [941305D1]Track 6 accurately ripped (confidence 45) [E0DA3781]Track 7 accurately ripped (confidence 44) [2ACB1D8C]Track 8 accurately ripped (confidence 45) [783B4258]Track 9 accurately ripped (confidence 45) [7CD4FE2F]Track 10 accurately ripped (confidence 45) [4909EDC5]Track 11 accurately ripped (confidence 43) [68FDAC88]Track 12 accurately ripped (confidence 41) [12877A84]Track 13 accurately ripped (confidence 43) [359FA360]

All tracks accurately ripped

End of status report
 
REM GENRE JazzREM DATE 2009REM DISCID B211090DREM COMMENT "ExactAudioCopy v0.99pb5"CATALOG 0075597992304PERFORMER "Joshua Redman"TITLE "Compass"FILE "Joshua Redman - Compass.wv" WAVE TRACK 01 AUDIO TITLE "Uncharted" PERFORMER "Joshua Redman" ISRC USNO10807814 INDEX 01 00:00:00 TRACK 02 AUDIO TITLE "Faraway" PERFORMER "Joshua Redman" ISRC USNO10807815 INDEX 01 02:05:49 TRACK 03 AUDIO TITLE "Identity Thief" PERFORMER "Joshua Redman" ISRC USNO10807816 INDEX 01 08:49:33 TRACK 04 AUDIO TITLE "Just Like You" PERFORMER "Joshua Redman" ISRC USNO10807817 INDEX 01 15:28:47 TRACK 05 AUDIO TITLE "Hutchhiker's Guide" PERFORMER "Joshua Redman" ISRC USNO10807818 INDEX 00 22:59:17 INDEX 01 23:01:38 TRACK 06 AUDIO TITLE "Ghost" PERFORMER "Joshua Redman" ISRC USNO10807819 INDEX 00 28:49:21 INDEX 01 28:50:58 TRACK 07 AUDIO TITLE "Insomnomaniac" PERFORMER "Joshua Redman" ISRC USNO10807820 INDEX 01 32:29:46 TRACK 08 AUDIO TITLE "Moonlight" PERFORMER "Joshua Redman" ISRC USNO10807821 INDEX 00 41:09:38 INDEX 01 41:11:16 TRACK 09 AUDIO TITLE "Un Peu Fou" PERFORMER "Joshua Redman" ISRC USNO10807821 INDEX 01 46:14:52 TRACK 10 AUDIO TITLE "March" PERFORMER "Joshua Redman" ISRC USNO10807823 INDEX 01 51:19:67 TRACK 11 AUDIO TITLE "Round Reuben" PERFORMER "Joshua Redman" ISRC USNO10807824 INDEX 01 54:42:36 TRACK 12 AUDIO TITLE "Little Ditty" PERFORMER "Joshua Redman" ISRC USNO10807824 INDEX 01 61:09:25 TRACK 13 AUDIO TITLE "Through The Valley" PERFORMER "Joshua Redman" ISRC USNO10807826 INDEX 00 69:40:23 INDEX 01 69:42:10
Продолжительность: 1:10:14
Год записи альбома: 1994
Издатель (лейбл): Jazzdoor
Номер по каталогу: JD 1282

Треклист:

01. Blues For Pat - 14:25
02. Sketches - 14:16
03. Wish - 10:45
04. St. Thomas - 18:27
05. We Had A Sister - 7:08
06. Carla's Groove - 5:14
Joshua Redman - Tenor Saxophone
Pat Metheny - Guitar
Christian McBride - Bass
Billy Higgins - Drums
 
Exact Audio Copy V1.0 beta 1 from 15. November 2010

EAC extraction logfile from 23. February 2011, 23:29

Joshua Redman Quartet / Blues For Pat

Used drive : HL-DT-STDVD-RAM GSA-H55N Adapter: 0 ID: 2

Read mode : SecureUtilize accurate stream : YesDefeat audio cache : YesMake use of C2 pointers : No

Read offset correction : 102Overread into Lead-In and Lead-Out : YesFill up missing offset samples with silence : YesDelete leading and trailing silent blocks : NoNull samples used in CRC calculations : YesUsed interface : Installed external ASPI interface

Used output format : User Defined EncoderSelected bitrate : 128 kBit/sQuality : HighAdd ID3 tag : NoCommand line compressor : G:\Program Files\Exact Audio Copy\Encoder\wavpack.exeAdditional command line options : -hm -w "CUESHEET=@F:\WAV\%a - %g.cue" -w "Year=%y" -w "Genre=%m" %s %d

TOC of the extracted CD

Track | Start | Length | Start sector | End sector --------------------------------------------------------- 1 | 0:00.00 | 14:25.17 | 0 | 64891 2 | 14:25.17 | 14:15.58 | 64892 | 129074 3 | 28:41.00 | 10:45.00 | 129075 | 177449 4 | 39:26.00 | 18:26.62 | 177450 | 260461 5 | 57:52.62 | 7:07.48 | 260462 | 292534 6 | 65:00.35 | 5:13.73 | 292535 | 316082

Range status and errors

Selected range

Filename F:\WAV\Joshua Redman Quartet - Blues For Pat.wav

Peak level 98.8 % Extraction speed 0.4 X Range quality 100.0 % Test CRC B8FE3B4A Copy CRC B8FE3B4A Copy OK

No errors occurred

AccurateRip summary

Track 1 cannot be verified as accurate (confidence 1) [6ADC9E5A], AccurateRip returned [9E915A39]Track 2 cannot be verified as accurate (confidence 1) [CB8C335E], AccurateRip returned [AED2144C]Track 3 cannot be verified as accurate (confidence 1) [7373EDC4], AccurateRip returned [88E2F527]Track 4 cannot be verified as accurate (confidence 1) [CEA7C140], AccurateRip returned [0BB34E88]Track 5 cannot be verified as accurate (confidence 1) [D551C82B], AccurateRip returned [437B2EA5]Track 6 cannot be verified as accurate (confidence 1) [DEF763AE], AccurateRip returned [CDA7129E]

No tracks could be verified as accurateYou may have a different pressing from the one(s) in the database

End of status report

==== Log checksum 9546ACC99C39EC8F98C1EA8C11785ABEB7D1D274FC10DF0E68E7729D284D78DE ====
 
REM GENRE JazzREM DATE 1994REM DISCID 57107606REM COMMENT "ExactAudioCopy v1.0b1"PERFORMER "Joshua Redman Quartet"TITLE "Blues For Pat"FILE "Joshua Redman Quartet - Blues For Pat.wv" WAVE TRACK 01 AUDIO TITLE "Blues For Pat" PERFORMER "Joshua Redman Quartet" INDEX 01 00:00:00 TRACK 02 AUDIO TITLE "Sketches" PERFORMER "Joshua Redman Quartet" INDEX 01 14:25:17 TRACK 03 AUDIO TITLE "Wish" PERFORMER "Joshua Redman Quartet" INDEX 01 28:41:00 TRACK 04 AUDIO TITLE "St. Thomas" PERFORMER "Joshua Redman Quartet" INDEX 01 39:26:00 TRACK 05 AUDIO TITLE "We Had A Sister" PERFORMER "Joshua Redman Quartet" INDEX 01 57:52:62 TRACK 06 AUDIO TITLE "Carla's Groove" PERFORMER "Joshua Redman Quartet" INDEX 01 65:00:35
Продолжительность: 35:39
Год записи альбома: 1994
Издатель (лейбл): Jazzdoor
Номер по каталогу: JD 1279

Треклист:

01. The Deserving Many - 13:27
02. Blues On Sunday - 11:58
03. Sweet Sorrow - 10:14
Joshua Redman - Tenor Saxophone
Brad Mehldau - Guitar
Christian McBride - Bass
Brian Blade - Drums
 
Exact Audio Copy V1.0 beta 1 from 15. November 2010

EAC extraction logfile from 23. February 2011, 19:18

Joshua Redman / Captured Live!

Used drive : HL-DT-STDVD-RAM GSA-H55N Adapter: 0 ID: 2

Read mode : SecureUtilize accurate stream : YesDefeat audio cache : YesMake use of C2 pointers : No

Read offset correction : 102Overread into Lead-In and Lead-Out : YesFill up missing offset samples with silence : YesDelete leading and trailing silent blocks : NoNull samples used in CRC calculations : YesUsed interface : Installed external ASPI interface

Used output format : User Defined EncoderSelected bitrate : 128 kBit/sQuality : HighAdd ID3 tag : NoCommand line compressor : G:\Program Files\Exact Audio Copy\Encoder\wavpack.exeAdditional command line options : -hm -w "CUESHEET=@F:\WAV\%a - %g.cue" -w "Year=%y" -w "Genre=%m" %s %d

TOC of the extracted CD

Track | Start | Length | Start sector | End sector --------------------------------------------------------- 1 | 0:00.00 | 13:26.57 | 0 | 60506 2 | 13:26.57 | 11:58.13 | 60507 | 114369 3 | 25:24.70 | 10:14.18 | 114370 | 160437

Range status and errors

Selected range

Filename F:\WAV\Joshua Redman - Captured Live!.wav

Peak level 88.6 % Extraction speed 1.5 X Range quality 99.9 % Test CRC 7948A167 Copy CRC 7948A167 Copy OK

No errors occurred

AccurateRip summary

Track 1 accurately ripped (confidence 2) [C31A06E0]Track 2 accurately ripped (confidence 2) [687B55A7]Track 3 accurately ripped (confidence 2) [26B10342]

All tracks accurately ripped

End of status report

==== Log checksum B4D337D711D295D20A9F1FF9DFF2C66D6882A8BF33CEE033658462A3BFE39B5B ====
 
REM GENRE JazzREM DATE 1994REM DISCID 20085B03REM COMMENT "ExactAudioCopy v1.0b1"PERFORMER "Joshua Redman"TITLE "Captured Live!"FILE "Joshua Redman - Captured Live!.wv" WAVE TRACK 01 AUDIO TITLE "The Deserving Many" PERFORMER "Joshua Redman" INDEX 01 00:00:00 TRACK 02 AUDIO TITLE "Blues On Sunday" PERFORMER "Joshua Redman" INDEX 01 13:26:57 TRACK 03 AUDIO TITLE "Sweet Sorrow" PERFORMER "Joshua Redman" INDEX 01 25:24:70


Трекер:  [ 26-Мар-2011 15:52 ]

  

Скачать .torrent

Размер .torrent файла 45 KB


Размер: 6.44 GB
Хэш (hash) релиза: 3561998152be18b15d07729d97acae357944e0b4

nomer43

Цитата:

Источник: Собственные рипы
приветствую. поясните строчку: вы владелец дисков и сами рипали?
модератор-стажер должен, я думаю. знать значение этой строчки

L

nomer43
1. Нет, рипы не мои.
2. Когда я заливал раздачу, модератором еще не был :)
3. Спасибо за помощь, сейчас исправлю автора.

nomer43

L
не думайте, что я бяка.
просто автор рипов очень уважаемый товарищ)

L

nomer43
И не думал так думать. Все правильно.

Хотите добавить комментарий к записи скачать торрент Joshua Redman - discography дискография

!Обратная связь