Скачать через торрент музыку The Rippingtons - Коллекция бесплатно без регистрации torrent

Если у вас наблюдаются проблемы со скриншотами, переходом по ссылками, скачиванием торрентов - проблемы в блокировщике рекламы AdBlock. #хорошегоДня!


Статистика раздачи
Размер:  6.03 GB   |    Зарегистрирован:  6 лет 6 месяцев   |    .torrent скачан:  101 раз   |   
Раздают:  1  
   
Загрузка...
 
Автор Сообщение

L


Коллекция (1986 - 2011)

Жанр: Smooth Jazz
Страна-производитель диска: USA
Год издания диска: 1986-2011
Издатель (лейбл): GRP, PEAK
Аудио кодек: FLAC (*.flac)
Тип рипа: image+.cue
Битрейт аудио: lossless
Продолжительность: 15 часов 45 мин.
Источник (релизер): ©СЁРФ-Маrаtones aka izia1956
Наличие сканов в содержимом раздачи: да
01. Moonlighting
02. She Likes To Watch
03. Angela
04. Dreams
05. Mirage
06. Calypso Cafe
07. Open All Night
08. Intimate Strangers
 
Exact Audio Copy V0.99 prebeta 4 from 23. January 2008

Отчёт EAC об извлечении, выполненном 23. января 2011, 13:45

Russ Freeman & The Rippingtons / Moonlighting

Дисковод: PLEXTOR DVDR PX-880SA Adapter: 1 ID: 1

Режим чтения : ДостоверностьИспользование точного потока : ДаОтключение кэша аудио : ДаИспользование указателей C2 : Нет

Коррекция смещения при чтении : 6Способность читать области Lead-in и Lead-out : НетЗаполнение пропущенных сэмплов тишиной : ДаУдаление блоков с тишиной в начале и конце : НетПри вычислениях CRC использовались нулевые сэмплы : ДаИнтерфейс : Установленный внешний ASPI-интерфейс

Выходной формат : Пользовательский кодировщикВыбранный битрейт : 1024 kBit/sКачество : ВысокийДобавление ID3-тэга : НетУтилита сжатия : C:\Program Files\Exact Audio Copy\FLAC\FLAC.EXEДополнительные параметры : -5 -V -T "ARTIST=%a" -T "TITLE=%t" -T "ALBUM=%g" -T "DATE=%y" -T "TRACKNUMBER=%n" -T "GENRE=%m" -T "COMMENT=%e" %s -o %d

TOC извлечённого CD

Трек | Старт | Длительность | Начальный сектор | Конечный сектор --------------------------------------------------------------------- 1 | 0:00.00 | 6:41.42 | 0 | 30116 2 | 6:41.42 | 5:34.40 | 30117 | 55206 3 | 12:16.07 | 4:50.68 | 55207 | 77024 4 | 17:07.00 | 5:10.05 | 77025 | 100279 5 | 22:17.05 | 4:17.45 | 100280 | 119599 6 | 26:34.50 | 4:46.27 | 119600 | 141076 7 | 31:21.02 | 4:30.35 | 141077 | 161361 8 | 35:51.37 | 5:35.50 | 161362 | 186536

Характеристики диапазона извлечения и сообщения об ошибках

Выбранный диапазон

Имя файла I:\BitComet\The Rippingtons(flac)\1986-Moonlighting\Russ Freeman & The Rippingtons - Moonlighting.wav

Пиковый уровень 100.0 % Качество диапазона 99.9 % CRC теста A1924821 CRC копии A1924821 Копирование... OK

Ошибок не произошло

AccurateRip: сводка

Трек 1 точное извлечение (доверие 19) [B894E29E]Трек 2 точное извлечение (доверие 20) [AAFB76B5]Трек 3 точное извлечение (доверие 20) [3FFBEFA8]Трек 4 точное извлечение (доверие 20) [EA345D92]Трек 5 точное извлечение (доверие 20) [FA02F6B8]Трек 6 точное извлечение (доверие 21) [9E2411B9]Трек 7 точное извлечение (доверие 20) [C84FCB68]Трек 8 точное извлечение (доверие 20) [009210E5]

Все треки извлечены точно

Конец отчёта
01. Morocco
02. Northern Lights
03. Dream Of The Sirens
04. Katrina's Dance
05. Kilimanjaro
06. Backstabbers
07. Love Notes
08. Los Cabos!
09. Oceansong
 
Exact Audio Copy V0.99 prebeta 4 from 23. January 2008

Отчёт EAC об извлечении, выполненном 23. января 2011, 20:23

The Rippingtons / Kilimanjaro

Дисковод: ATAPI iHAS424 A Adapter: 0 ID: 0

Режим чтения : ДостоверностьИспользование точного потока : ДаОтключение кэша аудио : ДаИспользование указателей C2 : Нет

Коррекция смещения при чтении : 6Способность читать области Lead-in и Lead-out : НетЗаполнение пропущенных сэмплов тишиной : ДаУдаление блоков с тишиной в начале и конце : НетПри вычислениях CRC использовались нулевые сэмплы : ДаИнтерфейс : Установленный внешний ASPI-интерфейс

Выходной формат : Пользовательский кодировщикВыбранный битрейт : 1024 kBit/sКачество : ВысокийДобавление ID3-тэга : НетУтилита сжатия : C:\Program Files\Exact Audio Copy\FLAC\FLAC.EXEДополнительные параметры : -5 -V -T "ARTIST=%a" -T "TITLE=%t" -T "ALBUM=%g" -T "DATE=%y" -T "TRACKNUMBER=%n" -T "GENRE=%m" -T "COMMENT=%e" %s -o %d

TOC извлечённого CD

Трек | Старт | Длительность | Начальный сектор | Конечный сектор --------------------------------------------------------------------- 1 | 0:00.00 | 4:55.37 | 0 | 22161 2 | 4:55.37 | 4:40.38 | 22162 | 43199 3 | 9:36.00 | 5:43.32 | 43200 | 68956 4 | 15:19.32 | 6:04.43 | 68957 | 96299 5 | 21:24.00 | 4:52.47 | 96300 | 118246 6 | 26:16.47 | 4:12.28 | 118247 | 137174 7 | 30:29.00 | 4:17.00 | 137175 | 156449 8 | 34:46.00 | 4:20.00 | 156450 | 175949 9 | 39:06.00 | 5:34.00 | 175950 | 200999

Характеристики диапазона извлечения и сообщения об ошибках

Выбранный диапазон

Имя файла I:\BitComet\The Rippingtons(flac)\1989-Kilimanjaro\The Rippingtons - Kilimanjaro.wav

Пиковый уровень 83.6 % Качество диапазона 100.0 % CRC теста 7E77641B CRC копии 7E77641B Копирование... OK

Ошибок не произошло

AccurateRip: сводка

Трек 1 точное извлечение (доверие 35) [6D752DF3]Трек 2 точное извлечение (доверие 36) [96FB149A]Трек 3 точное извлечение (доверие 36) [01A06E26]Трек 4 точное извлечение (доверие 36) [0BAED43E]Трек 5 точное извлечение (доверие 36) [5483EE6A]Трек 6 точное извлечение (доверие 36) [81AAD0A9]Трек 7 точное извлечение (доверие 36) [94E4800C]Трек 8 точное извлечение (доверие 36) [865806FD]Трек 9 точное извлечение (доверие 34) [3A3A9CE7]

Все треки извлечены точно

Конец отчёта
01. Tourist In Paradise
02. Jupiter's Child
03. Aruba!
04. One Summer Night In Brazil
05. Earthbound
06. Let's Stay Together
07. One Ocean Way
08. Destiny
09. The Princess
 
Exact Audio Copy V0.99 prebeta 4 from 23. January 2008

Отчёт EAC об извлечении, выполненном 23. января 2011, 15:03

The Rippingtons / Tourist In Paradise

Дисковод: PLEXTOR DVDR PX-880SA Adapter: 1 ID: 1

Режим чтения : ДостоверностьИспользование точного потока : ДаОтключение кэша аудио : ДаИспользование указателей C2 : Нет

Коррекция смещения при чтении : 6Способность читать области Lead-in и Lead-out : НетЗаполнение пропущенных сэмплов тишиной : ДаУдаление блоков с тишиной в начале и конце : НетПри вычислениях CRC использовались нулевые сэмплы : ДаИнтерфейс : Установленный внешний ASPI-интерфейс

Выходной формат : Пользовательский кодировщикВыбранный битрейт : 1024 kBit/sКачество : ВысокийДобавление ID3-тэга : НетУтилита сжатия : C:\Program Files\Exact Audio Copy\FLAC\FLAC.EXEДополнительные параметры : -5 -V -T "ARTIST=%a" -T "TITLE=%t" -T "ALBUM=%g" -T "DATE=%y" -T "TRACKNUMBER=%n" -T "GENRE=%m" -T "COMMENT=%e" %s -o %d

TOC извлечённого CD

Трек | Старт | Длительность | Начальный сектор | Конечный сектор --------------------------------------------------------------------- 1 | 0:00.00 | 5:40.71 | 0 | 25570 2 | 5:40.71 | 5:20.35 | 25571 | 49605 3 | 11:01.31 | 4:15.39 | 49606 | 68769 4 | 15:16.70 | 6:33.55 | 68770 | 98299 5 | 21:50.50 | 4:40.51 | 98300 | 119350 6 | 26:31.26 | 4:48.02 | 119351 | 140952 7 | 31:19.28 | 4:21.74 | 140953 | 160601 8 | 35:41.27 | 5:38.74 | 160602 | 186025 9 | 41:20.26 | 3:10.73 | 186026 | 200348

Характеристики диапазона извлечения и сообщения об ошибках

Выбранный диапазон

Имя файла I:\BitComet\The Rippingtons(flac)\1989-Tourist In Paradise\The Rippingtons - Tourist In Paradise.wav

Пиковый уровень 99.3 % Качество диапазона 100.0 % CRC теста F32A30DA CRC копии F32A30DA Копирование... OK

Ошибок не произошло

AccurateRip: сводка

Трек 1 нет в базе данныхТрек 2 нет в базе данныхТрек 3 нет в базе данныхТрек 4 нет в базе данныхТрек 5 нет в базе данныхТрек 6 нет в базе данныхТрек 7 нет в базе данныхТрек 8 нет в базе данныхТрек 9 нет в базе данных

Ни одного трека нет в базе AccurateRip

Конец отчёта
01. Welcome To The St. James' Club
02. Wednesday's Child
03. I Watched Her Walk Away
04. Kenya
05. Affair In San Miguel
06. Tropic Of Capricorn
07. Who's Holding Her Now
08. Soul Mates
09. Passion Fruit
10. Victoria's Secret
 
Exact Audio Copy V0.99 prebeta 4 from 23. January 2008

Отчёт EAC об извлечении, выполненном 23. января 2011, 20:00

Rippingtons, The / Welcome To The St. James' Club

Дисковод: ATAPI iHAS424 A Adapter: 0 ID: 0

Режим чтения : ДостоверностьИспользование точного потока : ДаОтключение кэша аудио : ДаИспользование указателей C2 : Нет

Коррекция смещения при чтении : 6Способность читать области Lead-in и Lead-out : НетЗаполнение пропущенных сэмплов тишиной : ДаУдаление блоков с тишиной в начале и конце : НетПри вычислениях CRC использовались нулевые сэмплы : ДаИнтерфейс : Установленный внешний ASPI-интерфейс

Выходной формат : Пользовательский кодировщикВыбранный битрейт : 1024 kBit/sКачество : ВысокийДобавление ID3-тэга : НетУтилита сжатия : C:\Program Files\Exact Audio Copy\FLAC\FLAC.EXEДополнительные параметры : -5 -V -T "ARTIST=%a" -T "TITLE=%t" -T "ALBUM=%g" -T "DATE=%y" -T "TRACKNUMBER=%n" -T "GENRE=%m" -T "COMMENT=%e" %s -o %d

TOC извлечённого CD

Трек | Старт | Длительность | Начальный сектор | Конечный сектор --------------------------------------------------------------------- 1 | 0:00.00 | 4:23.53 | 0 | 19777 2 | 4:23.53 | 4:55.65 | 19778 | 41967 3 | 9:19.43 | 5:28.37 | 41968 | 66604 4 | 14:48.05 | 5:23.20 | 66605 | 90849 5 | 20:11.25 | 5:08.55 | 90850 | 114004 6 | 25:20.05 | 5:04.35 | 114005 | 136839 7 | 30:24.40 | 3:54.13 | 136840 | 154402 8 | 34:18.53 | 4:54.32 | 154403 | 176484 9 | 39:13.10 | 4:33.20 | 176485 | 196979 10 | 43:46.30 | 3:26.70 | 196980 | 212499

Характеристики диапазона извлечения и сообщения об ошибках

Выбранный диапазон

Имя файла I:\BitComet\The Rippingtons(flac)\1990-Welcome To The St. James' Club\Rippingtons, The - Welcome To The St. James' Club.wav

Пиковый уровень 100.0 % Качество диапазона 100.0 % CRC теста 0B9B3AEF CRC копии 0B9B3AEF Копирование... OK

Ошибок не произошло

AccurateRip: сводка

Трек 1 точное извлечение (доверие 12) [B01933AE]Трек 2 точное извлечение (доверие 12) [D758B7FC]Трек 3 точное извлечение (доверие 13) [31BEFE47]Трек 4 точное извлечение (доверие 12) [9B4D2B5B]Трек 5 точное извлечение (доверие 12) [2A2AFD7E]Трек 6 точное извлечение (доверие 12) [49B45439]Трек 7 точное извлечение (доверие 12) [A5928835]Трек 8 точное извлечение (доверие 12) [2D766382]Трек 9 точное извлечение (доверие 12) [BC83E2C8]Трек 10 точное извлечение (доверие 12) [FBFC281A]

Все треки извлечены точно

Конец отчёта
01. Curves Ahead
02. Aspen
03. Santa Fe Trail
04. Take Me With You
05. North Star
06. Miles Away
07. Snowbound
08. Nature of the Beast
09. Morning Song
 
Exact Audio Copy V0.99 prebeta 4 from 23. January 2008

Отчёт EAC об извлечении, выполненном 24. января 2011, 5:41

The Rippingtons with Russ Freeman / Curves Ahead

Дисковод: PLEXTOR DVDR PX-880SA Adapter: 1 ID: 1

Режим чтения : ДостоверностьИспользование точного потока : ДаОтключение кэша аудио : ДаИспользование указателей C2 : Нет

Коррекция смещения при чтении : 6Способность читать области Lead-in и Lead-out : НетЗаполнение пропущенных сэмплов тишиной : ДаУдаление блоков с тишиной в начале и конце : НетПри вычислениях CRC использовались нулевые сэмплы : ДаИнтерфейс : Установленный внешний ASPI-интерфейс

Выходной формат : Пользовательский кодировщикВыбранный битрейт : 1024 kBit/sКачество : ВысокийДобавление ID3-тэга : НетУтилита сжатия : C:\Program Files\Exact Audio Copy\FLAC\FLAC.EXEДополнительные параметры : -5 -V -T "ARTIST=%a" -T "TITLE=%t" -T "ALBUM=%g" -T "DATE=%y" -T "TRACKNUMBER=%n" -T "GENRE=%m" -T "COMMENT=%e" %s -o %d

TOC извлечённого CD

Трек | Старт | Длительность | Начальный сектор | Конечный сектор --------------------------------------------------------------------- 1 | 0:00.32 | 5:40.70 | 32 | 25601 2 | 5:41.27 | 5:29.55 | 25602 | 50331 3 | 11:11.07 | 5:14.53 | 50332 | 73934 4 | 16:25.60 | 5:34.72 | 73935 | 99056 5 | 22:00.57 | 5:24.70 | 99057 | 123426 6 | 27:25.52 | 5:17.65 | 123427 | 147266 7 | 32:43.42 | 4:53.43 | 147267 | 169284 8 | 37:37.10 | 6:22.17 | 169285 | 197951 9 | 43:59.27 | 4:10.05 | 197952 | 216706

Характеристики диапазона извлечения и сообщения об ошибках

Выбранный диапазон

Имя файла I:\BitComet\The Rippingtons(flac)\1991-Curves Ahead\The Rippingtons with Russ Freeman - Curves Ahead.wav

Пиковый уровень 100.0 % Качество диапазона 100.0 % CRC теста DA9B1FF9 CRC копии DA9B1FF9 Копирование... OK

Ошибок не произошло

AccurateRip: сводка

Трек 1 точное извлечение (доверие 16) [D15A6451]Трек 2 точное извлечение (доверие 16) [453506F8]Трек 3 точное извлечение (доверие 15) [AC9CC298]Трек 4 точное извлечение (доверие 16) [FFB39294]Трек 5 точное извлечение (доверие 15) [FFEFEFC4]Трек 6 точное извлечение (доверие 16) [7356556E]Трек 7 точное извлечение (доверие 16) [5E3E0CA3]Трек 8 точное извлечение (доверие 16) [E13D4A27]Трек 9 точное извлечение (доверие 16) [5AD4BCD3]

Все треки извлечены точно

Конец отчёта
01. Weekend In Monaco
02. St. Tropez
03. Vienna
04. Indian Summer
05. A Place For Lovers
06. Carnival!
07. Moka Java
08. Highroller
09. Where The Road Will Lead Us
 
Exact Audio Copy V0.99 prebeta 4 from 23. January 2008

Отчёт EAC об извлечении, выполненном 23. января 2011, 19:29

The Rippingtons / Weekend In Monaco

Дисковод: ATAPI iHAS424 A Adapter: 0 ID: 0

Режим чтения : ДостоверностьИспользование точного потока : ДаОтключение кэша аудио : ДаИспользование указателей C2 : Нет

Коррекция смещения при чтении : 6Способность читать области Lead-in и Lead-out : НетЗаполнение пропущенных сэмплов тишиной : ДаУдаление блоков с тишиной в начале и конце : НетПри вычислениях CRC использовались нулевые сэмплы : ДаИнтерфейс : Установленный внешний ASPI-интерфейс

Выходной формат : Пользовательский кодировщикВыбранный битрейт : 1024 kBit/sКачество : ВысокийДобавление ID3-тэга : НетУтилита сжатия : C:\Program Files\Exact Audio Copy\FLAC\FLAC.EXEДополнительные параметры : -5 -V -T "ARTIST=%a" -T "TITLE=%t" -T "ALBUM=%g" -T "DATE=%y" -T "TRACKNUMBER=%n" -T "GENRE=%m" -T "COMMENT=%e" %s -o %d

TOC извлечённого CD

Трек | Старт | Длительность | Начальный сектор | Конечный сектор --------------------------------------------------------------------- 1 | 0:00.00 | 5:23.20 | 0 | 24244 2 | 5:23.20 | 5:56.60 | 24245 | 51004 3 | 11:20.05 | 4:50.40 | 51005 | 72794 4 | 16:10.45 | 5:45.25 | 72795 | 98694 5 | 21:55.70 | 5:15.53 | 98695 | 122372 6 | 27:11.48 | 5:45.72 | 122373 | 148319 7 | 32:57.45 | 5:48.30 | 148320 | 174449 8 | 38:46.00 | 5:58.08 | 174450 | 201307 9 | 44:44.08 | 4:16.37 | 201308 | 220544

Характеристики диапазона извлечения и сообщения об ошибках

Выбранный диапазон

Имя файла I:\BitComet\The Rippingtons(flac)\1992-Weekend In Monaco\The Rippingtons - Weekend In Monaco.wav

Пиковый уровень 100.0 % Качество диапазона 99.9 % CRC теста A515E877 CRC копии A515E877 Копирование... OK

Ошибок не произошло

AccurateRip: сводка

Трек 1 точное извлечение (доверие 1) [58B87896]Трек 2 точное извлечение (доверие 1) [95558A91]Трек 3 точное извлечение (доверие 1) [FC86220A]Трек 4 точное извлечение (доверие 1) [98B004A1]Трек 5 точное извлечение (доверие 1) [64D63236]Трек 6 точное извлечение (доверие 1) [89021AE7]Трек 7 точное извлечение (доверие 1) [C9CC89FD]Трек 8 точное извлечение (доверие 1) [B0317181]Трек 9 точное извлечение (доверие 1) [295CE043]

Все треки извлечены точно

Конец отчёта
01. Indian Summer (5:57)
02. Aspen (5:54)
03. Curves Ahead (5:29)
04. Weekend in Monaco (6:15)
05. One Summer Night in Brazil (5:24)
06. Highroller (6:59)
07. Introduction of the Band (1:32)
08. Morocco (5:03)
09. Dream of the Sirens (5:24)
10. Tourist in Paradise (6:50)
 
Exact Audio Copy V0.99 prebeta 4 from 23. January 2008

Отчёт EAC об извлечении, выполненном 23. января 2011, 13:22

The Rippingtons feat. Russ Freeman / Live in L.A.

Дисковод: PLEXTOR DVDR PX-880SA Adapter: 1 ID: 1

Режим чтения : ДостоверностьИспользование точного потока : ДаОтключение кэша аудио : ДаИспользование указателей C2 : Нет

Коррекция смещения при чтении : 6Способность читать области Lead-in и Lead-out : НетЗаполнение пропущенных сэмплов тишиной : ДаУдаление блоков с тишиной в начале и конце : НетПри вычислениях CRC использовались нулевые сэмплы : ДаИнтерфейс : Установленный внешний ASPI-интерфейс

Выходной формат : Пользовательский кодировщикВыбранный битрейт : 1024 kBit/sКачество : ВысокийДобавление ID3-тэга : НетУтилита сжатия : C:\Program Files\Exact Audio Copy\FLAC\FLAC.EXEДополнительные параметры : -5 -V -T "ARTIST=%a" -T "TITLE=%t" -T "ALBUM=%g" -T "DATE=%y" -T "TRACKNUMBER=%n" -T "GENRE=%m" -T "COMMENT=%e" %s -o %d

TOC извлечённого CD

Трек | Старт | Длительность | Начальный сектор | Конечный сектор --------------------------------------------------------------------- 1 | 0:00.00 | 6:00.20 | 0 | 27019 2 | 6:00.20 | 5:49.67 | 27020 | 53261 3 | 11:50.12 | 5:29.25 | 53262 | 77961 4 | 17:19.37 | 6:14.13 | 77962 | 106024 5 | 23:33.50 | 5:24.00 | 106025 | 130324 6 | 28:57.50 | 6:58.37 | 130325 | 161711 7 | 35:56.12 | 1:33.00 | 161712 | 168686 8 | 37:29.12 | 5:05.00 | 168687 | 191561 9 | 42:34.12 | 5:22.00 | 191562 | 215711 10 | 47:56.12 | 6:50.13 | 215712 | 246474

Характеристики диапазона извлечения и сообщения об ошибках

Выбранный диапазон

Имя файла I:\BitComet\The Rippingtons(flac)\1993-Live in L.A\The Rippingtons feat. Russ Freeman - Live in L.A..wav

Пиковый уровень 100.0 % Качество диапазона 100.0 % CRC теста 2D9D5ADB CRC копии 2D9D5ADB Копирование... OK

Ошибок не произошло

AccurateRip: сводка

Трек 1 точное извлечение (доверие 16) [354EE84C]Трек 2 точное извлечение (доверие 16) [DA8051B3]Трек 3 точное извлечение (доверие 16) [AE8FC5D1]Трек 4 точное извлечение (доверие 16) [BB27506A]Трек 5 точное извлечение (доверие 16) [AF7BEDBF]Трек 6 точное извлечение (доверие 16) [EBA51C70]Трек 7 точное извлечение (доверие 16) [20C2A23E]Трек 8 точное извлечение (доверие 16) [5B7410D6]Трек 9 точное извлечение (доверие 16) [78A76408]Трек 10 точное извлечение (доверие 15) [32251EF2]

Все треки извлечены точно

Конец отчёта
01. Native Sons Of A Distant Land
02. True Companion
03. I'll Be Around
04. Principles Of Desire
05. Sahara
06. 'Til We're Together Again
07. The Best Is Yet To Come
08. Journey's End
09. Girl With The Indigo Eyes
10. Porscha
 
Exact Audio Copy V0.99 prebeta 4 from 23. January 2008

Отчёт EAC об извлечении, выполненном 23. января 2011, 18:28

The Rippingtons / Sahara

Дисковод: ATAPI iHAS424 A Adapter: 0 ID: 0

Режим чтения : ДостоверностьИспользование точного потока : ДаОтключение кэша аудио : ДаИспользование указателей C2 : Нет

Коррекция смещения при чтении : 6Способность читать области Lead-in и Lead-out : НетЗаполнение пропущенных сэмплов тишиной : ДаУдаление блоков с тишиной в начале и конце : НетПри вычислениях CRC использовались нулевые сэмплы : ДаИнтерфейс : Установленный внешний ASPI-интерфейс

Выходной формат : Пользовательский кодировщикВыбранный битрейт : 1024 kBit/sКачество : ВысокийДобавление ID3-тэга : НетУтилита сжатия : C:\Program Files\Exact Audio Copy\FLAC\FLAC.EXEДополнительные параметры : -5 -V -T "ARTIST=%a" -T "TITLE=%t" -T "ALBUM=%g" -T "DATE=%y" -T "TRACKNUMBER=%n" -T "GENRE=%m" -T "COMMENT=%e" %s -o %d

TOC извлечённого CD

Трек | Старт | Длительность | Начальный сектор | Конечный сектор --------------------------------------------------------------------- 1 | 0:00.32 | 4:47.20 | 32 | 21576 2 | 4:47.52 | 4:26.53 | 21577 | 41579 3 | 9:14.30 | 4:04.42 | 41580 | 59921 4 | 13:18.72 | 4:41.08 | 59922 | 81004 5 | 18:00.05 | 5:01.70 | 81005 | 103649 6 | 23:02.00 | 5:17.57 | 103650 | 127481 7 | 28:19.57 | 4:59.35 | 127482 | 149941 8 | 33:19.17 | 3:13.28 | 149942 | 164444 9 | 36:32.45 | 4:49.62 | 164445 | 186181 10 | 41:22.32 | 4:49.38 | 186182 | 207894

Характеристики диапазона извлечения и сообщения об ошибках

Выбранный диапазон

Имя файла I:\BitComet\The Rippingtons(flac)\1994-Sahara\The Rippingtons - Sahara.wav

Пиковый уровень 100.0 % Качество диапазона 100.0 % CRC теста 86EE5A57 CRC копии 86EE5A57 Копирование... OK

Ошибок не произошло

AccurateRip: сводка

Трек 1 точное извлечение (доверие 7) [3046AA22]Трек 2 точное извлечение (доверие 7) [E7AAC689]Трек 3 точное извлечение (доверие 7) [D45FDC2E]Трек 4 точное извлечение (доверие 7) [2F00F98E]Трек 5 точное извлечение (доверие 7) [98E05646]Трек 6 точное извлечение (доверие 7) [6DCE0C5E]Трек 7 точное извлечение (доверие 7) [4D852527]Трек 8 точное извлечение (доверие 7) [611C57B1]Трек 9 точное извлечение (доверие 7) [CCD9E7BC]Трек 10 точное извлечение (доверие 7) [CDE6403E]

Все треки извлечены точно

Конец отчёта
01. Brave New World
02. Urban Wanderer
03. Key To The Forbidden City
04. Hideaway
05. Caravan Of Love
06. Faith
07. First Time I Saw Her
08. Cicada
09. While My Guitar Gently Weeps
10. Ain't No Stoppin' Us Now
11. Virtual Reality
 
Exact Audio Copy V0.99 prebeta 4 from 23. January 2008

Отчёт EAC об извлечении, выполненном 23. января 2011, 21:47

Rippingtons / Brave New World

Дисковод: PLEXTOR DVDR PX-880SA Adapter: 1 ID: 1

Режим чтения : ДостоверностьИспользование точного потока : ДаОтключение кэша аудио : ДаИспользование указателей C2 : Нет

Коррекция смещения при чтении : 6Способность читать области Lead-in и Lead-out : НетЗаполнение пропущенных сэмплов тишиной : ДаУдаление блоков с тишиной в начале и конце : НетПри вычислениях CRC использовались нулевые сэмплы : ДаИнтерфейс : Установленный внешний ASPI-интерфейс

Выходной формат : Пользовательский кодировщикВыбранный битрейт : 1024 kBit/sКачество : ВысокийДобавление ID3-тэга : НетУтилита сжатия : C:\Program Files\Exact Audio Copy\FLAC\FLAC.EXEДополнительные параметры : -5 -V -T "ARTIST=%a" -T "TITLE=%t" -T "ALBUM=%g" -T "DATE=%y" -T "TRACKNUMBER=%n" -T "GENRE=%m" -T "COMMENT=%e" %s -o %d

TOC извлечённого CD

Трек | Старт | Длительность | Начальный сектор | Конечный сектор --------------------------------------------------------------------- 1 | 0:00.00 | 4:14.45 | 0 | 19094 2 | 4:14.45 | 4:41.60 | 19095 | 40229 3 | 8:56.30 | 4:47.25 | 40230 | 61779 4 | 13:43.55 | 5:11.10 | 61780 | 85114 5 | 18:54.65 | 4:05.15 | 85115 | 103504 6 | 23:00.05 | 4:33.67 | 103505 | 124046 7 | 27:33.72 | 4:25.28 | 124047 | 143949 8 | 31:59.25 | 5:44.52 | 143950 | 169801 9 | 37:44.02 | 4:46.35 | 169802 | 191286 10 | 42:30.37 | 4:44.35 | 191287 | 212621 11 | 47:14.72 | 5:07.13 | 212622 | 235659

Характеристики диапазона извлечения и сообщения об ошибках

Выбранный диапазон

Имя файла I:\BitComet\The Rippingtons(flac)\1995-Brave New World\Rippingtons - Brave New World.wav

Пиковый уровень 100.0 % Качество диапазона 100.0 % CRC теста E1FE1046 CRC копии E1FE1046 Копирование... OK

Ошибок не произошло

AccurateRip: сводка

Трек 1 точное извлечение (доверие 32) [818806D6]Трек 2 точное извлечение (доверие 32) [0ED0C4F5]Трек 3 точное извлечение (доверие 32) [DF19945B]Трек 4 точное извлечение (доверие 31) [FA0EA065]Трек 5 точное извлечение (доверие 32) [337CFCF0]Трек 6 точное извлечение (доверие 32) [B30F1C0E]Трек 7 точное извлечение (доверие 32) [6E4681C9]Трек 8 точное извлечение (доверие 32) [730AE5A0]Трек 9 точное извлечение (доверие 31) [292A00B6]Трек 10 точное извлечение (доверие 31) [BA71DA51]Трек 11 точное извлечение (доверие 31) [5BFF388D]

Все треки извлечены точно

Конец отчёта
01. Black Diamond
02. Deep Powder
03. Seven Nights In Rome
04. Soul Seeker
05. In Another Life
06. Big Sky
07. If I Owned The World
08. North Peak
09. Angelfire
10. Jewel Thieves
11. Black Diamond (Acoustic Version)
 
Exact Audio Copy V0.99 prebeta 4 from 23. January 2008

Отчёт EAC об извлечении, выполненном 23. января 2011, 17:14

The Rippingtons / Black Diamond

Дисковод: ATAPI iHAS424 A Adapter: 0 ID: 0

Режим чтения : ДостоверностьИспользование точного потока : ДаОтключение кэша аудио : ДаИспользование указателей C2 : Нет

Коррекция смещения при чтении : 6Способность читать области Lead-in и Lead-out : НетЗаполнение пропущенных сэмплов тишиной : ДаУдаление блоков с тишиной в начале и конце : НетПри вычислениях CRC использовались нулевые сэмплы : ДаИнтерфейс : Установленный внешний ASPI-интерфейс

Выходной формат : Пользовательский кодировщикВыбранный битрейт : 1024 kBit/sКачество : ВысокийДобавление ID3-тэга : НетУтилита сжатия : C:\Program Files\Exact Audio Copy\FLAC\FLAC.EXEДополнительные параметры : -5 -V -T "ARTIST=%a" -T "TITLE=%t" -T "ALBUM=%g" -T "DATE=%y" -T "TRACKNUMBER=%n" -T "GENRE=%m" -T "COMMENT=%e" %s -o %d

TOC извлечённого CD

Трек | Старт | Длительность | Начальный сектор | Конечный сектор --------------------------------------------------------------------- 1 | 0:00.00 | 4:46.56 | 0 | 21505 2 | 4:46.56 | 6:16.64 | 21506 | 49769 3 | 11:03.45 | 5:05.50 | 49770 | 72694 4 | 16:09.20 | 4:40.22 | 72695 | 93716 5 | 20:49.42 | 5:41.62 | 93717 | 119353 6 | 26:31.29 | 4:23.46 | 119354 | 139124 7 | 30:55.00 | 3:39.18 | 139125 | 155567 8 | 34:34.18 | 4:12.33 | 155568 | 174500 9 | 38:46.51 | 4:13.62 | 174501 | 193537 10 | 43:00.38 | 5:05.13 | 193538 | 216425 11 | 48:05.51 | 4:09.64 | 216426 | 235164

Характеристики диапазона извлечения и сообщения об ошибках

Выбранный диапазон

Имя файла I:\BitComet\The Rippingtons(flac)\1997-Black Diamond\The Rippingtons - Black Diamond.wav

Пиковый уровень 100.0 % Качество диапазона 100.0 % CRC теста 62A8A1C8 CRC копии 62A8A1C8 Копирование... OK

Ошибок не произошло

AccurateRip: сводка

Трек 1 точное извлечение (доверие 41) [7C828FD6]Трек 2 точное извлечение (доверие 42) [505050BF]Трек 3 точное извлечение (доверие 42) [4CC0AA0D]Трек 4 точное извлечение (доверие 41) [5A86558A]Трек 5 точное извлечение (доверие 41) [E805D347]Трек 6 точное извлечение (доверие 40) [2649AE5E]Трек 7 точное извлечение (доверие 41) [D9472004]Трек 8 точное извлечение (доверие 40) [2CB15E12]Трек 9 точное извлечение (доверие 41) [826FE69E]Трек 10 точное извлечение (доверие 40) [8F41F76E]Трек 11 точное извлечение (доверие 39) [15386294]

Все треки извлечены точно

Конец отчёта
01. Taos
02. Summer Lovers
03. Spirits in the Canyon
04. Under a Spanish Moon
05. Temple of the Sun
06. Stories of the Painted Desert
07. Snakedance
08. Led Here by an Eagle
09. Topaz: Gem of the Setting Sun
10. Rain
 
Exact Audio Copy V0.99 prebeta 4 from 23. January 2008

Отчёт EAC об извлечении, выполненном 23. января 2011, 21:12

The Rippingtons / Topaz

Дисковод: ATAPI iHAS424 A Adapter: 0 ID: 0

Режим чтения : ДостоверностьИспользование точного потока : ДаОтключение кэша аудио : ДаИспользование указателей C2 : Нет

Коррекция смещения при чтении : 6Способность читать области Lead-in и Lead-out : НетЗаполнение пропущенных сэмплов тишиной : ДаУдаление блоков с тишиной в начале и конце : НетПри вычислениях CRC использовались нулевые сэмплы : ДаИнтерфейс : Установленный внешний ASPI-интерфейс

Выходной формат : Пользовательский кодировщикВыбранный битрейт : 1024 kBit/sКачество : ВысокийДобавление ID3-тэга : НетУтилита сжатия : C:\Program Files\Exact Audio Copy\FLAC\FLAC.EXEДополнительные параметры : -5 -V -T "ARTIST=%a" -T "TITLE=%t" -T "ALBUM=%g" -T "DATE=%y" -T "TRACKNUMBER=%n" -T "GENRE=%m" -T "COMMENT=%e" %s -o %d

TOC извлечённого CD

Трек | Старт | Длительность | Начальный сектор | Конечный сектор --------------------------------------------------------------------- 1 | 0:00.00 | 5:53.40 | 0 | 26514 2 | 5:53.40 | 4:41.24 | 26515 | 47613 3 | 10:34.64 | 5:01.33 | 47614 | 70221 4 | 15:36.22 | 4:17.45 | 70222 | 89541 5 | 19:53.67 | 4:45.45 | 89542 | 110961 6 | 24:39.37 | 4:42.23 | 110962 | 132134 7 | 29:21.60 | 4:21.72 | 132135 | 151781 8 | 33:43.57 | 5:20.23 | 151782 | 175804 9 | 39:04.05 | 4:57.07 | 175805 | 198086 10 | 44:01.12 | 4:58.45 | 198087 | 220481

Характеристики диапазона извлечения и сообщения об ошибках

Выбранный диапазон

Имя файла I:\BitComet\The Rippingtons(flac)\1999-Topaz\The Rippingtons - Topaz.wav

Пиковый уровень 100.0 % Качество диапазона 99.9 % CRC теста AB3D0315 CRC копии AB3D0315 Копирование... OK

Ошибок не произошло

AccurateRip: сводка

Трек 1 точное извлечение (доверие 34) [C22F349A]Трек 2 точное извлечение (доверие 34) [7F7D6998]Трек 3 точное извлечение (доверие 33) [467C07C6]Трек 4 точное извлечение (доверие 34) [BC86279B]Трек 5 точное извлечение (доверие 34) [CAF4F98A]Трек 6 точное извлечение (доверие 34) [D2797EEA]Трек 7 точное извлечение (доверие 33) [83A9122E]Трек 8 точное извлечение (доверие 34) [8EF23214]Трек 9 точное извлечение (доверие 33) [7783BE6B]Трек 10 точное извлечение (доверие 30) [E21527F9]

Все треки извлечены точно

Конец отчёта
01. Club Paradiso
02. Caribbean Breeze
03. Cruisin' Down Ocean
04. Be Cool
05. Rhythm Of Your Life
06. Love Child
07. Avenida Del Mar
08. I Found Heaven
09. South Beach Mambo
10. Life In The Tropics
11. Island Aphrodisiac
 
Exact Audio Copy V0.99 prebeta 4 from 23. January 2008

Отчёт EAC об извлечении, выполненном 23. января 2011, 16:24

The Rippingtons / Life in the Tropics

Дисковод: ATAPI iHAS424 A Adapter: 0 ID: 0

Режим чтения : ДостоверностьИспользование точного потока : ДаОтключение кэша аудио : ДаИспользование указателей C2 : Нет

Коррекция смещения при чтении : 6Способность читать области Lead-in и Lead-out : НетЗаполнение пропущенных сэмплов тишиной : ДаУдаление блоков с тишиной в начале и конце : НетПри вычислениях CRC использовались нулевые сэмплы : ДаИнтерфейс : Установленный внешний ASPI-интерфейс

Выходной формат : Пользовательский кодировщикВыбранный битрейт : 1024 kBit/sКачество : ВысокийДобавление ID3-тэга : НетУтилита сжатия : C:\Program Files\Exact Audio Copy\FLAC\FLAC.EXEДополнительные параметры : -5 -V -T "ARTIST=%a" -T "TITLE=%t" -T "ALBUM=%g" -T "DATE=%y" -T "TRACKNUMBER=%n" -T "GENRE=%m" -T "COMMENT=%e" %s -o %d

TOC извлечённого CD

Трек | Старт | Длительность | Начальный сектор | Конечный сектор --------------------------------------------------------------------- 1 | 0:00.00 | 4:23.12 | 0 | 19736 2 | 4:23.12 | 4:23.13 | 19737 | 39474 3 | 8:46.25 | 4:38.25 | 39475 | 60349 4 | 13:24.50 | 4:25.12 | 60350 | 80236 5 | 17:49.62 | 4:00.50 | 80237 | 98286 6 | 21:50.37 | 4:20.25 | 98287 | 117811 7 | 26:10.62 | 5:17.63 | 117812 | 141649 8 | 31:28.50 | 4:24.62 | 141650 | 161511 9 | 35:53.37 | 4:47.63 | 161512 | 183099 10 | 40:41.25 | 4:56.25 | 183100 | 205324 11 | 45:37.50 | 4:41.62 | 205325 | 226461

Характеристики диапазона извлечения и сообщения об ошибках

Выбранный диапазон

Имя файла I:\BitComet\The Rippingtons(flac)\2000-Life in the Tropics\The Rippingtons - Life in the Tropics.wav

Пиковый уровень 100.0 % Качество диапазона 100.0 % CRC теста A21C1C68 CRC копии A21C1C68 Копирование... OK

Ошибок не произошло

AccurateRip: сводка

Трек 1 точное извлечение (доверие 33) [147A1777]Трек 2 точное извлечение (доверие 33) [11174F0E]Трек 3 точное извлечение (доверие 33) [79DAD6D5]Трек 4 точное извлечение (доверие 32) [1E2289F9]Трек 5 точное извлечение (доверие 33) [9CE8E153]Трек 6 точное извлечение (доверие 33) [04D82C1F]Трек 7 точное извлечение (доверие 33) [6070919C]Трек 8 точное извлечение (доверие 33) [956FD658]Трек 9 точное извлечение (доверие 32) [E10D080D]Трек 10 точное извлечение (доверие 33) [87FC0F2E]Трек 11 точное извлечение (доверие 31) [C77070C1]

Все треки извлечены точно

Конец отчёта
01. Road Warriors
02. Summer Lovers
03. Welcome To The St. James Club
04. Hideaway
05. Black Diamond
06. South Beach Mambo
07. She Likes To Watch
08. Jewel Thieves
09. Rain
10. Avenida Del Mar
11. Purple Haze
12. Fire
13. Star Spangled Banner
14. Are We There Yet
 
Exact Audio Copy V0.99 prebeta 4 from 23. January 2008

Отчёт EAC об извлечении, выполненном 23. января 2011, 12:49

The Rippingtons / Live Across America

Дисковод: PLEXTOR DVDR PX-880SA Adapter: 1 ID: 1

Режим чтения : ДостоверностьИспользование точного потока : ДаОтключение кэша аудио : ДаИспользование указателей C2 : Нет

Коррекция смещения при чтении : 6Способность читать области Lead-in и Lead-out : НетЗаполнение пропущенных сэмплов тишиной : ДаУдаление блоков с тишиной в начале и конце : НетПри вычислениях CRC использовались нулевые сэмплы : ДаИнтерфейс : Установленный внешний ASPI-интерфейс

Выходной формат : Пользовательский кодировщикВыбранный битрейт : 1024 kBit/sКачество : ВысокийДобавление ID3-тэга : НетУтилита сжатия : C:\Program Files\Exact Audio Copy\FLAC\FLAC.EXEДополнительные параметры : -5 -V -T "ARTIST=%a" -T "TITLE=%t" -T "ALBUM=%g" -T "DATE=%y" -T "TRACKNUMBER=%n" -T "GENRE=%m" -T "COMMENT=%e" %s -o %d

TOC извлечённого CD

Трек | Старт | Длительность | Начальный сектор | Конечный сектор --------------------------------------------------------------------- 1 | 0:00.00 | 4:15.05 | 0 | 19129 2 | 4:15.05 | 6:35.02 | 19130 | 48756 3 | 10:50.07 | 5:15.08 | 48757 | 72389 4 | 16:05.15 | 3:57.60 | 72390 | 90224 5 | 20:03.00 | 5:00.47 | 90225 | 112771 6 | 25:03.47 | 4:39.48 | 112772 | 133744 7 | 29:43.20 | 5:38.60 | 133745 | 159154 8 | 35:22.05 | 8:34.12 | 159155 | 197716 9 | 43:56.17 | 7:07.20 | 197717 | 229761 10 | 51:03.37 | 3:59.38 | 229762 | 247724 11 | 55:03.00 | 1:42.07 | 247725 | 255381 12 | 56:45.07 | 1:42.55 | 255382 | 263086 13 | 58:27.62 | 2:46.30 | 263087 | 275566 14 | 61:14.17 | 4:29.20 | 275567 | 295761

Характеристики диапазона извлечения и сообщения об ошибках

Выбранный диапазон

Имя файла I:\BitComet\The Rippingtons(flac)\2002-Live Across America\The Rippingtons - Live Across America.wav

Пиковый уровень 97.9 % Качество диапазона 100.0 % CRC теста 02C3B611 CRC копии 02C3B611 Копирование... OK

Ошибок не произошло

AccurateRip: сводка

Трек 1 точное извлечение (доверие 11) [564B3B44]Трек 2 точное извлечение (доверие 11) [E7299C4C]Трек 3 точное извлечение (доверие 11) [242A2E0F]Трек 4 точное извлечение (доверие 11) [77EC2883]Трек 5 точное извлечение (доверие 11) [9229A5AA]Трек 6 точное извлечение (доверие 11) [6ADE2677]Трек 7 точное извлечение (доверие 11) [66B2B07A]Трек 8 точное извлечение (доверие 11) [07263CA5]Трек 9 точное извлечение (доверие 11) [13DA03CD]Трек 10 точное извлечение (доверие 11) [11BF6AFD]Трек 11 точное извлечение (доверие 11) [06953272]Трек 12 точное извлечение (доверие 11) [F7A96064]Трек 13 точное извлечение (доверие 10) [E6AC1D6C]Трек 14 точное извлечение (доверие 10) [FAC4C5E5]

Все треки извлечены точно

Конец отчёта
1. Let It Ripp
2. Mr. 3
3. Lucky Charm
4. A Private Getaway
5. High Life
6. Avalon
7. Bella Luna
8. Stingray
9. 17 Mile Drive
10. Cast A Spell
11. Get Over It
 
Exact Audio Copy V0.99 prebeta 4 from 23. January 2008

Отчёт EAC об извлечении, выполненном 23. января 2011, 17:54

The Rippingtons / Let It Ripp

Дисковод: ATAPI iHAS424 A Adapter: 0 ID: 0

Режим чтения : ДостоверностьИспользование точного потока : ДаОтключение кэша аудио : ДаИспользование указателей C2 : Нет

Коррекция смещения при чтении : 6Способность читать области Lead-in и Lead-out : НетЗаполнение пропущенных сэмплов тишиной : ДаУдаление блоков с тишиной в начале и конце : НетПри вычислениях CRC использовались нулевые сэмплы : ДаИнтерфейс : Установленный внешний ASPI-интерфейс

Выходной формат : Пользовательский кодировщикВыбранный битрейт : 1024 kBit/sКачество : ВысокийДобавление ID3-тэга : НетУтилита сжатия : C:\Program Files\Exact Audio Copy\FLAC\FLAC.EXEДополнительные параметры : -5 -V -T "ARTIST=%a" -T "TITLE=%t" -T "ALBUM=%g" -T "DATE=%y" -T "TRACKNUMBER=%n" -T "GENRE=%m" -T "COMMENT=%e" %s -o %d

TOC извлечённого CD

Трек | Старт | Длительность | Начальный сектор | Конечный сектор --------------------------------------------------------------------- 1 | 0:00.00 | 5:09.52 | 0 | 23226 2 | 5:09.52 | 4:31.65 | 23227 | 43616 3 | 9:41.42 | 5:15.08 | 43617 | 67249 4 | 14:56.50 | 4:27.52 | 67250 | 87326 5 | 19:24.27 | 5:15.18 | 87327 | 110969 6 | 24:39.45 | 4:04.57 | 110970 | 129326 7 | 28:44.27 | 3:56.40 | 129327 | 147066 8 | 32:40.67 | 4:44.05 | 147067 | 168371 9 | 37:24.72 | 4:12.40 | 168372 | 187311 10 | 41:37.37 | 4:22.48 | 187312 | 207009 11 | 46:00.10 | 4:23.50 | 207010 | 226784

Характеристики диапазона извлечения и сообщения об ошибках

Выбранный диапазон

Имя файла I:\BitComet\The Rippingtons(flac)\2003-Let It Ripp\The Rippingtons - Let It Ripp.wav

Пиковый уровень 100.0 % Качество диапазона 99.9 % CRC теста E7E7F64F CRC копии E7E7F64F Копирование... OK

Ошибок не произошло

AccurateRip: сводка

Трек 1 точное извлечение (доверие 24) [A3995D07]Трек 2 точное извлечение (доверие 24) [2E3F1ADF]Трек 3 точное извлечение (доверие 24) [435F664A]Трек 4 точное извлечение (доверие 24) [52387D85]Трек 5 точное извлечение (доверие 25) [13EC59EC]Трек 6 точное извлечение (доверие 25) [5D742482]Трек 7 точное извлечение (доверие 25) [7FCB1C81]Трек 8 точное извлечение (доверие 25) [C100FCAD]Трек 9 точное извлечение (доверие 24) [B053F7E8]Трек 10 точное извлечение (доверие 25) [C3C9BBFF]Трек 11 точное извлечение (доверие 25) [E896EDE1]

Все треки извлечены точно

Конец отчёта
01. Gypsy Eyes
02. Wild Card
03. El Vacilon
04. Paradise
05. Spanish Girl
06. Mulata De Mi Amor
07. Moonlight
08. Till You Come Back To Me
09. Lay It Down
10. King Of Hearts
11. Into You
12. Mulata De Mi Amor
13. In The End
 
Exact Audio Copy V0.99 prebeta 4 from 23. January 2008

Отчёт EAC об извлечении, выполненном 23. января 2011, 18:54

The Rippingtons featuring Russ Freeman / Wild Card

Дисковод: ATAPI iHAS424 A Adapter: 0 ID: 0

Режим чтения : ДостоверностьИспользование точного потока : ДаОтключение кэша аудио : ДаИспользование указателей C2 : Нет

Коррекция смещения при чтении : 6Способность читать области Lead-in и Lead-out : НетЗаполнение пропущенных сэмплов тишиной : ДаУдаление блоков с тишиной в начале и конце : НетПри вычислениях CRC использовались нулевые сэмплы : ДаИнтерфейс : Установленный внешний ASPI-интерфейс

Выходной формат : Пользовательский кодировщикВыбранный битрейт : 1024 kBit/sКачество : ВысокийДобавление ID3-тэга : НетУтилита сжатия : C:\Program Files\Exact Audio Copy\FLAC\FLAC.EXEДополнительные параметры : -5 -V -T "ARTIST=%a" -T "TITLE=%t" -T "ALBUM=%g" -T "DATE=%y" -T "TRACKNUMBER=%n" -T "GENRE=%m" -T "COMMENT=%e" %s -o %d

TOC извлечённого CD

Трек | Старт | Длительность | Начальный сектор | Конечный сектор --------------------------------------------------------------------- 1 | 0:00.00 | 4:20.33 | 0 | 19532 2 | 4:20.33 | 3:56.42 | 19533 | 37274 3 | 8:17.00 | 4:47.63 | 37275 | 58862 4 | 13:04.63 | 5:04.24 | 58863 | 81686 5 | 18:09.12 | 4:15.24 | 81687 | 100835 6 | 22:24.36 | 4:08.31 | 100836 | 119466 7 | 26:32.67 | 3:51.41 | 119467 | 136832 8 | 30:24.33 | 4:00.11 | 136833 | 154843 9 | 34:24.44 | 4:11.04 | 154844 | 173672 10 | 38:35.48 | 4:10.26 | 173673 | 192448 11 | 42:45.74 | 3:57.10 | 192449 | 210233 12 | 46:43.09 | 3:56.39 | 210234 | 227972 13 | 50:39.48 | 4:14.62 | 227973 | 247084

Характеристики диапазона извлечения и сообщения об ошибках

Выбранный диапазон

Имя файла I:\BitComet\The Rippingtons(flac)\2005-Wild Card\The Rippingtons featuring Russ Freeman - Wild Card.wav

Пиковый уровень 96.8 % Качество диапазона 100.0 % CRC теста 20515A9B CRC копии 20515A9B Копирование... OK

Ошибок не произошло

AccurateRip: сводка

Трек 1 точное извлечение (доверие 8) [7ABCC5DC]Трек 2 точное извлечение (доверие 8) [74483649]Трек 3 точное извлечение (доверие 8) [3EF52AC3]Трек 4 точное извлечение (доверие 8) [69186ECC]Трек 5 точное извлечение (доверие 8) [FDEFA956]Трек 6 точное извлечение (доверие 8) [33E9B21A]Трек 7 точное извлечение (доверие 8) [8C713A99]Трек 8 точное извлечение (доверие 8) [01AD25F8]Трек 9 точное извлечение (доверие 8) [44251660]Трек 10 точное извлечение (доверие 8) [350B994A]Трек 11 точное извлечение (доверие 8) [372F2B04]Трек 12 точное извлечение (доверие 8) [C3665431]Трек 13 точное извлечение (доверие 8) [004B6715]

Все треки извлечены точно

Конец отчёта
01. City Of Angels
02. Celebrate
03. Costa Del Sol
04. Bingo Jingo
05. Eternity
06. Six Four
07. Rainbow
08. Twenty
09. Anything
10. A Kiss Under The Moonlight
11. 20th Anniversary Bonus
 
Exact Audio Copy V0.99 prebeta 4 from 23. January 2008

Отчёт EAC об извлечении, выполненном 23. января 2011, 15:41

The Rippingtons / 20th Anniversary

Дисковод: ATAPI iHAS424 A Adapter: 0 ID: 0

Режим чтения : ДостоверностьИспользование точного потока : ДаОтключение кэша аудио : ДаИспользование указателей C2 : Нет

Коррекция смещения при чтении : 6Способность читать области Lead-in и Lead-out : НетЗаполнение пропущенных сэмплов тишиной : ДаУдаление блоков с тишиной в начале и конце : НетПри вычислениях CRC использовались нулевые сэмплы : ДаИнтерфейс : Установленный внешний ASPI-интерфейс

Выходной формат : Пользовательский кодировщикВыбранный битрейт : 1024 kBit/sКачество : ВысокийДобавление ID3-тэга : НетУтилита сжатия : C:\Program Files\Exact Audio Copy\FLAC\FLAC.EXEДополнительные параметры : -5 -V -T "ARTIST=%a" -T "TITLE=%t" -T "ALBUM=%g" -T "DATE=%y" -T "TRACKNUMBER=%n" -T "GENRE=%m" -T "COMMENT=%e" %s -o %d

TOC извлечённого CD

Трек | Старт | Длительность | Начальный сектор | Конечный сектор --------------------------------------------------------------------- 1 | 0:00.00 | 5:05.15 | 0 | 22889 2 | 5:05.15 | 4:43.42 | 22890 | 44156 3 | 9:48.57 | 4:19.38 | 44157 | 63619 4 | 14:08.20 | 4:42.14 | 63620 | 84783 5 | 18:50.34 | 4:26.63 | 84784 | 104796 6 | 23:17.22 | 4:02.38 | 104797 | 122984 7 | 27:19.60 | 4:29.08 | 122985 | 143167 8 | 31:48.68 | 3:56.18 | 143168 | 160885 9 | 35:45.11 | 4:26.25 | 160886 | 180860 10 | 40:11.36 | 4:08.48 | 180861 | 199508 11 | 44:20.09 | 5:53.51 | 199509 | 226034

Характеристики диапазона извлечения и сообщения об ошибках

Выбранный диапазон

Имя файла I:\BitComet\The Rippingtons(flac)\2006-20th Anniversary\The Rippingtons - 20th Anniversary.wav

Пиковый уровень 98.8 % Качество диапазона 99.9 % CRC теста 4DDEC2E3 CRC копии 4DDEC2E3 Копирование... OK

Ошибок не произошло

AccurateRip: сводка

Трек 1 точное извлечение (доверие 24) [3CF49D3C]Трек 2 точное извлечение (доверие 24) [27EBE041]Трек 3 точное извлечение (доверие 23) [9CFD0B90]Трек 4 точное извлечение (доверие 23) [A9E9B404]Трек 5 точное извлечение (доверие 23) [2D379C1A]Трек 6 точное извлечение (доверие 23) [7D499B4E]Трек 7 точное извлечение (доверие 24) [F7EB7674]Трек 8 точное извлечение (доверие 23) [BD14FA1A]Трек 9 точное извлечение (доверие 24) [A86786A8]Трек 10 точное извлечение (доверие 23) [EB0372D7]Трек 11 точное извлечение (доверие 22) [75DA8552]

Все треки извлечены точно

Конец отчёта
01. Modern Art (4:16)
02. Paris Groove (3:38)
03. Black Book (3:58)
04. Pastels On Canvas (4:53)
05. One Step Closer (4:40)
06. I Still Believe (4:36)
07. Body Art (4:38)
08. Age Of Reason (4:27)
09. Sweet Lullaby (4:21)
10. Jet Set (4:13)
11. Love Story (4:03)
 
Exact Audio Copy V0.99 prebeta 4 from 23. January 2008

Отчёт EAC об извлечении, выполненном 23. января 2011, 14:41

The Rippingtons / Modern Art

Дисковод: PLEXTOR DVDR PX-880SA Adapter: 1 ID: 1

Режим чтения : ДостоверностьИспользование точного потока : ДаОтключение кэша аудио : ДаИспользование указателей C2 : Нет

Коррекция смещения при чтении : 6Способность читать области Lead-in и Lead-out : НетЗаполнение пропущенных сэмплов тишиной : ДаУдаление блоков с тишиной в начале и конце : НетПри вычислениях CRC использовались нулевые сэмплы : ДаИнтерфейс : Установленный внешний ASPI-интерфейс

Выходной формат : Пользовательский кодировщикВыбранный битрейт : 1024 kBit/sКачество : ВысокийДобавление ID3-тэга : НетУтилита сжатия : C:\Program Files\Exact Audio Copy\FLAC\FLAC.EXEДополнительные параметры : -5 -V -T "ARTIST=%a" -T "TITLE=%t" -T "ALBUM=%g" -T "DATE=%y" -T "TRACKNUMBER=%n" -T "GENRE=%m" -T "COMMENT=%e" %s -o %d

TOC извлечённого CD

Трек | Старт | Длительность | Начальный сектор | Конечный сектор --------------------------------------------------------------------- 1 | 0:00.00 | 4:17.09 | 0 | 19283 2 | 4:17.09 | 3:39.49 | 19284 | 35757 3 | 7:56.58 | 3:59.04 | 35758 | 53686 4 | 11:55.62 | 4:54.41 | 53687 | 75777 5 | 16:50.28 | 4:41.40 | 75778 | 96892 6 | 21:31.68 | 4:38.30 | 96893 | 117772 7 | 26:10.23 | 4:40.14 | 117773 | 138786 8 | 30:50.37 | 4:28.33 | 138787 | 158919 9 | 35:18.70 | 4:22.55 | 158920 | 178624 10 | 39:41.50 | 4:14.48 | 178625 | 197722 11 | 43:56.23 | 4:03.52 | 197723 | 215999

Характеристики диапазона извлечения и сообщения об ошибках

Выбранный диапазон

Имя файла I:\BitComet\The Rippingtons(flac)\2009-Modern Art\The Rippingtons - Modern Art.wav

Пиковый уровень 98.8 % Качество диапазона 99.9 % CRC теста DA01DE9B CRC копии DA01DE9B Копирование... OK

Ошибок не произошло

AccurateRip: сводка

Трек 1 точное извлечение (доверие 24) [8BB0124B]Трек 2 точное извлечение (доверие 24) [445CFDFD]Трек 3 точное извлечение (доверие 23) [92F99C5E]Трек 4 точное извлечение (доверие 23) [C82F5B00]Трек 5 точное извлечение (доверие 23) [934DBA3E]Трек 6 точное извлечение (доверие 23) [F134B017]Трек 7 точное извлечение (доверие 23) [926DA78D]Трек 8 точное извлечение (доверие 23) [351A1564]Трек 9 точное извлечение (доверие 23) [3881E06A]Трек 10 точное извлечение (доверие 23) [69B6AE0F]Трек 11 точное извлечение (доверие 22) [C312C5FF]

Все треки извлечены точно

Конец отчёта
01. Côte D'Azur
02. Le Calypso
03. Bandol
04. Sainte Maxime
05. Postcard From Cannes
06. Passage To Marseilles
07. Provence
08. Riviera Jam
09. Rue Paradis
10. Mesmerized
 
Exact Audio Copy V0.99 prebeta 4 from 23. January 2008

Отчёт EAC об извлечении, выполненном 3. февраля 2011, 5:38

The Rippingtons / Cote D'Azur

Дисковод: PLEXTOR DVDR PX-880SA Adapter: 1 ID: 1

Режим чтения : ДостоверностьИспользование точного потока : ДаОтключение кэша аудио : ДаИспользование указателей C2 : Нет

Коррекция смещения при чтении : 6Способность читать области Lead-in и Lead-out : НетЗаполнение пропущенных сэмплов тишиной : ДаУдаление блоков с тишиной в начале и конце : НетПри вычислениях CRC использовались нулевые сэмплы : ДаИнтерфейс : Установленный внешний ASPI-интерфейс

Выходной формат : Пользовательский кодировщикВыбранный битрейт : 1024 kBit/sКачество : ВысокийДобавление ID3-тэга : НетУтилита сжатия : C:\Program Files\Exact Audio Copy\FLAC\FLAC.EXEДополнительные параметры : -5 -V -T "ARTIST=%a" -T "TITLE=%t" -T "ALBUM=%g" -T "DATE=%y" -T "TRACKNUMBER=%n" -T "GENRE=%m" -T "COMMENT=%e" %s -o %d

TOC извлечённого CD

Трек | Старт | Длительность | Начальный сектор | Конечный сектор --------------------------------------------------------------------- 1 | 0:00.00 | 4:24.11 | 0 | 19810 2 | 4:24.11 | 3:32.36 | 19811 | 35746 3 | 7:56.47 | 3:53.11 | 35747 | 53232 4 | 11:49.58 | 4:18.14 | 53233 | 72596 5 | 16:07.72 | 4:25.14 | 72597 | 92485 6 | 20:33.11 | 3:43.12 | 92486 | 109222 7 | 24:16.23 | 4:28.30 | 109223 | 129352 8 | 28:44.53 | 3:28.42 | 129353 | 144994 9 | 32:13.20 | 4:36.16 | 144995 | 165710 10 | 36:49.36 | 3:24.37 | 165711 | 181047

Характеристики диапазона извлечения и сообщения об ошибках

Выбранный диапазон

Имя файла I:\BitComet\The Rippingtons - Cote D'Azur(2011)(flac)\The Rippingtons - Cote D'Azur.wav

Пиковый уровень 100.0 % Качество диапазона 100.0 % CRC теста 93EE9582 CRC копии 93EE9582 Копирование... OK

Ошибок не произошло

AccurateRip: сводка

Трек 1 нет в базе данныхТрек 2 нет в базе данныхТрек 3 нет в базе данныхТрек 4 нет в базе данныхТрек 5 нет в базе данныхТрек 6 нет в базе данныхТрек 7 нет в базе данныхТрек 8 нет в базе данныхТрек 9 нет в базе данныхТрек 10 нет в базе данных

Ни одного трека нет в базе AccurateRip

Конец отчёта


Трекер:  [ 26-Мар-2011 15:43 ]

  

Скачать .torrent

Размер .torrent файла 48 KB


Размер: 6.03 GB
Хэш (hash) релиза: 0ddcfcd80eec45a3289aa119070e67288e38ddbf

Еще никто не оставлял запись к записи скачать торрент The Rippingtons - Коллекция . Будь первым!

!Обратная связь