Скачать через торрент Амстердам Amsterdam 3D Фильм бесплатно в хорошем качестве torrent

Скачивайте на UnionPeer.org фильмы через торрент без регистрации. Новинки кино в хорошем качестве через торрент. На UnionPeer.org можно скачать через торрент фильмы 2014 и 2015 годов. Самые новые фильмы.

Скачать торрент Амстердам Amsterdam 3D бесплатно через .torrent фильм мультфильм сериал

Если у вас наблюдаются проблемы со скриншотами, переходом по ссылками, скачиванием торрентов - проблемы в блокировщике рекламы AdBlock. #хорошегоДня!


Статистика раздачи
Размер:  7.34 GB   |    Зарегистрирован:  2 года 11 месяцев   |    .torrent скачан:  127 раз   |   
Раздают:  1  
   
Загрузка...
 
Автор Сообщение

Galfimbul

avatar Galfimbul


Год выпуска: 2014
Жанр: Документальное кино-путеводитель
Продолжительность: 0:41:00

Русские субтитры: нет

Режиссер: КИВ
Состав и описание раздачи:
Амстердам является самым крупным городом в Нидерландах, а также культурной столицей королевства. Благодаря длинной береговой линии Северного моря, метеорологические карты мало меняются на всей территории Нидерландов, а в Амстердаме погода менее экстремальная, чем во многих других городах региона.

Амстердам славится своим диапазоном исторических и культурных достопримечательностей. Вдоль красивых каналов расположены симпатичные здания с исторической архитектурой крест-накрест, это популярное туристическое направление. Местные жители говорят на превосходном английском языке, а торговые комплексы имеют мировой уровень и практически любой посетитель найдет много очаровательного.

Большинство посетителей проводят время, наслаждаясь центром города. Большей частью Амстердама можно наслаждаться, легко обойдя пешком или на велосипеде. Есть около 7000 зарегистрированных исторических памятников для изучения в одном только историческом центре города. Кроме зданий, которые датируются средневековьем, Амстердам имеет несколько потрясающих современных зданий.
Качество: HDTV
Контейнер: MPEG-Video
Формат 3D: AnamorphSideBySide / Горизонтальная анаморфная стереопара
Порядок ракурсов: левый ракурс первый
Видео кодек: MPEG-PS
Аудио кодек: AC-3
Видео: MPEG-VIDEO 24,5 Мбит/сек, 1920х1080, 16:9, 25 кадров/сек. (PAL)
Аудио: AC-3 448 Кбит/сек, 48,0 Кгц,16 Бит, 6 Каналов.
General
General
Complete name : F:\Моё кино архив\Моё HD кино в 3D для инета\Кино\Амстердам3D(КИВ)2014инет.mpg
Format : MPEG-PS
File size : 7.34 GiB
Duration : 41mn 11s
Overall bit rate mode : Variable
Overall bit rate : 25.5 Mbps

Video
ID : 224 (0xE0)
Format : MPEG Video
Format version : Version 2
Format profile : Main@High
Format settings, BVOP : No
Format settings, Matrix : Custom
Format settings, GOP : M=3, N=15
Duration : 41mn 11s
Bit rate mode : Variable
Bit rate : 24.5 Mbps
Maximum bit rate : 32.0 Mbps
Width : 1 920 pixels
Height : 1 080 pixels
Display aspect ratio : 16:9
Frame rate : 25.000 fps
Color space : YUV
Chroma subsampling : 4:2:0
Bit depth : 8 bits
Scan type : Interlaced
Scan order : Top Field First
Compression mode : Lossy
Bits/(Pixel*Frame) : 0.473
Time code of first frame : 00:00:00:00
Time code source : Group of pictures header
Stream size : 7.06 GiB (96%)

Audio
ID : 189 (0xBD)-128 (0x80)
Format : AC-3
Format/Info : Audio Coding 3
Mode extension : CM (complete main)
Format settings, Endianness : Big
Muxing mode : DVD-Video
Duration : 41mn 11s
Bit rate mode : Constant
Bit rate : 448 Kbps
Channel(s) : 6 channels
Channel positions : Front: L C R, Side: L R, LFE
Sampling rate : 48.0 KHz
Bit depth : 16 bits
Compression mode : Lossy
Stream size : 132 MiB (2%)


Трекер:  [ 15-Сен-2014 10:00 ]

  

Скачать .torrent

Размер .torrent файла 19 KB


Размер: 7.34 GB
Хэш (hash) релиза: 3e3a2ada86901438e99db2ca1b937d4e9cedf7cb
Подписка на обновления:

Еще никто не оставлял запись к записи скачать торрент Амстердам Amsterdam 3D . Будь первым!

!Обратная связь