Скачать через торрент музыку John Coltrane - The Prestige Recordings бесплатно без регистрации torrent

Если у вас наблюдаются проблемы со скриншотами, переходом по ссылками, скачиванием торрентов - проблемы в блокировщике рекламы AdBlock. #хорошегоДня!


Статистика раздачи
Размер:  5.56 GB   |    Зарегистрирован:  6 лет 6 месяцев   |    .torrent скачан:  77 раз   |   
Раздают:  1  
   
Загрузка...
 
Автор Сообщение

L


John Coltrane - The Prestige Recordings (Box Set)

Жанр: Jazz, bebop, free jazz
Год выпуска диска: 1991
Производитель диска: США
Label: Prestige
Аудио кодек: FLAC
Тип рипа: tracks+.cue
Битрейт аудио: lossless
Продолжительность: 18:20:26

Трэклист:
01. Tenor Madness (12:18)
02. Weeja (11:11)
03. Polka Dots and Moonbeams (8:39)
04. On It (9:04)
05. Avalon (9:41)
06. Tenor Conclave (8:20)
07. How Deep is the Ocean? (15:04)
Exact Audio Copy V0.99 prebeta 4 from 23. January 2008

EAC extraction logfile from 28. June 2009, 19:07

John Coltrane / The Prestige Recordings 1

Used drive : Optiarc DVD RW AD-5170A Adapter: 0 ID: 0

Read mode : Secure
Utilize accurate stream : Yes
Defeat audio cache : Yes
Make use of C2 pointers : No

Read offset correction : 48
Overread into Lead-In and Lead-Out : No
Fill up missing offset samples with silence : Yes
Delete leading and trailing silent blocks : No
Null samples used in CRC calculations : Yes
Used interface : Native Win32 interface for Win NT & 2000
Gap handling : Appended to previous track

Used output format : User Defined Encoder
Selected bitrate : 320 kBit/s
Quality : High
Add ID3 tag : No
Command line compressor : C:\Program Files\Exact Audio Copy\FLAC\FLAC.EXE
Additional command line options : -V -8 -T "artist=%a" -T "title=%t" -T "album=%g" -T "date=%y" -T "tracknumber=%n" -T "genre=%m" %s

TOC of the extracted CD

Track | Start | Length | Start sector | End sector
---------------------------------------------------------
1 | 0:00.00 | 12:17.62 | 0 | 55336
2 | 12:17.62 | 11:10.60 | 55337 | 105646
3 | 23:28.47 | 8:38.68 | 105647 | 144564
4 | 32:07.40 | 9:04.27 | 144565 | 185391
5 | 41:11.67 | 9:40.63 | 185392 | 228954
6 | 50:52.55 | 8:19.45 | 228955 | 266424
7 | 59:12.25 | 15:03.45 | 266425 | 334194

Track 1

Filename K:\[ Torrents ]\John Coltrane\John Coltrane - The Prestige Recordings 1 (1991) [flac]\01 - Tenor Madness.wav

Pre-gap length 0:00:02.00

Peak level 67.9 %
Track quality 99.9 %
Test CRC 00698EF7
Copy CRC 00698EF7
Accurately ripped (confidence 3) [32324150]
Copy OK

Track 2

Filename K:\[ Torrents ]\John Coltrane\John Coltrane - The Prestige Recordings 1 (1991) [flac]\02 - Weeja.wav

Pre-gap length 0:00:02.06

Peak level 70.6 %
Track quality 100.0 %
Test CRC 09427C07
Copy CRC 09427C07
Accurately ripped (confidence 3) [B01C7DB0]
Copy OK

Track 3

Filename K:\[ Torrents ]\John Coltrane\John Coltrane - The Prestige Recordings 1 (1991) [flac]\03 - Polka Dots and Moonbeams.wav

Pre-gap length 0:00:01.56

Peak level 57.3 %
Track quality 100.0 %
Test CRC A737CB12
Copy CRC A737CB12
Accurately ripped (confidence 2) [C3B461EF]
Copy OK

Track 4

Filename K:\[ Torrents ]\John Coltrane\John Coltrane - The Prestige Recordings 1 (1991) [flac]\04 - On It.wav

Pre-gap length 0:00:01.60

Peak level 52.8 %
Track quality 99.0 %
Test CRC 667DDE7E
Copy CRC 667DDE7E
Accurately ripped (confidence 3) [ECC2520E]
Copy OK

Track 5

Filename K:\[ Torrents ]\John Coltrane\John Coltrane - The Prestige Recordings 1 (1991) [flac]\05 - Avalon.wav

Pre-gap length 0:00:01.76

Peak level 62.3 %
Track quality 100.0 %
Test CRC 8E10808B
Copy CRC 8E10808B
Accurately ripped (confidence 2) [61D539FD]
Copy OK

Track 6

Filename K:\[ Torrents ]\John Coltrane\John Coltrane - The Prestige Recordings 1 (1991) [flac]\06 - Tenor Conclave.wav

Pre-gap length 0:00:02.53

Peak level 73.0 %
Track quality 100.0 %
Test CRC 7C60CDD4
Copy CRC 7C60CDD4
Accurately ripped (confidence 2) [F5E1271F]
Copy OK

Track 7

Filename K:\[ Torrents ]\John Coltrane\John Coltrane - The Prestige Recordings 1 (1991) [flac]\07 - How Deep is the Ocean .wav

Pre-gap length 0:00:01.73

Peak level 60.6 %
Track quality 99.9 %
Test CRC D8E3F188
Copy CRC D8E3F188
Track not present in AccurateRip database
Copy OK

6 track(s) accurately ripped
1 track(s) not present in the AccurateRip database

Some tracks could not be verified as accurate

No errors occurred

End of status report
01. Just You, Just Me (9:29)
02. Bob's Boys (11:04)
03. Mating Call (5:36)
04. Soultrane (5:24)
05. Gnid (5:09)
06. Super Jet (5:54)
07. On a Misty Night (6:22)
08. Romas (6:53)
09. Soul Eyes (17:30)
Exact Audio Copy V0.99 prebeta 4 from 23. January 2008

EAC extraction logfile from 28. June 2009, 19:40

John Coltrane / The Prestige Recordings 2

Used drive : Optiarc DVD RW AD-5170A Adapter: 0 ID: 0

Read mode : Secure
Utilize accurate stream : Yes
Defeat audio cache : Yes
Make use of C2 pointers : No

Read offset correction : 48
Overread into Lead-In and Lead-Out : No
Fill up missing offset samples with silence : Yes
Delete leading and trailing silent blocks : No
Null samples used in CRC calculations : Yes
Used interface : Native Win32 interface for Win NT & 2000
Gap handling : Appended to previous track

Used output format : User Defined Encoder
Selected bitrate : 320 kBit/s
Quality : High
Add ID3 tag : No
Command line compressor : C:\Program Files\Exact Audio Copy\FLAC\FLAC.EXE
Additional command line options : -V -8 -T "artist=%a" -T "title=%t" -T "album=%g" -T "date=%y" -T "tracknumber=%n" -T "genre=%m" %s

TOC of the extracted CD

Track | Start | Length | Start sector | End sector
---------------------------------------------------------
1 | 0:00.00 | 9:29.25 | 0 | 42699
2 | 9:29.25 | 11:03.57 | 42700 | 92481
3 | 20:33.07 | 5:35.65 | 92482 | 117671
4 | 26:08.72 | 5:23.60 | 117672 | 141956
5 | 31:32.57 | 5:09.23 | 141957 | 165154
6 | 36:42.05 | 5:53.52 | 165155 | 191681
7 | 42:35.57 | 6:21.73 | 191682 | 220329
8 | 48:57.55 | 6:53.32 | 220330 | 251336
9 | 55:51.12 | 17:29.38 | 251337 | 330049

Track 1

Filename K:\[ Torrents ]\John Coltrane\John Coltrane - The Prestige Recordings 2 (1991) [flac]\01 - Just You, Just Me.wav

Pre-gap length 0:00:02.00

Peak level 60.5 %
Track quality 100.0 %
Test CRC CD507DD7
Copy CRC CD507DD7
Accurately ripped (confidence 2) [BC055E55]
Copy OK

Track 2

Filename K:\[ Torrents ]\John Coltrane\John Coltrane - The Prestige Recordings 2 (1991) [flac]\02 - Bob's Boys.wav

Pre-gap length 0:00:02.13

Peak level 59.9 %
Track quality 99.9 %
Test CRC E80FC2D2
Copy CRC E80FC2D2
Track not present in AccurateRip database
Copy OK

Track 3

Filename K:\[ Torrents ]\John Coltrane\John Coltrane - The Prestige Recordings 2 (1991) [flac]\03 - Mating Call.wav

Pre-gap length 0:00:01.60

Peak level 50.9 %
Track quality 100.0 %
Test CRC 9CB39DB8
Copy CRC 9CB39DB8
Accurately ripped (confidence 2) [F673C871]
Copy OK

Track 4

Filename K:\[ Torrents ]\John Coltrane\John Coltrane - The Prestige Recordings 2 (1991) [flac]\04 - Soultrane.wav

Pre-gap length 0:00:01.13

Peak level 45.5 %
Track quality 100.0 %
Test CRC C5B0C999
Copy CRC C5B0C999
Accurately ripped (confidence 2) [BC410315]
Copy OK

Track 5

Filename K:\[ Torrents ]\John Coltrane\John Coltrane - The Prestige Recordings 2 (1991) [flac]\05 - Gnid.wav

Pre-gap length 0:00:01.76

Peak level 47.4 %
Track quality 100.0 %
Test CRC 26205FD2
Copy CRC 26205FD2
Accurately ripped (confidence 2) [134A065E]
Copy OK

Track 6

Filename K:\[ Torrents ]\John Coltrane\John Coltrane - The Prestige Recordings 2 (1991) [flac]\06 - Super Jet.wav

Pre-gap length 0:00:01.97

Peak level 53.6 %
Track quality 100.0 %
Test CRC 89DD5083
Copy CRC 89DD5083
Accurately ripped (confidence 2) [5FF55435]
Copy OK

Track 7

Filename K:\[ Torrents ]\John Coltrane\John Coltrane - The Prestige Recordings 2 (1991) [flac]\07 - On a Misty Night.wav

Pre-gap length 0:00:01.20

Peak level 54.5 %
Track quality 100.0 %
Test CRC F96AA918
Copy CRC F96AA918
Accurately ripped (confidence 3) [C73EDC0D]
Copy OK

Track 8

Filename K:\[ Torrents ]\John Coltrane\John Coltrane - The Prestige Recordings 2 (1991) [flac]\08 - Romas.wav

Pre-gap length 0:00:01.70

Peak level 49.2 %
Track quality 99.9 %
Test CRC 4E35C5E0
Copy CRC 4E35C5E0
Accurately ripped (confidence 2) [59DD7D3E]
Copy OK

Track 9

Filename K:\[ Torrents ]\John Coltrane\John Coltrane - The Prestige Recordings 2 (1991) [flac]\09 - Soul Eyes.wav

Pre-gap length 0:00:02.33

Peak level 52.4 %
Track quality 100.0 %
Test CRC 6DF5ED66
Copy CRC 6DF5ED66
Track not present in AccurateRip database
Copy OK

7 track(s) accurately ripped
2 track(s) not present in the AccurateRip database

Some tracks could not be verified as accurate

No errors occurred

End of status report
01. Anatomy (11:55)
02. Interplay (9:40)
03. Light Blue (7:51)
04. C.T.A. (4:41)
05. Eclypso (7:56)
06. Solacium (9:10)
07. Minor Mishap (7:25)
08. Tommy's Time (11:58)
Exact Audio Copy V0.99 prebeta 4 from 23. January 2008

EAC extraction logfile from 28. June 2009, 20:09

John Coltrane / The Prestige Recordings 3

Used drive : Optiarc DVD RW AD-5170A Adapter: 0 ID: 0

Read mode : Secure
Utilize accurate stream : Yes
Defeat audio cache : Yes
Make use of C2 pointers : No

Read offset correction : 48
Overread into Lead-In and Lead-Out : No
Fill up missing offset samples with silence : Yes
Delete leading and trailing silent blocks : No
Null samples used in CRC calculations : Yes
Used interface : Native Win32 interface for Win NT & 2000
Gap handling : Appended to previous track

Used output format : User Defined Encoder
Selected bitrate : 320 kBit/s
Quality : High
Add ID3 tag : No
Command line compressor : C:\Program Files\Exact Audio Copy\FLAC\FLAC.EXE
Additional command line options : -V -8 -T "artist=%a" -T "title=%t" -T "album=%g" -T "date=%y" -T "tracknumber=%n" -T "genre=%m" %s

TOC of the extracted CD

Track | Start | Length | Start sector | End sector
---------------------------------------------------------
1 | 0:00.00 | 11:54.50 | 0 | 53599
2 | 11:54.50 | 9:39.57 | 53600 | 97081
3 | 21:34.32 | 7:51.08 | 97082 | 132414
4 | 29:25.40 | 4:41.37 | 132415 | 153526
5 | 34:07.02 | 7:56.10 | 153527 | 189236
6 | 42:03.12 | 9:10.10 | 189237 | 230496
7 | 51:13.22 | 7:25.03 | 230497 | 263874
8 | 58:38.25 | 11:57.52 | 263875 | 317701

Track 1

Filename K:\[ Torrents ]\John Coltrane\John Coltrane - The Prestige Recordings 3 (1991) [flac]\01 - Anatomy.wav

Pre-gap length 0:00:02.00

Peak level 56.3 %
Track quality 100.0 %
Test CRC 12918CC9
Copy CRC 12918CC9
Accurately ripped (confidence 2) [A7C5DF03]
Copy OK

Track 2

Filename K:\[ Torrents ]\John Coltrane\John Coltrane - The Prestige Recordings 3 (1991) [flac]\02 - Interplay.wav

Pre-gap length 0:00:01.80

Peak level 94.4 %
Track quality 99.9 %
Test CRC AC4658E6
Copy CRC AC4658E6
Accurately ripped (confidence 2) [64977F5C]
Copy OK

Track 3

Filename K:\[ Torrents ]\John Coltrane\John Coltrane - The Prestige Recordings 3 (1991) [flac]\03 - Light Blue.wav

Pre-gap length 0:00:01.96

Peak level 59.4 %
Track quality 100.0 %
Test CRC BA7ACB6D
Copy CRC BA7ACB6D
Accurately ripped (confidence 2) [04C4884A]
Copy OK

Track 4

Filename K:\[ Torrents ]\John Coltrane\John Coltrane - The Prestige Recordings 3 (1991) [flac]\04 - C.T.A..wav

Pre-gap length 0:00:01.90

Peak level 57.3 %
Track quality 100.0 %
Test CRC AC89BF90
Copy CRC AC89BF90
Accurately ripped (confidence 2) [2E731567]
Copy OK

Track 5

Filename K:\[ Torrents ]\John Coltrane\John Coltrane - The Prestige Recordings 3 (1991) [flac]\05 - Eclypso.wav

Pre-gap length 0:00:01.09

Peak level 62.2 %
Track quality 100.0 %
Test CRC 81A278F5
Copy CRC 81A278F5
Accurately ripped (confidence 2) [0243976C]
Copy OK

Track 6

Filename K:\[ Torrents ]\John Coltrane\John Coltrane - The Prestige Recordings 3 (1991) [flac]\06 - Solacium.wav

Pre-gap length 0:00:00.86

Peak level 62.1 %
Track quality 100.0 %
Test CRC B9D6864B
Copy CRC B9D6864B
Accurately ripped (confidence 2) [792138C4]
Copy OK

Track 7

Filename K:\[ Torrents ]\John Coltrane\John Coltrane - The Prestige Recordings 3 (1991) [flac]\07 - Minor Mishap.wav

Pre-gap length 0:00:02.62

Peak level 63.5 %
Track quality 100.0 %
Test CRC 157A7924
Copy CRC 157A7924
Accurately ripped (confidence 2) [3085C089]
Copy OK

Track 8

Filename K:\[ Torrents ]\John Coltrane\John Coltrane - The Prestige Recordings 3 (1991) [flac]\08 - Tommy's Time.wav

Pre-gap length 0:00:01.24

Peak level 70.0 %
Track quality 99.9 %
Test CRC 9F85BFB2
Copy CRC 9F85BFB2
Track not present in AccurateRip database
Copy OK

7 track(s) accurately ripped
1 track(s) not present in the AccurateRip database

Some tracks could not be verified as accurate

No errors occurred

End of status report
01. Dakar (7:09)
02. Mary's Blues (6:48)
03. Route 4 (6:55)
04. Velvet Scene (4:54)
05. Witches' Pit (6:43)
06. Cat Walk (7:12)
07. Pot Pourri (6:37)
08. J.M.'s Dream Doll (8:40)
09. Don't Explain (6:58)
10. Falling in Love With Love (11:38)
Exact Audio Copy V0.99 prebeta 4 from 23. January 2008

EAC extraction logfile from 28. June 2009, 20:42

John Coltrane / The Prestige Recordings 4

Used drive : Optiarc DVD RW AD-5170A Adapter: 0 ID: 0

Read mode : Secure
Utilize accurate stream : Yes
Defeat audio cache : Yes
Make use of C2 pointers : No

Read offset correction : 48
Overread into Lead-In and Lead-Out : No
Fill up missing offset samples with silence : Yes
Delete leading and trailing silent blocks : No
Null samples used in CRC calculations : Yes
Used interface : Native Win32 interface for Win NT & 2000
Gap handling : Appended to previous track

Used output format : User Defined Encoder
Selected bitrate : 320 kBit/s
Quality : High
Add ID3 tag : No
Command line compressor : C:\Program Files\Exact Audio Copy\FLAC\FLAC.EXE
Additional command line options : -V -8 -T "artist=%a" -T "title=%t" -T "album=%g" -T "date=%y" -T "tracknumber=%n" -T "genre=%m" %s

TOC of the extracted CD

Track | Start | Length | Start sector | End sector
---------------------------------------------------------
1 | 0:00.00 | 7:09.20 | 0 | 32194
2 | 7:09.20 | 6:47.42 | 32195 | 62761
3 | 13:56.62 | 6:54.68 | 62762 | 93879
4 | 20:51.55 | 4:53.70 | 93880 | 115924
5 | 25:45.50 | 6:42.47 | 115925 | 146121
6 | 32:28.22 | 7:12.15 | 146122 | 178536
7 | 39:40.37 | 6:36.63 | 178537 | 208299
8 | 46:17.25 | 8:39.67 | 208300 | 247291
9 | 54:57.17 | 6:57.73 | 247292 | 278639
10 | 61:55.15 | 11:37.65 | 278640 | 330979

Track 1

Filename K:\[ Torrents ]\John Coltrane\John Coltrane - The Prestige Recordings 4 (1991) [flac]\01 - Dakar.wav

Pre-gap length 0:00:02.00

Peak level 60.5 %
Track quality 100.0 %
Test CRC EAE4B151
Copy CRC EAE4B151
Accurately ripped (confidence 2) [B673B6DF]
Copy OK

Track 2

Filename K:\[ Torrents ]\John Coltrane\John Coltrane - The Prestige Recordings 4 (1991) [flac]\02 - Mary's Blues.wav

Pre-gap length 0:00:01.10

Peak level 75.9 %
Track quality 100.0 %
Test CRC A3F56F9F
Copy CRC A3F56F9F
Track not present in AccurateRip database
Copy OK

Track 3

Filename K:\[ Torrents ]\John Coltrane\John Coltrane - The Prestige Recordings 4 (1991) [flac]\03 - Route 4.wav

Pre-gap length 0:00:01.46

Peak level 66.2 %
Track quality 100.0 %
Test CRC 5EF65289
Copy CRC 5EF65289
Track not present in AccurateRip database
Copy OK

Track 4

Filename K:\[ Torrents ]\John Coltrane\John Coltrane - The Prestige Recordings 4 (1991) [flac]\04 - Velvet Scene.wav

Pre-gap length 0:00:01.40

Peak level 55.8 %
Track quality 100.0 %
Test CRC D3E277CE
Copy CRC D3E277CE
Accurately ripped (confidence 2) [CA5375A3]
Copy OK

Track 5

Filename K:\[ Torrents ]\John Coltrane\John Coltrane - The Prestige Recordings 4 (1991) [flac]\05 - Witches' Pit.wav

Pre-gap length 0:00:01.86

Peak level 68.8 %
Track quality 100.0 %
Test CRC C1DF15A0
Copy CRC C1DF15A0
Track not present in AccurateRip database
Copy OK

Track 6

Filename K:\[ Torrents ]\John Coltrane\John Coltrane - The Prestige Recordings 4 (1991) [flac]\06 - Cat Walk.wav

Pre-gap length 0:00:01.69

Peak level 64.0 %
Track quality 100.0 %
Test CRC D2AC7B2D
Copy CRC D2AC7B2D
Accurately ripped (confidence 2) [399BB984]
Copy OK

Track 7

Filename K:\[ Torrents ]\John Coltrane\John Coltrane - The Prestige Recordings 4 (1991) [flac]\07 - Pot Pourri.wav

Pre-gap length 0:00:01.02

Peak level 68.4 %
Track quality 99.9 %
Test CRC A12ADA11
Copy CRC A12ADA11
Track not present in AccurateRip database
Copy OK

Track 8

Filename K:\[ Torrents ]\John Coltrane\John Coltrane - The Prestige Recordings 4 (1991) [flac]\08 - J.M.'s Dream Doll.wav

Pre-gap length 0:00:01.80

Peak level 58.8 %
Track quality 100.0 %
Test CRC 48FBA9AF
Copy CRC 48FBA9AF
Track not present in AccurateRip database
Copy OK

Track 9

Filename K:\[ Torrents ]\John Coltrane\John Coltrane - The Prestige Recordings 4 (1991) [flac]\09 - Don't Explain.wav

Pre-gap length 0:00:02.53

Peak level 60.8 %
Track quality 100.0 %
Test CRC E3314EEC
Copy CRC E3314EEC
Accurately ripped (confidence 2) [35DBBCF8]
Copy OK

Track 10

Filename K:\[ Torrents ]\John Coltrane\John Coltrane - The Prestige Recordings 4 (1991) [flac]\10 - Falling in Love With Love.wav

Pre-gap length 0:00:01.33

Peak level 77.7 %
Track quality 100.0 %
Test CRC E6EC2A77
Copy CRC E6EC2A77
Track not present in AccurateRip database
Copy OK

4 track(s) accurately ripped
6 track(s) not present in the AccurateRip database

Some tracks could not be verified as accurate

No errors occurred

End of status report
01. Blue Calypso (8:59)
02. The You Look Tonight (8:25)
03. From This Moment On (6:15)
04. One By One (9:41)
05. Cattin' (7:23)
06. Anatomy (8:52)
07. Vodka (9:07)
08. Sunday (6:58)
Exact Audio Copy V0.99 prebeta 4 from 23. January 2008

EAC extraction logfile from 28. June 2009, 21:19

John Coltrane / The Prestige Recordings 5

Used drive : Optiarc DVD RW AD-5170A Adapter: 0 ID: 0

Read mode : Secure
Utilize accurate stream : Yes
Defeat audio cache : Yes
Make use of C2 pointers : No

Read offset correction : 48
Overread into Lead-In and Lead-Out : No
Fill up missing offset samples with silence : Yes
Delete leading and trailing silent blocks : No
Null samples used in CRC calculations : Yes
Used interface : Native Win32 interface for Win NT & 2000
Gap handling : Appended to previous track

Used output format : User Defined Encoder
Selected bitrate : 320 kBit/s
Quality : High
Add ID3 tag : No
Command line compressor : C:\Program Files\Exact Audio Copy\FLAC\FLAC.EXE
Additional command line options : -V -8 -T "artist=%a" -T "title=%t" -T "album=%g" -T "date=%y" -T "tracknumber=%n" -T "genre=%m" %s

TOC of the extracted CD

Track | Start | Length | Start sector | End sector
---------------------------------------------------------
1 | 0:00.00 | 8:58.42 | 0 | 40391
2 | 8:58.42 | 8:25.13 | 40392 | 78279
3 | 17:23.55 | 6:15.17 | 78280 | 106421
4 | 23:38.72 | 9:41.18 | 106422 | 150014
5 | 33:20.15 | 7:22.62 | 150015 | 183226
6 | 40:43.02 | 8:52.30 | 183227 | 223156
7 | 49:35.32 | 9:07.10 | 223157 | 264191
8 | 58:42.42 | 6:58.33 | 264192 | 295574

Track 1

Filename K:\[ Torrents ]\John Coltrane\John Coltrane - The Prestige Recordings 5 (1991) [flac]\01 - Blue Calypso.wav

Pre-gap length 0:00:02.00

Peak level 76.7 %
Track quality 100.0 %
Test CRC 2021C82A
Copy CRC 2021C82A
Accurately ripped (confidence 3) [DAE9D011]
Copy OK

Track 2

Filename K:\[ Torrents ]\John Coltrane\John Coltrane - The Prestige Recordings 5 (1991) [flac]\02 - The You Look Tonight.wav

Pre-gap length 0:00:01.82

Peak level 76.9 %
Track quality 100.0 %
Test CRC 83247B60
Copy CRC 83247B60
Accurately ripped (confidence 2) [52BEBE71]
Copy OK

Track 3

Filename K:\[ Torrents ]\John Coltrane\John Coltrane - The Prestige Recordings 5 (1991) [flac]\03 - From This Moment On.wav

Pre-gap length 0:00:01.77

Peak level 58.4 %
Track quality 99.9 %
Test CRC ECE15030
Copy CRC ECE15030
Accurately ripped (confidence 2) [66C78712]
Copy OK

Track 4

Filename K:\[ Torrents ]\John Coltrane\John Coltrane - The Prestige Recordings 5 (1991) [flac]\04 - One By One.wav

Pre-gap length 0:00:00.93

Peak level 76.7 %
Track quality 100.0 %
Test CRC A23AFBC8
Copy CRC A23AFBC8
Accurately ripped (confidence 2) [15BC1C1E]
Copy OK

Track 5

Filename K:\[ Torrents ]\John Coltrane\John Coltrane - The Prestige Recordings 5 (1991) [flac]\05 - Cattin'.wav

Pre-gap length 0:00:01.64

Peak level 80.6 %
Track quality 100.0 %
Test CRC 98B46254
Copy CRC 98B46254
Accurately ripped (confidence 2) [FFFDF1E7]
Copy OK

Track 6

Filename K:\[ Torrents ]\John Coltrane\John Coltrane - The Prestige Recordings 5 (1991) [flac]\06 - Anatomy.wav

Pre-gap length 0:00:01.42

Peak level 77.5 %
Track quality 100.0 %
Test CRC B99D4488
Copy CRC B99D4488
Accurately ripped (confidence 2) [61482CC6]
Copy OK

Track 7

Filename K:\[ Torrents ]\John Coltrane\John Coltrane - The Prestige Recordings 5 (1991) [flac]\07 - Vodka.wav

Pre-gap length 0:00:02.36

Peak level 70.9 %
Track quality 100.0 %
Test CRC A4B61FEF
Copy CRC A4B61FEF
Accurately ripped (confidence 2) [BE7870E3]
Copy OK

Track 8

Filename K:\[ Torrents ]\John Coltrane\John Coltrane - The Prestige Recordings 5 (1991) [flac]\08 - Sunday.wav

Pre-gap length 0:00:02.40

Peak level 79.4 %
Track quality 100.0 %
Test CRC 18256CE6
Copy CRC 18256CE6
Accurately ripped (confidence 3) [432C30EF]
Copy OK

All tracks accurately ripped

No errors occurred

End of status report
01. Straight Street (6:19)
02. While My Lady Sleeps (4:42)
03. Chronic Blues (8:13)
04. Bakai (8:42)
05. Violets For Your Furs (6:17)
06. Time Was (7:29)
07. I Hear A Rhapsody (5:59)
08. Trane's Slow Blues (6:03)
09. Slowtrane (7:19)
10. Like Someone In Love (4:57)
11. I Love You (5:29)
Exact Audio Copy V0.99 prebeta 4 from 23. January 2008

EAC extraction logfile from 28. June 2009, 22:02

John Coltrane / The Prestige Recordings 6

Used drive : Optiarc DVD RW AD-5170A Adapter: 0 ID: 0

Read mode : Secure
Utilize accurate stream : Yes
Defeat audio cache : Yes
Make use of C2 pointers : No

Read offset correction : 48
Overread into Lead-In and Lead-Out : No
Fill up missing offset samples with silence : Yes
Delete leading and trailing silent blocks : No
Null samples used in CRC calculations : Yes
Used interface : Native Win32 interface for Win NT & 2000
Gap handling : Appended to previous track

Used output format : User Defined Encoder
Selected bitrate : 320 kBit/s
Quality : High
Add ID3 tag : No
Command line compressor : C:\Program Files\Exact Audio Copy\FLAC\FLAC.EXE
Additional command line options : -V -8 -T "artist=%a" -T "title=%t" -T "album=%g" -T "date=%y" -T "tracknumber=%n" -T "genre=%m" %s

TOC of the extracted CD

Track | Start | Length | Start sector | End sector
---------------------------------------------------------
1 | 0:00.00 | 6:19.25 | 0 | 28449
2 | 6:19.25 | 4:42.12 | 28450 | 49611
3 | 11:01.37 | 8:12.63 | 49612 | 86574
4 | 19:14.25 | 8:41.72 | 86575 | 125721
5 | 27:56.22 | 6:16.70 | 125722 | 153991
6 | 34:13.17 | 7:28.38 | 153992 | 187629
7 | 41:41.55 | 5:58.70 | 187630 | 214549
8 | 47:40.50 | 6:03.02 | 214550 | 241776
9 | 53:43.52 | 7:19.00 | 241777 | 274701
10 | 61:02.52 | 4:57.25 | 274702 | 297001
11 | 66:00.02 | 5:28.73 | 297002 | 321674

Track 1

Filename K:\[ Torrents ]\John Coltrane\John Coltrane - The Prestige Recordings 6 (1991) [flac]\01 - Straight Street.wav

Pre-gap length 0:00:02.00

Peak level 77.7 %
Track quality 100.0 %
Test CRC 6F11537D
Copy CRC 6F11537D
Track not present in AccurateRip database
Copy OK

Track 2

Filename K:\[ Torrents ]\John Coltrane\John Coltrane - The Prestige Recordings 6 (1991) [flac]\02 - While My Lady Sleeps.wav

Pre-gap length 0:00:01.64

Peak level 54.0 %
Track quality 100.0 %
Test CRC D223F0A5
Copy CRC D223F0A5
Track not present in AccurateRip database
Copy OK

Track 3

Filename K:\[ Torrents ]\John Coltrane\John Coltrane - The Prestige Recordings 6 (1991) [flac]\03 - Chronic Blues.wav

Pre-gap length 0:00:01.53

Peak level 81.0 %
Track quality 100.0 %
Test CRC 9B582E4E
Copy CRC 9B582E4E
Track not present in AccurateRip database
Copy OK

Track 4

Filename K:\[ Torrents ]\John Coltrane\John Coltrane - The Prestige Recordings 6 (1991) [flac]\04 - Bakai.wav

Pre-gap length 0:00:01.46

Peak level 81.9 %
Track quality 100.0 %
Test CRC 43D3358A
Copy CRC 43D3358A
Track not present in AccurateRip database
Copy OK

Track 5

Filename K:\[ Torrents ]\John Coltrane\John Coltrane - The Prestige Recordings 6 (1991) [flac]\05 - Violets For Your Furs.wav

Pre-gap length 0:00:01.02

Peak level 58.9 %
Track quality 100.0 %
Test CRC 0B70CDCC
Copy CRC 0B70CDCC
Track not present in AccurateRip database
Copy OK

Track 6

Filename K:\[ Torrents ]\John Coltrane\John Coltrane - The Prestige Recordings 6 (1991) [flac]\06 - Time Was.wav

Pre-gap length 0:00:01.26

Peak level 85.8 %
Track quality 100.0 %
Test CRC CF1B8CE4
Copy CRC CF1B8CE4
Track not present in AccurateRip database
Copy OK

Track 7

Filename K:\[ Torrents ]\John Coltrane\John Coltrane - The Prestige Recordings 6 (1991) [flac]\07 - I Hear A Rhapsody.wav

Pre-gap length 0:00:01.66

Peak level 81.5 %
Track quality 99.9 %
Test CRC 0DD6173F
Copy CRC 0DD6173F
Accurately ripped (confidence 2) [7200A1FC]
Copy OK

Track 8

Filename K:\[ Torrents ]\John Coltrane\John Coltrane - The Prestige Recordings 6 (1991) [flac]\08 - Trane's Slow Blues.wav

Pre-gap length 0:00:01.70

Peak level 77.5 %
Track quality 99.6 %
Test CRC 96726CC4
Copy CRC 96726CC4
Accurately ripped (confidence 2) [228ACA22]
Copy OK

Track 9

Filename K:\[ Torrents ]\John Coltrane\John Coltrane - The Prestige Recordings 6 (1991) [flac]\09 - Slowtrane.wav

Pre-gap length 0:00:02.22

Peak level 63.8 %
Track quality 99.9 %
Test CRC 712C84E2
Copy CRC 712C84E2
Track not present in AccurateRip database
Copy OK

Track 10

Filename K:\[ Torrents ]\John Coltrane\John Coltrane - The Prestige Recordings 6 (1991) [flac]\10 - Like Someone In Love.wav

Pre-gap length 0:00:01.62

Peak level 40.5 %
Track quality 100.0 %
Test CRC 8F6D1C1E
Copy CRC 8F6D1C1E
Track not present in AccurateRip database
Copy OK

Track 11

Filename K:\[ Torrents ]\John Coltrane\John Coltrane - The Prestige Recordings 6 (1991) [flac]\11 - I Love You.wav

Pre-gap length 0:00:01.36

Peak level 62.6 %
Track quality 100.0 %
Test CRC 16AE0E58
Copy CRC 16AE0E58
Track not present in AccurateRip database
Copy OK

2 track(s) accurately ripped
9 track(s) not present in the AccurateRip database

Some tracks could not be verified as accurate

No errors occurred

End of status report
01. Dealin' [Take 1] (10:01)
02. Dealin' [Take 2] (10:19)
03. Wheelin' [Take 1] (10:26)
04. Wheelin' [Take 2] (11:24)
05. Robbins' Nest (15:34)
06. Things Ain't What They Used to Be (8:25)
Exact Audio Copy V0.99 prebeta 4 from 23. January 2008

EAC extraction logfile from 28. June 2009, 22:49

John Coltrane / The Prestige Recordings 7

Used drive : Optiarc DVD RW AD-5170A Adapter: 0 ID: 0

Read mode : Secure
Utilize accurate stream : Yes
Defeat audio cache : Yes
Make use of C2 pointers : No

Read offset correction : 48
Overread into Lead-In and Lead-Out : No
Fill up missing offset samples with silence : Yes
Delete leading and trailing silent blocks : No
Null samples used in CRC calculations : Yes
Used interface : Native Win32 interface for Win NT & 2000
Gap handling : Appended to previous track

Used output format : User Defined Encoder
Selected bitrate : 320 kBit/s
Quality : High
Add ID3 tag : No
Command line compressor : C:\Program Files\Exact Audio Copy\FLAC\FLAC.EXE
Additional command line options : -V -8 -T "artist=%a" -T "title=%t" -T "album=%g" -T "date=%y" -T "tracknumber=%n" -T "genre=%m" %s

TOC of the extracted CD

Track | Start | Length | Start sector | End sector
---------------------------------------------------------
1 | 0:00.00 | 10:00.72 | 0 | 45071
2 | 10:00.72 | 10:18.68 | 45072 | 91489
3 | 20:19.65 | 10:26.20 | 91490 | 138459
4 | 30:46.10 | 11:23.70 | 138460 | 189754
5 | 42:10.05 | 15:33.47 | 189755 | 259776
6 | 57:43.52 | 8:25.05 | 259777 | 297656

Track 1

Filename K:\[ Torrents ]\John Coltrane\John Coltrane - The Prestige Recordings 7 (1991) [flac]\01 - Dealin' [Take 1].wav

Pre-gap length 0:00:02.00

Peak level 83.1 %
Track quality 100.0 %
Test CRC C9C000EB
Copy CRC C9C000EB
Accurately ripped (confidence 2) [8CDF7350]
Copy OK

Track 2

Filename K:\[ Torrents ]\John Coltrane\John Coltrane - The Prestige Recordings 7 (1991) [flac]\02 - Dealin' [Take 2].wav

Pre-gap length 0:00:00.62

Peak level 81.8 %
Track quality 100.0 %
Test CRC E469120A
Copy CRC E469120A
Accurately ripped (confidence 2) [C265FFBD]
Copy OK

Track 3

Filename K:\[ Torrents ]\John Coltrane\John Coltrane - The Prestige Recordings 7 (1991) [flac]\03 - Wheelin' [Take 1].wav

Pre-gap length 0:00:02.13

Peak level 82.2 %
Track quality 99.9 %
Test CRC CE1572C5
Copy CRC CE1572C5
Accurately ripped (confidence 2) [C2B04E4C]
Copy OK

Track 4

Filename K:\[ Torrents ]\John Coltrane\John Coltrane - The Prestige Recordings 7 (1991) [flac]\04 - Wheelin' [Take 2].wav

Pre-gap length 0:00:01.20

Peak level 89.8 %
Track quality 100.0 %
Test CRC F8826029
Copy CRC F8826029
Accurately ripped (confidence 2) [BE1C784E]
Copy OK

Track 5

Filename K:\[ Torrents ]\John Coltrane\John Coltrane - The Prestige Recordings 7 (1991) [flac]\05 - Robbins' Nest.wav

Pre-gap length 0:00:02.44

Peak level 56.5 %
Track quality 100.0 %
Test CRC 82516FB9
Copy CRC 82516FB9
Accurately ripped (confidence 2) [1C3A23A7]
Copy OK

Track 6

Filename K:\[ Torrents ]\John Coltrane\John Coltrane - The Prestige Recordings 7 (1991) [flac]\06 - Things Ain't What They Used to Be.wav

Pre-gap length 0:00:01.26

Peak level 57.1 %
Track quality 99.9 %
Test CRC DDABDEBF
Copy CRC DDABDEBF
Track not present in AccurateRip database
Copy OK

5 track(s) accurately ripped
1 track(s) not present in the AccurateRip database

Some tracks could not be verified as accurate

No errors occurred

End of status report
01. You Leave Me Breathless (7:24)
02. Bass Blues (7:45)
03. Soft Lights and Sweet Music (4:41)
04. Traneing In (12:33)
05. Slow Dance (5:26)
06. Our Delight (6:20)
07. They Can't Take That Away From Me (10:26)
08. Woody'n You (6:50)
09. I Got It Bad (And That Ain't Good) (6:14)
Exact Audio Copy V0.99 prebeta 4 from 23. January 2008

EAC extraction logfile from 28. June 2009, 23:40

John Coltrane / The Prestige Recordings 8

Used drive : Optiarc DVD RW AD-5170A Adapter: 0 ID: 0

Read mode : Secure
Utilize accurate stream : Yes
Defeat audio cache : Yes
Make use of C2 pointers : No

Read offset correction : 48
Overread into Lead-In and Lead-Out : No
Fill up missing offset samples with silence : Yes
Delete leading and trailing silent blocks : No
Null samples used in CRC calculations : Yes
Used interface : Native Win32 interface for Win NT & 2000
Gap handling : Appended to previous track

Used output format : User Defined Encoder
Selected bitrate : 320 kBit/s
Quality : High
Add ID3 tag : No
Command line compressor : C:\Program Files\Exact Audio Copy\FLAC\FLAC.EXE
Additional command line options : -V -8 -T "artist=%a" -T "title=%t" -T "album=%g" -T "date=%y" -T "tracknumber=%n" -T "genre=%m" %s

TOC of the extracted CD

Track | Start | Length | Start sector | End sector
---------------------------------------------------------
1 | 0:00.00 | 7:23.42 | 0 | 33266
2 | 7:23.42 | 7:45.35 | 33267 | 68176
3 | 15:09.02 | 4:41.30 | 68177 | 89281
4 | 19:50.32 | 12:33.30 | 89282 | 145786
5 | 32:23.62 | 5:26.28 | 145787 | 170264
6 | 37:50.15 | 6:19.70 | 170265 | 198759
7 | 44:10.10 | 10:26.37 | 198760 | 245746
8 | 54:36.47 | 6:50.20 | 245747 | 276516
9 | 61:26.67 | 6:14.23 | 276517 | 304589

Track 1

Filename K:\[ Torrents ]\John Coltrane\John Coltrane - The Prestige Recordings 8 (1991) [flac]\01 - You Leave Me Breathless.wav

Pre-gap length 0:00:02.00

Peak level 56.7 %
Track quality 100.0 %
Test CRC D7990ED3
Copy CRC D7990ED3
Accurately ripped (confidence 2) [39B7634E]
Copy OK

Track 2

Filename K:\[ Torrents ]\John Coltrane\John Coltrane - The Prestige Recordings 8 (1991) [flac]\02 - Bass Blues.wav

Pre-gap length 0:00:01.66

Peak level 81.1 %
Track quality 100.0 %
Test CRC 69CC0715
Copy CRC 69CC0715
Accurately ripped (confidence 2) [324B0F04]
Copy OK

Track 3

Filename K:\[ Torrents ]\John Coltrane\John Coltrane - The Prestige Recordings 8 (1991) [flac]\03 - Soft Lights and Sweet Music.wav

Pre-gap length 0:00:01.33

Peak level 71.5 %
Track quality 100.0 %
Test CRC 8275B842
Copy CRC 8275B842
Accurately ripped (confidence 2) [7E281159]
Copy OK

Track 4

Filename K:\[ Torrents ]\John Coltrane\John Coltrane - The Prestige Recordings 8 (1991) [flac]\04 - Traneing In.wav

Pre-gap length 0:00:01.96

Peak level 69.9 %
Track quality 100.0 %
Test CRC 0EEC5DE7
Copy CRC 0EEC5DE7
Accurately ripped (confidence 2) [0E159427]
Copy OK

Track 5

Filename K:\[ Torrents ]\John Coltrane\John Coltrane - The Prestige Recordings 8 (1991) [flac]\05 - Slow Dance.wav

Pre-gap length 0:00:01.76

Peak level 52.8 %
Track quality 100.0 %
Test CRC 7C0424BA
Copy CRC 7C0424BA
Track not present in AccurateRip database
Copy OK

Track 6

Filename K:\[ Torrents ]\John Coltrane\John Coltrane - The Prestige Recordings 8 (1991) [flac]\06 - Our Delight.wav

Pre-gap length 0:00:01.57

Peak level 66.0 %
Track quality 99.7 %
Test CRC 51AAEC1B
Copy CRC 51AAEC1B
Accurately ripped (confidence 2) [A717AC1A]
Copy OK

Track 7

Filename K:\[ Torrents ]\John Coltrane\John Coltrane - The Prestige Recordings 8 (1991) [flac]\07 - They Can't Take That Away From Me.wav

Pre-gap length 0:00:01.93

Peak level 69.5 %
Track quality 100.0 %
Test CRC 5A10D8A4
Copy CRC 5A10D8A4
Accurately ripped (confidence 2) [BF225B0A]
Copy OK

Track 8

Filename K:\[ Torrents ]\John Coltrane\John Coltrane - The Prestige Recordings 8 (1991) [flac]\08 - Woody'n You.wav

Pre-gap length 0:00:02.09

Peak level 83.6 %
Track quality 100.0 %
Test CRC 65676CD7
Copy CRC 65676CD7
Accurately ripped (confidence 2) [436AA1BF]
Copy OK

Track 9

Filename K:\[ Torrents ]\John Coltrane\John Coltrane - The Prestige Recordings 8 (1991) [flac]\09 - I Got It Bad (And That Ain't Good).wav

Pre-gap length 0:00:01.89

Peak level 85.7 %
Track quality 100.0 %
Test CRC 61D9380C
Copy CRC 61D9380C
Track not present in AccurateRip database
Copy OK

7 track(s) accurately ripped
2 track(s) not present in the AccurateRip database

Some tracks could not be verified as accurate

No errors occurred

End of status report
01. Undecided (6:52)
02. Soul Junction (15:31)
03. What Is There To Say ? (5:58)
04. Birk's Works (7:36)
05. Hallelujah (6:32)
06. All Morning Long (20:18)
Exact Audio Copy V0.99 prebeta 4 from 23. January 2008

EAC extraction logfile from 29. June 2009, 0:21

John Coltrane / The Prestige Recordings 9

Used drive : Optiarc DVD RW AD-5170A Adapter: 0 ID: 0

Read mode : Secure
Utilize accurate stream : Yes
Defeat audio cache : Yes
Make use of C2 pointers : No

Read offset correction : 48
Overread into Lead-In and Lead-Out : No
Fill up missing offset samples with silence : Yes
Delete leading and trailing silent blocks : No
Null samples used in CRC calculations : Yes
Used interface : Native Win32 interface for Win NT & 2000
Gap handling : Appended to previous track

Used output format : User Defined Encoder
Selected bitrate : 320 kBit/s
Quality : High
Add ID3 tag : No
Command line compressor : C:\Program Files\Exact Audio Copy\FLAC\FLAC.EXE
Additional command line options : -V -8 -T "artist=%a" -T "title=%t" -T "album=%g" -T "date=%y" -T "tracknumber=%n" -T "genre=%m" %s

TOC of the extracted CD

Track | Start | Length | Start sector | End sector
---------------------------------------------------------
1 | 0:00.00 | 6:52.02 | 0 | 30901
2 | 6:52.02 | 15:30.45 | 30902 | 100696
3 | 22:22.47 | 5:57.55 | 100697 | 127526
4 | 28:20.27 | 7:35.58 | 127527 | 161709
5 | 35:56.10 | 6:31.47 | 161710 | 191081
6 | 42:27.57 | 20:18.23 | 191082 | 282454

Track 1

Filename K:\[ Torrents ]\John Coltrane\John Coltrane - The Prestige Recordings 9 (1991) [flac]\01 - Undecided.wav

Pre-gap length 0:00:02.00

Peak level 75.0 %
Track quality 100.0 %
Test CRC 97529E2E
Copy CRC 97529E2E
Accurately ripped (confidence 2) [7483B0BF]
Copy OK

Track 2

Filename K:\[ Torrents ]\John Coltrane\John Coltrane - The Prestige Recordings 9 (1991) [flac]\02 - Soul Junction.wav

Pre-gap length 0:00:01.09

Peak level 83.6 %
Track quality 100.0 %
Test CRC D5FF60C5
Copy CRC D5FF60C5
Accurately ripped (confidence 3) [01879B22]
Copy OK

Track 3

Filename K:\[ Torrents ]\John Coltrane\John Coltrane - The Prestige Recordings 9 (1991) [flac]\03 - What Is There To Say .wav

Pre-gap length 0:00:02.16

Peak level 86.3 %
Track quality 100.0 %
Test CRC 31269762
Copy CRC 31269762
Accurately ripped (confidence 2) [33614DAE]
Copy OK

Track 4

Filename K:\[ Torrents ]\John Coltrane\John Coltrane - The Prestige Recordings 9 (1991) [flac]\04 - Birk's Works.wav

Pre-gap length 0:00:01.33

Peak level 78.0 %
Track quality 100.0 %
Test CRC 0147E615
Copy CRC 0147E615
Accurately ripped (confidence 2) [6069A1D9]
Copy OK

Track 5

Filename K:\[ Torrents ]\John Coltrane\John Coltrane - The Prestige Recordings 9 (1991) [flac]\05 - Hallelujah.wav

Pre-gap length 0:00:01.64

Peak level 77.4 %
Track quality 100.0 %
Test CRC 9AECAEE5
Copy CRC 9AECAEE5
Accurately ripped (confidence 2) [CD1A602E]
Copy OK

Track 6

Filename K:\[ Torrents ]\John Coltrane\John Coltrane - The Prestige Recordings 9 (1991) [flac]\06 - All Morning Long.wav

Pre-gap length 0:00:02.06

Peak level 83.7 %
Track quality 100.0 %
Test CRC 4475DB64
Copy CRC 4475DB64
Track not present in AccurateRip database
Copy OK

5 track(s) accurately ripped
1 track(s) not present in the AccurateRip database

Some tracks could not be verified as accurate

No errors occurred

End of status report
01. Billie's Bounce (9:24)
02. Solitude (8:32)
03. Two Bass Hit (8:50)
04. Soft Winds (13:47)
05. Lazy Mae (16:09)
06. Under Paris Skies (7:47)
07. Two Sons (5:21)
Exact Audio Copy V0.99 prebeta 4 from 23. January 2008

EAC extraction logfile from 29. June 2009, 0:49

John Coltrane / The Prestige Recordings 10

Used drive : Optiarc DVD RW AD-5170A Adapter: 0 ID: 0

Read mode : Secure
Utilize accurate stream : Yes
Defeat audio cache : Yes
Make use of C2 pointers : No

Read offset correction : 48
Overread into Lead-In and Lead-Out : No
Fill up missing offset samples with silence : Yes
Delete leading and trailing silent blocks : No
Null samples used in CRC calculations : Yes
Used interface : Native Win32 interface for Win NT & 2000
Gap handling : Appended to previous track

Used output format : User Defined Encoder
Selected bitrate : 320 kBit/s
Quality : High
Add ID3 tag : No
Command line compressor : C:\Program Files\Exact Audio Copy\FLAC\FLAC.EXE
Additional command line options : -V -8 -T "artist=%a" -T "title=%t" -T "album=%g" -T "date=%y" -T "tracknumber=%n" -T "genre=%m" %s

TOC of the extracted CD

Track | Start | Length | Start sector | End sector
---------------------------------------------------------
1 | 0:00.00 | 9:23.72 | 0 | 42296
2 | 9:23.72 | 8:31.58 | 42297 | 80679
3 | 17:55.55 | 8:50.25 | 80680 | 120454
4 | 26:46.05 | 13:46.70 | 120455 | 182474
5 | 40:33.00 | 16:08.57 | 182475 | 255131
6 | 56:41.57 | 7:47.00 | 255132 | 290156
7 | 64:28.57 | 5:21.13 | 290157 | 314244

Track 1

Filename K:\[ Torrents ]\John Coltrane\John Coltrane - The Prestige Recordings 10 (1991) [flac]\01 - Billie's Bounce.wav

Pre-gap length 0:00:02.00

Peak level 71.2 %
Track quality 100.0 %
Test CRC 21E9D319
Copy CRC 21E9D319
Accurately ripped (confidence 2) [62047C3E]
Copy OK

Track 2

Filename K:\[ Torrents ]\John Coltrane\John Coltrane - The Prestige Recordings 10 (1991) [flac]\02 - Solitude.wav

Pre-gap length 0:00:01.29

Peak level 90.9 %
Track quality 100.0 %
Test CRC 2CAB5CE7
Copy CRC 2CAB5CE7
Accurately ripped (confidence 2) [67F833ED]
Copy OK

Track 3

Filename K:\[ Torrents ]\John Coltrane\John Coltrane - The Prestige Recordings 10 (1991) [flac]\03 - Two Bass Hit.wav

Pre-gap length 0:00:01.50

Peak level 95.1 %
Track quality 99.9 %
Test CRC C99A36DB
Copy CRC C99A36DB
Accurately ripped (confidence 2) [20EC9210]
Copy OK

Track 4

Filename K:\[ Torrents ]\John Coltrane\John Coltrane - The Prestige Recordings 10 (1991) [flac]\04 - Soft Winds.wav

Pre-gap length 0:00:01.73

Peak level 91.8 %
Track quality 100.0 %
Test CRC 8C2C0BEC
Copy CRC 8C2C0BEC
Accurately ripped (confidence 2) [F2110E5A]
Copy OK

Track 5

Filename K:\[ Torrents ]\John Coltrane\John Coltrane - The Prestige Recordings 10 (1991) [flac]\05 - Lazy Mae.wav

Pre-gap length 0:00:01.57

Peak level 85.2 %
Track quality 100.0 %
Test CRC A3375CD6
Copy CRC A3375CD6
Accurately ripped (confidence 2) [56856AB9]
Copy OK

Track 6

Filename K:\[ Torrents ]\John Coltrane\John Coltrane - The Prestige Recordings 10 (1991) [flac]\06 - Under Paris Skies.wav

Pre-gap length 0:00:02.40

Peak level 100.0 %
Track quality 100.0 %
Test CRC 44F7324D
Copy CRC 44F7324D
Accurately ripped (confidence 2) [F8E5D994]
Copy OK

Track 7

Filename K:\[ Torrents ]\John Coltrane\John Coltrane - The Prestige Recordings 10 (1991) [flac]\07 - Two Sons.wav

Pre-gap length 0:00:01.82

Peak level 75.2 %
Track quality 100.0 %
Test CRC 26862856
Copy CRC 26862856
Accurately ripped (confidence 2) [3C5C1547]
Copy OK

All tracks accurately ripped

No errors occurred

End of status report
01. Clifford's Kappa (9:16)
02. Filide (7:15)
03. Paul's Pal (7:15)
04. Ammon Joy (13:16)
05. Groove Blues (9:34)
06. The Real McCoy (8:34)
07. It Might As Well Be Spring (11:31)
Exact Audio Copy V0.99 prebeta 4 from 23. January 2008

EAC extraction logfile from 29. June 2009, 9:00

John Coltrane / The Prestige Recordings 11

Used drive : Optiarc DVD RW AD-5170A Adapter: 0 ID: 0

Read mode : Secure
Utilize accurate stream : Yes
Defeat audio cache : Yes
Make use of C2 pointers : No

Read offset correction : 48
Overread into Lead-In and Lead-Out : No
Fill up missing offset samples with silence : Yes
Delete leading and trailing silent blocks : No
Null samples used in CRC calculations : Yes
Used interface : Native Win32 interface for Win NT & 2000
Gap handling : Appended to previous track

Used output format : User Defined Encoder
Selected bitrate : 320 kBit/s
Quality : High
Add ID3 tag : No
Command line compressor : C:\Program Files\Exact Audio Copy\FLAC\FLAC.EXE
Additional command line options : -V -8 -T "artist=%a" -T "title=%t" -T "album=%g" -T "date=%y" -T "tracknumber=%n" -T "genre=%m" %s

TOC of the extracted CD

Track | Start | Length | Start sector | End sector
---------------------------------------------------------
1 | 0:00.00 | 9:15.72 | 0 | 41696
2 | 9:15.72 | 7:14.63 | 41697 | 74309
3 | 16:30.60 | 7:14.50 | 74310 | 106909
4 | 23:45.35 | 13:16.30 | 106910 | 166639
5 | 37:01.65 | 9:34.05 | 166640 | 209694
6 | 46:35.70 | 8:33.45 | 209695 | 248214
7 | 55:09.40 | 11:31.32 | 248215 | 300071

Track 1

Filename K:\[ Torrents ]\John Coltrane\John Coltrane - The Prestige Recordings 11 (1991) [flac]\01 - Clifford's Kappa.wav

Pre-gap length 0:00:02.00

Peak level 84.8 %
Track quality 100.0 %
Test CRC D5E2CF1D
Copy CRC D5E2CF1D
Accurately ripped (confidence 2) [7A95E2CD]
Copy OK

Track 2

Filename K:\[ Torrents ]\John Coltrane\John Coltrane - The Prestige Recordings 11 (1991) [flac]\02 - Filide.wav

Pre-gap length 0:00:01.86

Peak level 75.7 %
Track quality 100.0 %
Test CRC 89BAED1A
Copy CRC 89BAED1A
Accurately ripped (confidence 2) [1457262E]
Copy OK

Track 3

Filename K:\[ Torrents ]\John Coltrane\John Coltrane - The Prestige Recordings 11 (1991) [flac]\03 - Paul's Pal.wav

Pre-gap length 0:00:01.60

Peak level 73.1 %
Track quality 99.9 %
Test CRC A50EF536
Copy CRC A50EF536
Accurately ripped (confidence 2) [B82BE086]
Copy OK

Track 4

Filename K:\[ Torrents ]\John Coltrane\John Coltrane - The Prestige Recordings 11 (1991) [flac]\04 - Ammon Joy.wav

Pre-gap length 0:00:02.30

Peak level 73.9 %
Track quality 100.0 %
Test CRC FE2C0014
Copy CRC FE2C0014
Accurately ripped (confidence 2) [EFD49E44]
Copy OK

Track 5

Filename K:\[ Torrents ]\John Coltrane\John Coltrane - The Prestige Recordings 11 (1991) [flac]\05 - Groove Blues.wav

Pre-gap length 0:00:01.26

Peak level 80.7 %
Track quality 100.0 %
Test CRC DED5A410
Copy CRC DED5A410
Accurately ripped (confidence 2) [5B29582B]
Copy OK

Track 6

Filename K:\[ Torrents ]\John Coltrane\John Coltrane - The Prestige Recordings 11 (1991) [flac]\06 - The Real McCoy.wav

Pre-gap length 0:00:02.53

Peak level 78.0 %
Track quality 100.0 %
Test CRC 603C09BE
Copy CRC 603C09BE
Track not present in AccurateRip database
Copy OK

Track 7

Filename K:\[ Torrents ]\John Coltrane\John Coltrane - The Prestige Recordings 11 (1991) [flac]\07 - It Might As Well Be Spring.wav

Pre-gap length 0:00:01.40

Peak level 77.9 %
Track quality 100.0 %
Test CRC EDC11D65
Copy CRC EDC11D65
Track not present in AccurateRip database
Copy OK

5 track(s) accurately ripped
2 track(s) not present in the AccurateRip database

Some tracks could not be verified as accurate

No errors occurred

End of status report
01. Lush Life (13:55)
02. The Believer (13:49)
03. Nakatini Serenade (11:04)
04. Come Rain Or Come Shine (8:45)
05. Lover (7:59)
06. Russian Lullaby (5:34)
07. Theme For Ernie (4:55)
Exact Audio Copy V0.99 prebeta 4 from 23. January 2008

EAC extraction logfile from 29. June 2009, 9:27

John Coltrane / The Prestige Recordings 12

Used drive : Optiarc DVD RW AD-5170A Adapter: 0 ID: 0

Read mode : Secure
Utilize accurate stream : Yes
Defeat audio cache : Yes
Make use of C2 pointers : No

Read offset correction : 48
Overread into Lead-In and Lead-Out : No
Fill up missing offset samples with silence : Yes
Delete leading and trailing silent blocks : No
Null samples used in CRC calculations : Yes
Used interface : Native Win32 interface for Win NT & 2000
Gap handling : Appended to previous track

Used output format : User Defined Encoder
Selected bitrate : 320 kBit/s
Quality : High
Add ID3 tag : No
Command line compressor : C:\Program Files\Exact Audio Copy\FLAC\FLAC.EXE
Additional command line options : -V -8 -T "artist=%a" -T "title=%t" -T "album=%g" -T "date=%y" -T "tracknumber=%n" -T "genre=%m" %s

TOC of the extracted CD

Track | Start | Length | Start sector | End sector
---------------------------------------------------------
1 | 0:00.00 | 13:54.57 | 0 | 62606
2 | 13:54.57 | 13:48.68 | 62607 | 124774
3 | 27:43.50 | 11:04.10 | 124775 | 174584
4 | 38:47.60 | 8:45.07 | 174585 | 213966
5 | 47:32.67 | 7:58.68 | 213967 | 249884
6 | 55:31.60 | 5:34.20 | 249885 | 274954
7 | 61:06.05 | 4:54.62 | 274955 | 297066

Track 1

Filename K:\[ Torrents ]\John Coltrane\John Coltrane - The Prestige Recordings 12 (1991) [flac]\01 - Lush Life.wav

Pre-gap length 0:00:02.00

Peak level 63.5 %
Track quality 100.0 %
Test CRC 929740CE
Copy CRC 929740CE
Accurately ripped (confidence 2) [11B2A59D]
Copy OK

Track 2

Filename K:\[ Torrents ]\John Coltrane\John Coltrane - The Prestige Recordings 12 (1991) [flac]\02 - The Believer.wav

Pre-gap length 0:00:01.62

Peak level 77.6 %
Track quality 100.0 %
Test CRC B757DD38
Copy CRC B757DD38
Accurately ripped (confidence 2) [3D3554F2]
Copy OK

Track 3

Filename K:\[ Torrents ]\John Coltrane\John Coltrane - The Prestige Recordings 12 (1991) [flac]\03 - Nakatini Serenade.wav

Pre-gap length 0:00:01.84

Peak level 83.2 %
Track quality 99.9 %
Test CRC AEE73079
Copy CRC AEE73079
Track not present in AccurateRip database
Copy OK

Track 4

Filename K:\[ Torrents ]\John Coltrane\John Coltrane - The Prestige Recordings 12 (1991) [flac]\04 - Come Rain Or Come Shine.wav

Pre-gap length 0:00:01.86

Peak level 79.3 %
Track quality 100.0 %
Test CRC 1D612554
Copy CRC 1D612554
Accurately ripped (confidence 2) [2CDDDE1F]
Copy OK

Track 5

Filename K:\[ Torrents ]\John Coltrane\John Coltrane - The Prestige Recordings 12 (1991) [flac]\05 - Lover.wav

Pre-gap length 0:00:01.00

Peak level 95.4 %
Track quality 100.0 %
Test CRC BC665C24
Copy CRC BC665C24
Track not present in AccurateRip database
Copy OK

Track 6

Filename K:\[ Torrents ]\John Coltrane\John Coltrane - The Prestige Recordings 12 (1991) [flac]\06 - Russian Lullaby.wav

Pre-gap length 0:00:02.40

Peak level 86.3 %
Track quality 100.0 %
Test CRC 65C97B4D
Copy CRC 65C97B4D
Accurately ripped (confidence 2) [5F9B822E]
Copy OK

Track 7

Filename K:\[ Torrents ]\John Coltrane\John Coltrane - The Prestige Recordings 12 (1991) [flac]\07 - Theme For Ernie.wav

Pre-gap length 0:00:01.50

Peak level 62.9 %
Track quality 100.0 %
Test CRC C852ED59
Copy CRC C852ED59
Track not present in AccurateRip database
Copy OK

4 track(s) accurately ripped
3 track(s) not present in the AccurateRip database

Some tracks could not be verified as accurate

No errors occurred

End of status report
01. You Say You Care (6:16)
02. Good Bait (12:09)
03. I Want To Talk About You (10:55)
04. Lyresto (5:45)
05. Why Was I Born? (3:14)
06. Freight Trane (7:21)
07. I never Knew (7:07)
08. Big Paul (14:05)
Exact Audio Copy V0.99 prebeta 4 from 23. January 2008

EAC extraction logfile from 29. June 2009, 9:57

John Coltrane / The Prestige Recordings 13

Used drive : Optiarc DVD RW AD-5170A Adapter: 0 ID: 0

Read mode : Secure
Utilize accurate stream : Yes
Defeat audio cache : Yes
Make use of C2 pointers : No

Read offset correction : 48
Overread into Lead-In and Lead-Out : No
Fill up missing offset samples with silence : Yes
Delete leading and trailing silent blocks : No
Null samples used in CRC calculations : Yes
Used interface : Native Win32 interface for Win NT & 2000
Gap handling : Appended to previous track

Used output format : User Defined Encoder
Selected bitrate : 320 kBit/s
Quality : High
Add ID3 tag : No
Command line compressor : C:\Program Files\Exact Audio Copy\FLAC\FLAC.EXE
Additional command line options : -V -8 -T "artist=%a" -T "title=%t" -T "album=%g" -T "date=%y" -T "tracknumber=%n" -T "genre=%m" %s

TOC of the extracted CD

Track | Start | Length | Start sector | End sector
---------------------------------------------------------
1 | 0:00.00 | 6:16.25 | 0 | 28224
2 | 6:16.25 | 12:08.60 | 28225 | 82884
3 | 18:25.10 | 10:54.52 | 82885 | 131986
4 | 29:19.62 | 5:44.55 | 131987 | 157841
5 | 35:04.42 | 3:13.43 | 157842 | 172359
6 | 38:18.10 | 7:20.62 | 172360 | 205421
7 | 45:38.72 | 7:06.38 | 205422 | 237409
8 | 52:45.35 | 14:04.60 | 237410 | 300769

Track 1

Filename K:\[ Torrents ]\John Coltrane\John Coltrane - The Prestige Recordings 13 (1991) [flac]\01 - You Say You Care.wav

Pre-gap length 0:00:02.00

Peak level 79.8 %
Track quality 100.0 %
Test CRC A8B0F6C3
Copy CRC A8B0F6C3
Accurately ripped (confidence 2) [B9D31E71]
Copy OK

Track 2

Filename K:\[ Torrents ]\John Coltrane\John Coltrane - The Prestige Recordings 13 (1991) [flac]\02 - Good Bait.wav

Pre-gap length 0:00:01.80

Peak level 97.9 %
Track quality 100.0 %
Test CRC 110A0020
Copy CRC 110A0020
Accurately ripped (confidence 2) [D114CD9A]
Copy OK

Track 3

Filename K:\[ Torrents ]\John Coltrane\John Coltrane - The Prestige Recordings 13 (1991) [flac]\03 - I Want To Talk About You.wav

Pre-gap length 0:00:01.84

Peak level 92.2 %
Track quality 100.0 %
Test CRC D13A6D17
Copy CRC D13A6D17
Accurately ripped (confidence 2) [1EBA3D35]
Copy OK

Track 4

Filename K:\[ Torrents ]\John Coltrane\John Coltrane - The Prestige Recordings 13 (1991) [flac]\04 - Lyresto.wav

Pre-gap length 0:00:01.29

Peak level 73.6 %
Track quality 100.0 %
Test CRC 01F2EC60
Copy CRC 01F2EC60
Accurately ripped (confidence 3) [3838CDD6]
Copy OK

Track 5

Filename K:\[ Torrents ]\John Coltrane\John Coltrane - The Prestige Recordings 13 (1991) [flac]\05 - Why Was I Born .wav

Pre-gap length 0:00:02.69

Peak level 68.7 %
Track quality 99.9 %
Test CRC CBC8ED34
Copy CRC CBC8ED34
Accurately ripped (confidence 2) [0EFFA3B7]
Copy OK

Track 6

Filename K:\[ Torrents ]\John Coltrane\John Coltrane - The Prestige Recordings 13 (1991) [flac]\06 - Freight Trane.wav

Pre-gap length 0:00:01.06

Peak level 70.4 %
Track quality 99.6 %
Test CRC 5470AF2D
Copy CRC 5470AF2D
Track not present in AccurateRip database
Copy OK

Track 7

Filename K:\[ Torrents ]\John Coltrane\John Coltrane - The Prestige Recordings 13 (1991) [flac]\07 - I never Knew.wav

Pre-gap length 0:00:01.56

Peak level 63.0 %
Track quality 100.0 %
Test CRC 9C9CE78A
Copy CRC 9C9CE78A
Accurately ripped (confidence 3) [9BF0838C]
Copy OK

Track 8

Filename K:\[ Torrents ]\John Coltrane\John Coltrane - The Prestige Recordings 13 (1991) [flac]\08 - Big Paul.wav

Pre-gap length 0:00:02.40

Peak level 66.3 %
Track quality 99.9 %
Test CRC 31D3E1F7
Copy CRC 31D3E1F7
Accurately ripped (confidence 2) [9C389283]
Copy OK

7 track(s) accurately ripped
1 track(s) not present in the AccurateRip database

Some tracks could not be verified as accurate

No errors occurred

End of status report
01. Rise 'n' Shine (7:15)
02. I See Your Face Before Me (9:58)
03. If There Is Someone Lovelier than You (9:21)
04. Little Melonae (14:06)
05. By The Numbers (12:06)
06. Black Pearls (13:11)
Exact Audio Copy V0.99 prebeta 4 from 23. January 2008

EAC extraction logfile from 29. June 2009, 10:24

John Coltrane / The Prestige Recordings 14

Used drive : Optiarc DVD RW AD-5170A Adapter: 0 ID: 0

Read mode : Secure
Utilize accurate stream : Yes
Defeat audio cache : Yes
Make use of C2 pointers : No

Read offset correction : 48
Overread into Lead-In and Lead-Out : No
Fill up missing offset samples with silence : Yes
Delete leading and trailing silent blocks : No
Null samples used in CRC calculations : Yes
Used interface : Native Win32 interface for Win NT & 2000
Gap handling : Appended to previous track

Used output format : User Defined Encoder
Selected bitrate : 320 kBit/s
Quality : High
Add ID3 tag : No
Command line compressor : C:\Program Files\Exact Audio Copy\FLAC\FLAC.EXE
Additional command line options : -V -8 -T "artist=%a" -T "title=%t" -T "album=%g" -T "date=%y" -T "tracknumber=%n" -T "genre=%m" %s

TOC of the extracted CD

Track | Start | Length | Start sector | End sector
---------------------------------------------------------
1 | 0:00.00 | 7:15.07 | 0 | 32631
2 | 7:15.07 | 9:58.25 | 32632 | 77506
3 | 17:13.32 | 9:21.23 | 77507 | 119604
4 | 26:34.55 | 14:05.57 | 119605 | 183036
5 | 40:40.37 | 12:06.18 | 183037 | 237504
6 | 52:46.55 | 13:10.52 | 237505 | 296806

Track 1

Filename K:\[ Torrents ]\John Coltrane\John Coltrane - The Prestige Recordings 14 (1991) [flac]\01 - Rise 'n' Shine.wav

Pre-gap length 0:00:02.00

Peak level 80.4 %
Track quality 100.0 %
Test CRC DEC8F984
Copy CRC DEC8F984
Accurately ripped (confidence 2) [3C82F884]
Copy OK

Track 2

Filename K:\[ Torrents ]\John Coltrane\John Coltrane - The Prestige Recordings 14 (1991) [flac]\02 - I See Your Face Before Me.wav

Pre-gap length 0:00:01.00

Peak level 89.8 %
Track quality 100.0 %
Test CRC 637EFDC5
Copy CRC 637EFDC5
Accurately ripped (confidence 2) [65A1870D]
Copy OK

Track 3

Filename K:\[ Torrents ]\John Coltrane\John Coltrane - The Prestige Recordings 14 (1991) [flac]\03 - If There Is Someone Lovelier than You.wav

Pre-gap length 0:00:01.26

Peak level 80.7 %
Track quality 100.0 %
Test CRC 2E244C97
Copy CRC 2E244C97
Accurately ripped (confidence 2) [446B35B8]
Copy OK

Track 4

Filename K:\[ Torrents ]\John Coltrane\John Coltrane - The Prestige Recordings 14 (1991) [flac]\04 - Little Melonae.wav

Pre-gap length 0:00:01.66

Peak level 92.8 %
Track quality 99.9 %
Test CRC BEE52846
Copy CRC BEE52846
Accurately ripped (confidence 2) [47227D36]
Copy OK

Track 5

Filename K:\[ Torrents ]\John Coltrane\John Coltrane - The Prestige Recordings 14 (1991) [flac]\05 - By The Numbers.wav

Pre-gap length 0:00:02.00

Peak level 91.3 %
Track quality 100.0 %
Test CRC 0259E523
Copy CRC 0259E523
Accurately ripped (confidence 2) [25F3487D]
Copy OK

Track 6

Filename K:\[ Torrents ]\John Coltrane\John Coltrane - The Prestige Recordings 14 (1991) [flac]\06 - Black Pearls.wav

Pre-gap length 0:00:01.70

Peak level 92.6 %
Track quality 100.0 %
Test CRC 079470E2
Copy CRC 079470E2
Accurately ripped (confidence 2) [EBD226DF]
Copy OK

All tracks accurately ripped

No errors occurred

End of status report
01. Lover Come Back To Me (7:26)
02. Sweet Sapphire Blues (18:17)
03. Spring Is Here (6:57)
04. Invitation (10:23)
05. I'm A Dreamer, Aren't We All (7:02)
06. Love Thy Neigbor (9:25)
07. Don't Take Your Love from Me (9:15)
Exact Audio Copy V0.99 prebeta 4 from 23. January 2008

EAC extraction logfile from 29. June 2009, 10:55

John Coltrane / The Prestige Recordings 15

Used drive : Optiarc DVD RW AD-5170A Adapter: 0 ID: 0

Read mode : Secure
Utilize accurate stream : Yes
Defeat audio cache : Yes
Make use of C2 pointers : No

Read offset correction : 48
Overread into Lead-In and Lead-Out : No
Fill up missing offset samples with silence : Yes
Delete leading and trailing silent blocks : No
Null samples used in CRC calculations : Yes
Used interface : Native Win32 interface for Win NT & 2000
Gap handling : Appended to previous track

Used output format : User Defined Encoder
Selected bitrate : 320 kBit/s
Quality : High
Add ID3 tag : No
Command line compressor : C:\Program Files\Exact Audio Copy\FLAC\FLAC.EXE
Additional command line options : -V -8 -T "artist=%a" -T "title=%t" -T "album=%g" -T "date=%y" -T "tracknumber=%n" -T "genre=%m" %s

TOC of the extracted CD

Track | Start | Length | Start sector | End sector
---------------------------------------------------------
1 | 0:00.00 | 7:26.35 | 0 | 33484
2 | 7:26.35 | 18:16.65 | 33485 | 115749
3 | 25:43.25 | 6:57.27 | 115750 | 147051
4 | 32:40.52 | 10:23.30 | 147052 | 193806
5 | 43:04.07 | 7:02.13 | 193807 | 225469
6 | 50:06.20 | 9:24.47 | 225470 | 267816
7 | 59:30.67 | 9:14.45 | 267817 | 309411

Track 1

Filename K:\[ Torrents ]\John Coltrane\John Coltrane - The Prestige Recordings 15 (1991) [flac]\01 - Lover Come Back To Me.wav

Pre-gap length 0:00:02.00

Peak level 100.0 %
Track quality 100.0 %
Test CRC DCB57589
Copy CRC DCB57589
Accurately ripped (confidence 3) [048757B1]
Copy OK

Track 2

Filename K:\[ Torrents ]\John Coltrane\John Coltrane - The Prestige Recordings 15 (1991) [flac]\02 - Sweet Sapphire Blues.wav

Pre-gap length 0:00:00.26

Peak level 100.0 %
Track quality 99.8 %
Test CRC 916266E0
Copy CRC 916266E0
Accurately ripped (confidence 2) [DC28A159]
Copy OK

Track 3

Filename K:\[ Torrents ]\John Coltrane\John Coltrane - The Prestige Recordings 15 (1991) [flac]\03 - Spring Is Here.wav

Pre-gap length 0:00:02.26

Peak level 100.0 %
Track quality 100.0 %
Test CRC 8BC92E19
Copy CRC 8BC92E19
Accurately ripped (confidence 2) [D972B7C8]
Copy OK

Track 4

Filename K:\[ Torrents ]\John Coltrane\John Coltrane - The Prestige Recordings 15 (1991) [flac]\04 - Invitation.wav

Pre-gap length 0:00:03.49

Peak level 98.2 %
Track quality 99.8 %
Test CRC 39134B4C
Copy CRC 39134B4C
Accurately ripped (confidence 2) [D5824319]
Copy OK

Track 5

Filename K:\[ Torrents ]\John Coltrane\John Coltrane - The Prestige Recordings 15 (1991) [flac]\05 - I'm A Dreamer, Aren't We All.wav

Pre-gap length 0:00:01.89

Peak level 78.2 %
Track quality 100.0 %
Test CRC 255CF3F6
Copy CRC 255CF3F6
Accurately ripped (confidence 2) [0A51B4F8]
Copy OK

Track 6

Filename K:\[ Torrents ]\John Coltrane\John Coltrane - The Prestige Recordings 15 (1991) [flac]\06 - Love Thy Neigbor.wav

Pre-gap length 0:00:00.86

Peak level 100.0 %
Track quality 100.0 %
Test CRC 4DAB47E2
Copy CRC 4DAB47E2
Accurately ripped (confidence 2) [68D9B203]
Copy OK

Track 7

Filename K:\[ Torrents ]\John Coltrane\John Coltrane - The Prestige Recordings 15 (1991) [flac]\07 - Don't Take Your Love from Me.wav

Pre-gap length 0:00:02.29

Peak level 81.7 %
Track quality 100.0 %
Test CRC 3AB48E5B
Copy CRC 3AB48E5B
Accurately ripped (confidence 3) [ED89168B]
Copy OK

All tracks accurately ripped

No errors occurred

End of status report
01. Stardust (10:43)
02. My Ideal (7:35)
03. I'll Get By (8:13)
04. Do I love You Because You're Beautiful? (5:14)
05. Then I'll Be Tired Of You (9:30)
06. Something I Dreamed Last Night (10:51)
07. Bahia (6:17)
08. Goldsboro Express (4:45)
09. Time After Time (7:43)
Exact Audio Copy V0.99 prebeta 4 from 23. January 2008

EAC extraction logfile from 29. June 2009, 11:23

John Coltrane / The Prestige Recordings 16

Used drive : Optiarc DVD RW AD-5170A Adapter: 0 ID: 0

Read mode : Secure
Utilize accurate stream : Yes
Defeat audio cache : Yes
Make use of C2 pointers : No

Read offset correction : 48
Overread into Lead-In and Lead-Out : No
Fill up missing offset samples with silence : Yes
Delete leading and trailing silent blocks : No
Null samples used in CRC calculations : Yes
Used interface : Native Win32 interface for Win NT & 2000
Gap handling : Appended to previous track

Used output format : User Defined Encoder
Selected bitrate : 320 kBit/s
Quality : High
Add ID3 tag : No
Command line compressor : C:\Program Files\Exact Audio Copy\FLAC\FLAC.EXE
Additional command line options : -V -8 -T "artist=%a" -T "title=%t" -T "album=%g" -T "date=%y" -T "tracknumber=%n" -T "genre=%m" %s

TOC of the extracted CD

Track | Start | Length | Start sector | End sector
---------------------------------------------------------
1 | 0:00.00 | 10:42.65 | 0 | 48214
2 | 10:42.65 | 7:35.07 | 48215 | 82346
3 | 18:17.72 | 8:12.43 | 82347 | 119289
4 | 26:30.40 | 5:13.40 | 119290 | 142804
5 | 31:44.05 | 9:30.00 | 142805 | 185554
6 | 41:14.05 | 10:50.55 | 185555 | 234359
7 | 52:04.60 | 6:17.27 | 234360 | 262661
8 | 58:22.12 | 4:44.68 | 262662 | 284029
9 | 63:07.05 | 7:43.17 | 284030 | 318771

Track 1

Filename K:\[ Torrents ]\John Coltrane\John Coltrane - The Prestige Recordings 16 (1991) [flac]\01 - Stardust.wav

Pre-gap length 0:00:02.00

Peak level 62.8 %
Track quality 99.9 %
Test CRC EC90A081
Copy CRC EC90A081
Accurately ripped (confidence 2) [68D1EA15]
Copy OK

Track 2

Filename K:\[ Torrents ]\John Coltrane\John Coltrane - The Prestige Recordings 16 (1991) [flac]\02 - My Ideal.wav

Pre-gap length 0:00:01.50

Peak level 57.7 %
Track quality 100.0 %
Test CRC 1B409F96
Copy CRC 1B409F96
Accurately ripped (confidence 2) [C69888BC]
Copy OK

Track 3

Filename K:\[ Torrents ]\John Coltrane\John Coltrane - The Prestige Recordings 16 (1991) [flac]\03 - I'll Get By.wav

Pre-gap length 0:00:02.93

Peak level 90.5 %
Track quality 100.0 %
Test CRC FF308137
Copy CRC FF308137
Accurately ripped (confidence 2) [380A38C5]
Copy OK

Track 4

Filename K:\[ Torrents ]\John Coltrane\John Coltrane - The Prestige Recordings 16 (1991) [flac]\04 - Do I love You Because You're Beautiful .wav

Pre-gap length 0:00:02.66

Peak level 83.8 %
Track quality 100.0 %
Test CRC A66253C1
Copy CRC A66253C1
Accurately ripped (confidence 2) [B881673D]
Copy OK

Track 5

Filename K:\[ Torrents ]\John Coltrane\John Coltrane - The Prestige Recordings 16 (1991) [flac]\05 - Then I'll Be Tired Of You.wav

Pre-gap length 0:00:02.20

Peak level 83.8 %
Track quality 100.0 %
Test CRC CFB4F61B
Copy CRC CFB4F61B
Accurately ripped (confidence 2) [31C4F3F9]
Copy OK

Track 6

Filename K:\[ Torrents ]\John Coltrane\John Coltrane - The Prestige Recordings 16 (1991) [flac]\06 - Something I Dreamed Last Night.wav

Pre-gap length 0:00:01.70

Peak level 79.0 %
Track quality 100.0 %
Test CRC 1EE72E13
Copy CRC 1EE72E13
Accurately ripped (confidence 2) [2426EC26]
Copy OK

Track 7

Filename K:\[ Torrents ]\John Coltrane\John Coltrane - The Prestige Recordings 16 (1991) [flac]\07 - Bahia.wav

Pre-gap length 0:00:02.20

Peak level 68.3 %
Track quality 100.0 %
Test CRC AD1F7EE5
Copy CRC AD1F7EE5
Track not present in AccurateRip database
Copy OK

Track 8

Filename K:\[ Torrents ]\John Coltrane\John Coltrane - The Prestige Recordings 16 (1991) [flac]\08 - Goldsboro Express.wav

Pre-gap length 0:00:01.46

Peak level 78.7 %
Track quality 99.9 %
Test CRC 19E1B3DE
Copy CRC 19E1B3DE
Track not present in AccurateRip database
Copy OK

Track 9

Filename K:\[ Torrents ]\John Coltrane\John Coltrane - The Prestige Recordings 16 (1991) [flac]\09 - Time After Time.wav

Pre-gap length 0:00:01.53

Peak level 88.3 %
Track quality 99.9 %
Test CRC D46B24C7
Copy CRC D46B24C7
Track not present in AccurateRip database
Copy OK

6 track(s) accurately ripped
3 track(s) not present in the AccurateRip database

Some tracks could not be verified as accurate

No errors occurred

End of status report

Источник: what.cd (Storyteller)


Трекер:  [ 25-Мар-2011 12:12 ]

  

Скачать .torrent

Размер .torrent файла 48 KB


Размер: 5.56 GB
Хэш (hash) релиза: f281e57ac73a62ce2b6f50ed47534a1f92b3ee95

Еще никто не оставлял запись к записи скачать торрент John Coltrane - The Prestige Recordings . Будь первым!

!Обратная связь