Скачать порно через торрент [Sperma-Studio.com Gem-Film.com] Spermslut Manuela UnionPeer.org бесплатно онлайн HD качество

Скачать новое порно 2015, 2014 новинки через торрент UnionPeer.org

Порно торрент бесплатно ЮнионПир.орг

Если у вас наблюдаются проблемы со скриншотами, переходом по ссылками, скачиванием торрентов - проблемы в блокировщике рекламы AdBlock. #хорошегоДня!


Статистика раздачи
Размер:  3.42 GB   |    Зарегистрирован:  3 года 2 месяца   |    .torrent скачан:  1619 раз   |   
Раздают:  1   Качают:  1  
   
Загрузка...
 
Автор Сообщение

Galfimbul

avatar Galfimbul


Spermslut Manuela / Спермошлюха Мануэла

Год производства: 2014 г.
Страна: Германия
Жанр: Blowjobs, Bukkake, Gangbang, Creampie, Amauter
Продолжительность: 00:44:49

Студия: sperma-studio.com & gem-film.de

В ролях: Manuela (Manu), Sidney, толпа бюргеров.

Описание: Толпа немецких бюргеров кончает внутрь, наружу и куда придется двум девушкам. Камера направлена на ту, что покрасивше.

Тип HD видео: 1080p
Качество видео: SiteRip
Формат видео: MP4
Видео кодек: H.264/AVC
Аудио кодек: AAC
Видео: MPEG4 Video (H264) 1920x1080 25fps 10773kbps
Аудио: AAC 48000Hz stereo 160kbps
General
Format : MPEG-4
Format profile : Base Media / Version 2
Codec ID : mp42
File size : 3.42 GiB
Duration : 44mn 48s
Overall bit rate mode : Variable
Overall bit rate : 10.9 Mbps
Encoded date : UTC 2014-06-29 13:01:55
Tagged date : UTC 2014-06-29 13:01:55

Video
ID : 1
Format : AVC
Format/Info : Advanced Video Codec
Format profile : High@L5.0
Format settings, CABAC : Yes
Format settings, ReFrames : 5 frames
Format settings, GOP : M=3, N=18
Codec ID : avc1
Codec ID/Info : Advanced Video Coding
Duration : 44mn 48s
Bit rate mode : Variable
Bit rate : 10.8 Mbps
Maximum bit rate : 12.0 Mbps
Width : 1 920 pixels
Height : 1 080 pixels
Display aspect ratio : 16:9
Frame rate mode : Constant
Frame rate : 25.000 fps
Standard : PAL
Color space : YUV
Chroma subsampling : 4:2:0
Bit depth : 8 bits
Scan type : Progressive
Bits/(Pixel*Frame) : 0.208
Stream size : 3.37 GiB (99%)
Language : English
Encoded date : UTC 2014-06-29 13:01:55
Tagged date : UTC 2014-06-29 13:01:55
Color primaries : BT.709
Transfer characteristics : BT.709
Matrix coefficients : BT.709

Audio
ID : 2
Format : AAC
Format/Info : Advanced Audio Codec
Format profile : LC
Codec ID : 40
Duration : 44mn 48s
Bit rate mode : Variable
Bit rate : 160 Kbps
Maximum bit rate : 419 Kbps
Channel(s) : 2 channels
Channel positions : Front: L R
Sampling rate : 48.0 KHz
Compression mode : Lossy
Stream size : 51.3 MiB (1%)
Language : English
Encoded date : UTC 2014-06-29 13:01:55
Tagged date : UTC 2014-06-29 13:01:55


Трекер:  [ 15-Сен-2014 09:00 ]

  

Скачать .torrent

Размер .torrent файла 17 KB


Размер: 3.42 GB
Хэш (hash) релиза: acea4f63887959390132f5ee65367a5fbb7e4cb7

Еще никто не оставлял запись к записи скачать торрент [Sperma-Studio.com Gem-Film.com] Spermslut Manuela . Будь первым!

!Обратная связь