Скачать через торрент музыку Frank Sinatra - The Capitol Years бесплатно без регистрации torrent

Если у вас наблюдаются проблемы со скриншотами, переходом по ссылками, скачиванием торрентов - проблемы в блокировщике рекламы AdBlock. #хорошегоДня!


Статистика раздачи
Размер:  4.11 GB   |    Зарегистрирован:  6 лет 6 месяцев   |    .torrent скачан:  78 раз   |   
Раздают:  1  
   
Загрузка...
 
Автор Сообщение

L


Frank Sinatra - The Capitol Years (1954-1962) 21CD
Жанр: Swing, Easy Listening
Год выпуска диска: 1998
Производитель диска: EU, Holland
Аудио кодек: FLAC
Тип рипа: tracks+.cue, covers + book (300 dpi)
Битрейт аудио: lossless

Фрэнк Синатра - вокалист и актер, звезда американской эстрады и блестящий шоумен…
Бархатный голос этого человека - это голос ХХ века, века последних романтиков и искателей приключений.


В отличие от "Frank Sinatra - The Complete Reprise Studio Recordings (20CD Box)",
собрания записей компиляционных альбомов певца с 1960-го по 1988 годы,
в "SINATRA. The Capitol Years" собраны альбомы, записанные с 1953-го по 1961 годы, и ремастерированные на фирме "EMI Group" (Electric & Musical Industries Ltd.), дочерней компании "The Capitol's", в 1998 году, и только в данной коллекции Вы найдете бонусный альбом 1959 года "The Rare Sinatra".
1. "The Girl Next Door" (Hugh Blane, Ralph Martin) – 2:39
2. "They Can't Take That Away from Me" (George Gershwin, Ira Gershwin) – 1:59
3. "Violets for Your Furs" (Tom Adair, Matt Dennis) – 3:07
4. "Someone to Watch over Me" (G. Gershwin, I. Gershwin) – 2:59
5. "My One and Only Love" (Guy Wood, Robert Mellin) – 3:14
6. "Little Girl Blue" (Richard Rodgers, Lorenz Hart) – 2:54
7. "Like Someone in Love" (Jimmy Van Heusen, Johnny Burke) – 3:13
8. "A Foggy Day" (G. Gershwin, I. Gershwin) – 2:41
9. "It Worries Me" (Fritz Schultz-Reichelt, Carl Sigman) – 2:55
10. "I Can Read Between the Lines" (Ramon Getzov, Sid Frank) – 2:50
11. "I Get a Kick Out of You" (Cole Porter) – 2:56
12. "My Funny Valentine" (Rodgers, Hart) – 2:31
1. "Jeepers Creepers" (Harry Warren, Johnny Mercer) – 2:24
2. "Taking a Chance on Love" (Vernon Duke, Ted Fetter, John Latouche) – 2:14
3. "Wrap Your Troubles in Dreams" (Harry Barris, Ted Koehler, Billy Moll) – 2:17
4. "Lean Baby" (Roy Alfred, Billy May) – 2:34
5. "I Love You" (Harry Archer, Harlan Thompson) – 2:28
6. "I'm Gonna Sit Right Down (And Write Myself a Letter)" (Fred E. Ahlert, Joe Young) – 2:29
7. "Get Happy" (Koehler, Harold Arlen)– 2:27
8. "All of Me" (Seymour Simons, Gerald Marks) – 2:08
9. "How Could You Do a Thing Like That to Me" (Tyree Glenn, Allan Roberts) – 2:44
10. "Why Should I Cry over You?" (Chester Conn, Ned Miller) – 2:41
11. "Sunday" (Chester Conn, Benny Krueger, Ned Miller, Jule Styne) – 2:31
12. "Just One of Those Things" (Porter) – 3:14
1. "In the Wee Small Hours of the Morning" (Bob Hilliard, David Mann) – 3:02
2. "Mood Indigo" (Barney Bigard, Duke Ellington, Irving Mills) – 3:32
3. "Glad to Be Unhappy" (Rodgers, Hart) – 2:39
4. "I Get Along Without You Very Well (Except Sometimes)" (Hoagy Carmichael, Jane Brown Thompson) – 3:45
5. "Deep in a Dream" (Eddie DeLange, Van Heusen) – 2:51
6. "I See Your Face Before Me" (Howard Dietz, Arthur Schwartz) – 3:27
7. "Can't We Be Friends?" (Paul James, Kay Swift) – 2:50
8. "When Your Lover Has Gone" (Einar Aaron Swan) – 3:12
9. "What Is This Thing Called Love?" (Porter) – 2:36
10. "Last Night When We Were Young" (Arlen, Yip Harburg) – 3:18
11. "I'll Be Around" (Alec Wilder) – 3:01
12. "Ill Wind" (Arlen, Koehler) – 3:48
13. "It Never Entered My Mind" (Rodgers, Hart) – 2:43
14. "Dancing on the Ceiling" (Rodgers, Hart) – 3:00
15. "I'll Never Be the Same" (Gus Kahn, Matty Malneck, Frank Signorelli) – 3:07
16. "This Love of Mine" (Sol Parker, Henry W. Sanicola, Jr., Frank Sinatra) – 3:35
1. "I've Got the World on a String" (Arlen, Koehler) – 2:14
2. "Three Coins in the Fountain" (Styne, Sammy Cahn) – 3:07
3. "Love and Marriage" (Cahn, Van Heusen) – 2:41
4. "From Here to Eternity" (Freddie Karger, Robert Wells) – 3:01
5. "South of the Border" (Jimmy Kennedy, Michael Carr) – 2:52
6. "Rain (Falling from the Skies)" (Robert Mellin, Gunther Finlay) – 3:27
7. "The Gal That Got Away" (Arlen, I. Gershwin) – 3:12
8. "Young at Heart" (Johnny Richards, Carolyn Leigh) – 2:53
9. "Learnin' the Blues" (Dolores Vicki Silvers) – 3:04
10. "My One and Only Love" – 3:15
11. "(Love Is) The Tender Trap" (Van Heusen, Cahn) – 3:00
12. "Don't Worry 'bout Me" (Rube Bloom, Koehler) - 3:07
1. "You Make Me Feel So Young" (Josef Myrow, Mack Gordon) – 2:57
2. "It Happened in Monterey" (Mabel Wayne, Billy Rose) – 2:37
3. "You're Getting to Be a Habit with Me" (Warren, Al Dubin) – 2:19
4. "You Brought a New Kind of Love to Me" (Sammy Fain, Irving Kahal, Pierre Norman) – 2:49
5. "Too Marvelous for Words" (Richard A. Whiting, Mercer) – 2:32
6. "Old Devil Moon" (Burton Lane, Harburg) – 3:57
7. "Pennies from Heaven" (Arthur Johnston, Burke)– 2:45
8. "Our Love Is Here to Stay" (G. Gershwin, I. Gershwin) – 2:42
9. "I've Got You Under My Skin" (Porter) – 3:45
10. "I Thought About You" (Van Heusen, Mercer) – 2:31
11. "We'll Be Together Again" (Carl Fischer, Frankie Laine) – 4:27
12. "Makin' Whoopee" (Walter Donaldson, Kahn) – 3:08
13. "Swingin' Down the Lane" (Isham Jones, Kahn) – 2:54
14. "Anything Goes" (Porter) – 2:44
15. "How About You?" (Burton Lane, Ralph Freed) – 2:45
1. "Close to You" (Al Hoffman, Carl G. Lampl, Jerry Livingston) – 3:40
2. "P.S. I Love You" (Gordon Jenkins, Mercer) – 4:24
3. "Love Locked Out" (Max Kester, Ray Noble) – 2:45
4. "Everything Happens to Me" (Adair, Dennis) – 3:22
5. "It's Easy to Remember" (Rodgers, Hart) – 3:37
6. "Don't Like Goodbyes" (Arlen, Truman Capote) – 4:52
7. "With Every Breath I Take" (Ralph Rainger, Leo Robin) – 3:41
8. "Blame It on My Youth" (Edward Heyman, Oscar Levant) – 3:00
9. "It Could Happen to You" (Burke, Van Heusen) – 3:16
10. "I've Had My Moments" (Donaldson, Kahn) – 3:50
11. "I Couldn't Sleep a Wink Last Night" (Harold Adamson, Jimmy McHugh) – 3:28
12. "The End of a Love Affair" (Edward Redding) – 4:09
1. "Night and Day" (Porter) – 4:02
2. "I Wish I Were in Love Again" (Rodgers, Hart) – 2:31
3. "I Got Plenty O' Nuttin'" (DuBose Heyward, G. Gershwin, I. Gershwin) – 3:13
4. "I Guess I'll Have to Change My Plan" (Schwartz, Dietz) – 2:26
5. "Nice Work if You Can Get It" (G. Gershwin, I. Gershwin) – 2:24
6. "Stars Fell on Alabama" (Frank Perkins, Mitchell Parish) – 2:41
7. "No One Ever Tells You" (Hub Atwood, Carroll Coates) – 3:28
8. "I Won't Dance" (Jerome Kern, McHugh, Oscar Hammerstein II, Otto Harbach, Dorothy Fields) – 3:27
9. "Lonesome Road" (Nathaniel Shilket, Gene Austin) – 3:57
10. "At Long Last Love" (Porter) – 2:27
11. "You'd Be So Nice to Come Home To" (Porter) – 2:07
12. "I Got It Bad (And That Ain't Good)" (Ellington, Paul Francis Webster) – 3:25
13. "From This Moment On" (Porter) – 3:56
14. "If I Had You" (Jimmy Campbell, Reginald Connelly, Ted Shapiro) – 2:39
15. "Oh! Look at Me Now" (Joe Bushkin, John DeVries) – 2:50
1. "Where Are You?" (Harold Adamson, Jimmy McHugh) – 3:30
2. "The Night We Called It a Day (Dennis, Adair) – 3:27
3. "I Cover the Waterfront" (Johnny Green, Edward Heyman) – 2:59
4. "Maybe You'll Be There" (Bloom, Sammy Gallop) – 3:06
5. "Laura" (Mercer, David Raksin) – 3:27
6. "Lonely Town" (Leonard Bernstein, Betty Comden, Adolph Green) – 4:11
7. "Autumn Leaves" (Jacques Prévert, Mercer, Joseph Kosma) – 2:51
8. "I'm a Fool to Want You" (Sinatra, Jack Wolf, Joel Herron) – 4:50
9. "I Think of You" (Jack Elliott, Don Marcotte) – 3:03
10. "Where Is the One?" (Wilder, Edwin Finckel)- 3:12
11. "There's No You" (Adair, Hal Hopper) - 3:45
12. "Baby Won't You Please Come Home" (Charles Warfield, Clarence Williams) - 2:57
1. "Come Fly With Me" (Cahn, Van Heusen) – 3:18
2. "Around the World" (Victor Young, Adamson) – 3:20
3. "Isle of Capri" (Will Grosz, Jimmy Kennedy) – 2:29
4. "Moonlight in Vermont" (Karl Suessdorf, John Blackburn) – 3:31
5. "Autumn in New York" (Duke) – 4:36
6. "On the Road to Mandalay" (Oley Speaks, Rudyard Kipling) – 3:29
7. "Let's Get Away from It All" (Dennis, Adair) – 2:10
8. "April in Paris" (Duke, Harburg) – 2:50
9. "London By Night" (Carroll Coates) – 3:30
10. "Brazil" (Ary Barroso, Bob Russell) – 2:55
11. "Blue Hawaii" (Rainger, Robin) – 2:43
12. "It's Nice to go Trav'ling" (Cahn, Van Heusen) – 3:49
1. "Hey! Jealous Lover" (Cahn, Kay Twomey, Bee Walker) – 2:24
2. "Everybody Loves Somebody" (Irving Taylor, Ken Lane) – 3:46
3. "Something Wonderful Happens in Summer" (Bushkin, Devries) – 3:16
4. "Half as Lovely (Twice as True)" (Lew Spence, Gallop) – 3:09
5. "You're Cheatin' Yourself (If You're Cheatin' on Me)" (Hoffman, Dick Manning) – 2:38
6. "You'll Always Be the One I Love" (Ticker Freeman, Sunny Skylar) – 2:59
7. "You Forgot All the Words (While I Still Remember the Tune)" (Bernie Wayne, E.H. Jay) – 3:24
8. "(How Little It Matters) How Little We Know" (Phillip Springer, Leigh) – 2:44
9. "Time After Time" (Styne, Cahn) - 3:31
10. "Crazy Love" (Cahn, Phil Tuminello) - 2:54
11. "Wait for Me" (Nelson Riddle, Stanford) - 2:54
12. "If You Are But a Dream" (Moe Jaffe, Jack Fulton, Nat Bonx) – 3:58
13. "So Long, My Love" (Cahn, Spence) – 2:50
14. "It's the Same Old Dream" (Styne, Cahn) – 3:06
15. "I Believe" (Styne, Cahn) – 2:33
16. "Put Your Dreams Away (For Another Day)" (Paul Mann, George David Weiss, Ruth Lowe) – 3:12
1. "Nice 'n' Easy" (Alan Bergman, Marilyn Keith, Spence) – 2:45
2. "That Old Feeling" (Lew Brown, Fain) – 3:33
3. "How Deep Is The Ocean?" (Berlin) – 3:15
4. "I've Got a Crush on You" (G. Gershwin, I. Gershwin) – 2:16
5. "You Go To My Head" (J. Fred Coots, Haven Gillespie) – 4:28
6. "Fools Rush In (Where Angels Fear to Tread)" (Bloom, Mercer) – 3:22
7. "Nevertheless" (Bert Kalmar, Harry Ruby) – 3:18
8. "She's Funny That Way" (Neil Moret, Richard A. Whiting) – 3:55
9. "Try a Little Tenderness" (Jimmy Campbell, Reginald Connelly, Harry M. Woods) – 3:22
10. "Embraceable You" (G. Gershwin, I. Gershwin) – 3:24
11. "Mam'selle" (Gordon, Edmund Goulding) – 2:48
12. "Dream" (Mercer) – 2:57
1. "Come Dance With Me" (Cahn, Van Heusen) – 2:31
2. "Something's Gotta Give" (Mercer) – 2:38
3. "Just in Time" (Styne, Comden, Green) – 2:24
4. "Dancing in the Dark" (Schwartz, Dietz) – 2:26
5. "Too Close for Comfort" (Jerry Bock, Larry Holofcener, Weiss) – 2:34
6. "I Could Have Danced All Night" (Alan Jay Lerner, Frederick Loewe) – 2:40
7. "Saturday Night (Is the Loneliest Night of the Week)" (Cahn, Styne) – 1:54
8. "Day In, Day Out" (Bloom, Mercer) – 3:25
9. "Cheek to Cheek" (Irving Berlin) – 3:06
10. "Baubles, Bangles and Beads" (Robert Wright, George Forrest) – 2:46
11. "The Song Is You" (Kern, Hammerstein) – 2:43
12. "The Last Dance" (Cahn, Van Heusen) – 2:11
1. "When No One Cares" (Cahn, Van Heusen) – 2:42
2. "A Cottage for Sale" (Larry Conley, Willard Robison) – 3:16
3. "Stormy Weather" (Arlen, Ted Koehler) – 3:20
4. "Where Do You Go?" (Arnold Sundgaard, Wilder) – 2:34
5. "I Don't Stand a Ghost of a Chance with You" (Bing Crosby, Ned Washington, Young) – 3:16
6. "Here's That Rainy Day" (Burke, Van Heusen) – 3:34
7. "I Can't Get Started" (Duke, I. Gershwin) – 4:01
8. "Why Try to Change Me Now?" (Cy Coleman, Joseph Allan McCarthy) – 3:41
9. "Just Friends" (John Klenner, Sam M. Lewis) – 3:40
10. "I'll Never Smile Again" (Lowe) – 3:46
11. "None But the Lonely Heart" (Pyotr Il'yich Tchaikovsky, Bill Westbrook) – 3:41
12. "The One I Love (Belongs to Somebody Else) " (Jones, Kahn) – 3:05
1. "Look to Your Heart" (Cahn, Van Heusen) – 3:10
2. "Anytime, Anywhere" (Imogen Carpenter, Lenny Adelson) – 2:45
3. "Not as a Stranger" (Van Heusen, Buddy Kaye) – 2:47
4. "Our Town" (Cahn, Van Heusen) – 3:16
5. "You, My Love" (Van Heusen, Gordon) – 2:56
6. "Same Old Saturday Night" (Frank Reardon, Cahn) – 2:31
7. "Fairy Tale" (Jay Livingston, Stanford) – 2:59
8. "The Impatient Years" (Cahn, Van Heusen) – 3:14
9. "I Could Have Told You" (Carl Sigman, Van Heusen) – 3:18
10. "When I Stop Loving You" (George Cates, Alan Copeland, Mort Greene) – 2:56
11. "If I Had Three Wishes" (Claude Baum, Spence) – 2:56
12. "I'm Gonna Live Till I Die" (Hoffman, Walter Kent, Mann Curtis) – 1:54
1. "Only the Lonely" (Cahn, Van Heusen) - 4:10
2. "Angel Eyes" (Dennis, Earl Brent) - 3:46
3. "What's New?" (Bob Haggart, Burke) - 5:13
4. "It's a Lonesome Old Town" (Harry Tobias, Charles Kisco) - 4:18
5. "Willow Weep for Me" (Ann Ronell) - 4:19
6. "Good-Bye" (Gordon Jenkins) - 5:45
7. "Blues in the Night" (Arlen, Mercer) - 4:44
8. "Guess I'll Hang My Tears Out to Dry" (Cahn, Styne) - 4:00
9. "Ebb Tide" (Robert Maxwell, Carl Sigman) - 3:18
10. "Spring is Here" (Rodgers, Hart) - 4:47
11. "Gone with the Wind" (Allie Wrubel, Herb Magidson) - 5:15
12. "One For My Baby (And One More For The Road)" (Arlen, Mercer) - 4:23
1. "Day by Day" (Axel Stordahl, Paul Weston, Cahn) – 2:39
2. "Sentimental Journey" (Brown, Ben Homer, Bud Green) – 3:26
3. "Almost Like Being in Love" (Loewe, Lerner) – 2:02
4. "Five Minutes More" (Cahn, Styne) – 2:36
5. "American Beauty Rose" (Mack David, Redd Evans, Arthur Altman) – 2:22
6. "Yes Indeed!" (Sy Oliver) – 2:35
7. "On the Sunny Side of the Street" (McHugh, Fields) – 2:42
8. "Don't Take Your Love From Me" (Henry Nemo) – 1:59
9. "That Old Black Magic" (Arlen, Mercer) – 4:05
10. "Lover" (Rodgers, Hart) – 1:53
11. "Paper Doll" (Johnny S. Black) – 2:08
12. "I've Heard That Song Before" (Cahn, Styne) – 2:33
1. "All the Way" (Cahn, Van Heusen) – 2:55
2. "High Hopes" (Cahn, Van Heusen) – 2:43
3. "Talk to Me" (Eddie Snyder, Stanley Kahan, Rudy Vallee) – 3:04
4. "French Foreign Legion" (Aaron Schroeder, Guy Wood) – 2:03
5. "To Love and Be Loved" (Cahn, Van Heusen) – 3:53
6. "River, Stay 'Way from My Door" (Matt Dixon, Harry M. Woods) – 2:39
7. "Witchcraft" (Coleman, Leigh) – 2:54
8. "It's Over, It's Over, It's Over" (Dennis, Stanford) – 2:42
9. "Old McDonald Had a Farm" (Traditional, Bergman, Keith, Spence) – 2:42
10. "This Was My Love" (Jim Harbert) – 3:28
11. "All My Tomorrows" (Cahn, Van Heusen) – 3:15
12. "Sleep Warm" (Bergman, Keith, Spence) – 2:43
1. "When You're Smiling" (Mark Fisher, Joe Goodwin, Larry Shay) – 2:00
2. "Blue Moon" (Rodgers, Hart) – 2:51
3. "S'Posin" (Paul Denniker, Andy Razaf) – 1:48
4. "It All Depends on You" (B.G. DeSylva, Brown, Ray Henderson) – 2:02
5. "It's Only a Paper Moon" (Arlen, Harburg, Rose) – 2:19
6. "My Blue Heaven" (Donaldson, George Whiting) – 2:03
7. "Should I?" (Arthur Freed, Nacio Herb Brown) – 1:30
8. "September in the Rain" (Warren, Dubin) – 2:58
9. "Always" (Berlin) – 2:17
10. "I Can't Believe That You're in Love with Me" (Clarence Gaskill, McHugh) – 2:25
11. "I Concentrate on You" (Porter) – 2:23
12. "You Do Something to Me" (Porter) – 1:33
1. "When the World Was Young" (Mercer, M. Philippe-Gerard, Angele Marie T. Vannier) - 3:48
2. "I'll Remember April" (Don Raye, Gene DePaul, Patricia Johnston) - 2:50
3. "September Song" (Kurt Weill, Maxwell Anderson) - 4:21
4. "A Million Dreams Ago" (Lou Quadling, Eddie Howard, Dick Jurgens) - 2:41
5. "I'll See You Again" (Noel Coward) - 2:44
6. "There Will Never Be Another You" (Gordon, Warren) - 3:09
7. "Somewhere Along the Way" (Kurt Adams, Gallop) - 3:01
8. "It's a Blue World" (Bob Wright, Chet Forrest) - 2:49
9. "These Foolish Things (Remind Me Of You)" (Jack Strachey, Harry Link, Holt Marvell) - 3:59
10. "As Time Goes By" (Herman Hupfield) - 3:17
11. "I'll Be Seeing You" (Fain, Irving Kahal) - 2:47
12. "Memories of You" (Eubie Blake, Razaf) - 3:53
1. "The Nearness of You" (Hoagy Carmichael, Washington) - 2:44
2. "Hidden Persuasion" (Wainwright Churchill III) - 2:26
3. "The Moon Was Yellow" (Fred E. Ahlert, Edgar Leslie) - 3:02
4. "I Love Paris" (Porter) - 1:52
5. "Monique" (Cahn, Elmer Bernstein) - 3:18
6. "Chicago" (Fred Fisher) - 2:12
7. "Love Looks So Well On You" (Spence, Keith, Bergman) - 2:41
8. "Sentimental Baby" (Spence, Keith, Bergman) - 2:38
9. "Mr. Success" (Edwin Grienes, Sinatra, Hank Sanicola) - 2:42
10. "They Came to Cordura" (Cahn, Van Heusen) - 3:02
11. "I Gotta Right to Sing the Blues" (Arlen, Koehler) - 3:00
12. "Something Wonderful Happens In Summer" - 3:12
1. "Day In, Day Out" – 3:20
2. "I'm Walking Behind You" (Billy Reid) – 2:58
3. "Don't Make a Beggar of Me" (Al Sherman) – 3:04
4. "Ya Better Stop" (Cliff Ferre, Mark McIntyre) – 2:36
5. "Take a Chance" (David Raksin, Don Stanford) – 2:40
6. "Day In, Day Out" – 3:08
7. "Memories of You" – 2:54
8. "If It's the Last Thing I Do" (Cahn, Saul Chaplin) – 4:00
9. "There's a Flaw in My Flue" (Burke, Van Heusen) – 2:41
10. "Wait Till You See Her" (Rodgers, Hart) – 3:10
11. "Nothing in Common" (Van Heusen, Cahn) – 2:33
12. "Same Old Song and Dance" (Van Heusen, Cahn, Bobby Worth) – 2:54
13. "How Are Ya' Fixed for Love?" (Van Heusen, Cahn) – 2:28
14. "Where or When" (Rodgers, Hart) – 2:29
15. "It All Depends on You" (Henderson, Buddy G. DeSylva, Brown) – 2:04
16. "I Couldn't Care Less" (Van Heusen, Cahn) – 3:02
17. "The Song Is You" – 2:57
18. "The One I Love (Belongs to Somebody Else)" (Jones, Kahn) – 3:06
Доп. информация:
Exact Audio Copy V0.99 prebeta 4 from 23. January 2008

Отчёт EAC об извлечении, выполненном 10. мая 2009, 19:19

Frank Sinatra / Songs For Young Lovers (1998 UK Remaster)

Дисковод: Optiarc DVD RW AD-7170A Adapter: 0 ID: 0

Режим чтения : Достоверность
Использование точного потока : Да
Отключение кэша аудио : Да
Использование указателей C2 : Нет

Коррекция смещения при чтении : 48
Способность читать области Lead-in и Lead-out : Нет
Заполнение пропущенных сэмплов тишиной : Да
Удаление блоков с тишиной в начале и конце : Нет
При вычислениях CRC использовались нулевые сэмплы : Да
Интерфейс : Встроенный Win32-интерфейс для Win NT/2000

Выходной формат : Пользовательский кодировщик
Выбранный битрейт : 768 kBit/s
Качество : Высокий
Добавление ID3-тэга : Да
Утилита сжатия : C:\Program Files\Exact Audio Copy\Flac\flac.exe
Дополнительные параметры : -6 -V -T "ARTIST=%a" -T "TITLE=%t" -T "ALBUM=%g" -T "DATE=%y" -T "TRACKNUMBER=%n" -T "GENRE=%m" -T "COMMENT=%e" %s -o %d

TOC извлечённого CD

Трек | Старт | Длительность | Начальный сектор | Конечный сектор
---------------------------------------------------------------------
1 | 0:00.00 | 2:39.02 | 0 | 11926
2 | 2:39.02 | 1:59.65 | 11927 | 20916
3 | 4:38.67 | 3:07.60 | 20917 | 35001
4 | 7:46.52 | 2:59.03 | 35002 | 48429
5 | 10:45.55 | 3:14.35 | 48430 | 63014
6 | 14:00.15 | 2:54.65 | 63015 | 76129
7 | 16:55.05 | 3:13.02 | 76130 | 90606
8 | 20:08.07 | 2:41.68 | 90607 | 102749
9 | 22:50.00 | 2:55.05 | 102750 | 115879
10 | 25:45.05 | 2:50.07 | 115880 | 128636
11 | 28:35.12 | 2:56.70 | 128637 | 141906
12 | 31:32.07 | 2:31.28 | 141907 | 153259

Трек 1

Пиковый уровень 79.0 %
Качество трека 100.0 %
Копирование... OK

Трек 2

Пиковый уровень 75.5 %
Качество трека 100.0 %
Копирование... OK

Трек 3

Пиковый уровень 77.8 %
Качество трека 99.9 %
Копирование... OK

Трек 4

Пиковый уровень 56.9 %
Качество трека 100.0 %
Копирование... OK

Трек 5

Пиковый уровень 63.1 %
Качество трека 100.0 %
Копирование... OK

Трек 6

Пиковый уровень 74.5 %
Качество трека 100.0 %
Копирование... OK

Трек 7

Пиковый уровень 74.9 %
Качество трека 100.0 %
Копирование... OK

Трек 8

Пиковый уровень 72.4 %
Качество трека 100.0 %
Копирование... OK

Трек 9

Пиковый уровень 67.5 %
Качество трека 100.0 %
Копирование... OK

Трек 10

Пиковый уровень 61.1 %
Качество трека 100.0 %
Копирование... OK

Трек 11

Пиковый уровень 84.8 %
Качество трека 100.0 %
Копирование... OK

Трек 12

Пиковый уровень 84.7 %
Качество трека 100.0 %
Копирование... OK

AccurateRip: сводка

Трек 1 точное извлечение (доверие 8) [5807E4A5]
Трек 2 точное извлечение (доверие 8) [563144B4]
Трек 3 точное извлечение (доверие 8) [B7DAEFC1]
Трек 4 точное извлечение (доверие 8) [0D7E84F2]
Трек 5 точное извлечение (доверие 8) [D5364D7A]
Трек 6 точное извлечение (доверие 8) [76278B96]
Трек 7 точное извлечение (доверие 8) [74EC6AA6]
Трек 8 точное извлечение (доверие 8) [5A35C9F5]
Трек 9 точное извлечение (доверие 8) [9031786C]
Трек 10 точное извлечение (доверие 8) [6D34D9DB]
Трек 11 точное извлечение (доверие 8) [E902FDC7]
Трек 12 точное извлечение (доверие 8) [70465924]

Все треки извлечены точно

Ошибок не произошло

Конец отчёта
Exact Audio Copy V0.99 prebeta 4 from 23. January 2008

Отчёт EAC об извлечении, выполненном 10. мая 2009, 19:57

Frank Sinatra / Swing Easy

Дисковод: Optiarc DVD RW AD-7170A Adapter: 0 ID: 0

Режим чтения : Достоверность
Использование точного потока : Да
Отключение кэша аудио : Да
Использование указателей C2 : Нет

Коррекция смещения при чтении : 48
Способность читать области Lead-in и Lead-out : Нет
Заполнение пропущенных сэмплов тишиной : Да
Удаление блоков с тишиной в начале и конце : Нет
При вычислениях CRC использовались нулевые сэмплы : Да
Интерфейс : Встроенный Win32-интерфейс для Win NT/2000

Выходной формат : Пользовательский кодировщик
Выбранный битрейт : 768 kBit/s
Качество : Высокий
Добавление ID3-тэга : Нет
Утилита сжатия : C:\Program Files\Exact Audio Copy\Flac\flac.exe
Дополнительные параметры : -6 -V -T "ARTIST=%a" -T "TITLE=%t" -T "ALBUM=%g" -T "DATE=%y" -T "TRACKNUMBER=%n" -T "GENRE=%m" -T "COMMENT=%e" %s -o %d

TOC извлечённого CD

Трек | Старт | Длительность | Начальный сектор | Конечный сектор
---------------------------------------------------------------------
1 | 0:00.00 | 2:24.70 | 0 | 10869
2 | 2:24.70 | 2:14.55 | 10870 | 20974
3 | 4:39.50 | 2:17.35 | 20975 | 31284
4 | 6:57.10 | 2:34.15 | 31285 | 42849
5 | 9:31.25 | 2:28.17 | 42850 | 53966
6 | 11:59.42 | 2:29.08 | 53967 | 65149
7 | 14:28.50 | 2:27.12 | 65150 | 76186
8 | 16:55.62 | 2:08.70 | 76187 | 85856
9 | 19:04.57 | 2:44.73 | 85857 | 98229
10 | 21:49.55 | 2:41.62 | 98230 | 110366
11 | 24:31.42 | 2:31.25 | 110367 | 121716
12 | 27:02.67 | 3:14.68 | 121717 | 136334

Трек 1

Пиковый уровень 72.6 %
Качество трека 100.0 %
Копирование... OK

Трек 2

Пиковый уровень 67.9 %
Качество трека 99.9 %
Копирование... OK

Трек 3

Пиковый уровень 79.3 %
Качество трека 100.0 %
Копирование... OK

Трек 4

Пиковый уровень 71.5 %
Качество трека 100.0 %
Копирование... OK

Трек 5

Пиковый уровень 84.5 %
Качество трека 100.0 %
Копирование... OK

Трек 6

Пиковый уровень 80.5 %
Качество трека 99.9 %
Копирование... OK

Трек 7

Пиковый уровень 79.1 %
Качество трека 100.0 %
Копирование... OK

Трек 8

Пиковый уровень 75.7 %
Качество трека 100.0 %
Копирование... OK

Трек 9

Пиковый уровень 85.5 %
Качество трека 100.0 %
Копирование... OK

Трек 10

Пиковый уровень 85.9 %
Качество трека 100.0 %
Копирование... OK

Трек 11

Пиковый уровень 81.0 %
Качество трека 100.0 %
Копирование... OK

Трек 12

Пиковый уровень 76.1 %
Качество трека 100.0 %
Копирование... OK

AccurateRip: сводка

Трек 1 точное извлечение (доверие 10) [4ECB2273]
Трек 2 точное извлечение (доверие 9) [6592785A]
Трек 3 точное извлечение (доверие 8) [22DFE4A7]
Трек 4 точное извлечение (доверие 8) [44D7139F]
Трек 5 точное извлечение (доверие 8) [1C8B5726]
Трек 6 точное извлечение (доверие 8) [EF18ECDA]
Трек 7 точное извлечение (доверие 8) [400AD974]
Трек 8 точное извлечение (доверие 8) [F30EA454]
Трек 9 точное извлечение (доверие 8) [3B8B3480]
Трек 10 точное извлечение (доверие 8) [5522B623]
Трек 11 точное извлечение (доверие 8) [364D0CF0]
Трек 12 точное извлечение (доверие 8) [113F70DC]

Все треки извлечены точно

Ошибок не произошло

Конец отчёта
Exact Audio Copy V0.99 prebeta 4 from 23. January 2008

Отчёт EAC об извлечении, выполненном 10. мая 2009, 22:07

Frank Sinatra / In The Wee Small Hours

Дисковод: Optiarc DVD RW AD-7170A Adapter: 0 ID: 0

Режим чтения : Достоверность
Использование точного потока : Да
Отключение кэша аудио : Да
Использование указателей C2 : Нет

Коррекция смещения при чтении : 48
Способность читать области Lead-in и Lead-out : Нет
Заполнение пропущенных сэмплов тишиной : Да
Удаление блоков с тишиной в начале и конце : Нет
При вычислениях CRC использовались нулевые сэмплы : Да
Интерфейс : Встроенный Win32-интерфейс для Win NT/2000

Выходной формат : Пользовательский кодировщик
Выбранный битрейт : 768 kBit/s
Качество : Высокий
Добавление ID3-тэга : Да
Утилита сжатия : C:\Program Files\Exact Audio Copy\Flac\flac.exe
Дополнительные параметры : -6 -V -T "ARTIST=%a" -T "TITLE=%t" -T "ALBUM=%g" -T "DATE=%y" -T "TRACKNUMBER=%n" -T "GENRE=%m" -T "COMMENT=%e" %s -o %d

TOC извлечённого CD

Трек | Старт | Длительность | Начальный сектор | Конечный сектор
---------------------------------------------------------------------
1 | 0:00.00 | 3:02.35 | 0 | 13684
2 | 3:02.35 | 3:32.32 | 13685 | 29616
3 | 6:34.67 | 2:39.25 | 29617 | 41566
4 | 9:14.17 | 3:45.08 | 41567 | 58449
5 | 12:59.25 | 2:51.32 | 58450 | 71306
6 | 15:50.57 | 3:27.30 | 71307 | 86861
7 | 19:18.12 | 2:50.25 | 86862 | 99636
8 | 22:08.37 | 3:12.15 | 99637 | 114051
9 | 25:20.52 | 2:36.45 | 114052 | 125796
10 | 27:57.22 | 3:18.25 | 125797 | 140671
11 | 31:15.47 | 3:01.23 | 140672 | 154269
12 | 34:16.70 | 3:48.17 | 154270 | 171386
13 | 38:05.12 | 2:43.58 | 171387 | 183669
14 | 40:48.70 | 3:00.32 | 183670 | 197201
15 | 43:49.27 | 3:07.73 | 197202 | 211299
16 | 46:57.25 | 3:35.12 | 211300 | 227436

Трек 1

Пиковый уровень 70.0 %
Качество трека 100.0 %
Копирование... OK

Трек 2

Пиковый уровень 77.1 %
Качество трека 99.8 %
Копирование... OK

Трек 3

Пиковый уровень 81.4 %
Качество трека 99.9 %
Копирование... OK

Трек 4

Пиковый уровень 78.0 %
Качество трека 97.1 %
Копирование... OK

Трек 5

Пиковый уровень 82.0 %
Качество трека 100.0 %
Копирование... OK

Трек 6

Пиковый уровень 75.7 %
Качество трека 100.0 %
Копирование... OK

Трек 7

Пиковый уровень 82.1 %
Качество трека 100.0 %
Копирование... OK

Трек 8

Пиковый уровень 78.6 %
Качество трека 99.9 %
Копирование... OK

Трек 9

Пиковый уровень 79.4 %
Качество трека 100.0 %
Копирование... OK

Трек 10

Пиковый уровень 77.9 %
Качество трека 100.0 %
Копирование... OK

Трек 11

Пиковый уровень 73.6 %
Качество трека 100.0 %
Копирование... OK

Трек 12

Пиковый уровень 81.4 %
Качество трека 100.0 %
Копирование... OK

Трек 13

Пиковый уровень 81.2 %
Качество трека 99.9 %
Копирование... OK

Трек 14

Пиковый уровень 78.0 %
Качество трека 100.0 %
Копирование... OK

Трек 15

Пиковый уровень 77.5 %
Качество трека 99.9 %
Копирование... OK

Трек 16

Пиковый уровень 72.1 %
Качество трека 100.0 %
Копирование... OK

AccurateRip: сводка

Трек 1 точное извлечение (доверие 9) [AED1B73B]
Трек 2 точное извлечение (доверие 9) [4494B99F]
Трек 3 точное извлечение (доверие 9) [DFDB4EF5]
Трек 4 точность не определена (достоверность 9) [3F9F3B1C], AccurateRip вернул [B4FB14F2]
Трек 5 точное извлечение (доверие 9) [FED5F329]
Трек 6 точное извлечение (доверие 8) [3C35F1E6]
Трек 7 точное извлечение (доверие 9) [2EE1ECA3]
Трек 8 точное извлечение (доверие 8) [53CF6F39]
Трек 9 точное извлечение (доверие 8) [BD09F9C1]
Трек 10 точное извлечение (доверие 9) [967E40AE]
Трек 11 точное извлечение (доверие 9) [AC88A433]
Трек 12 точное извлечение (доверие 8) [4B56FA60]
Трек 13 точное извлечение (доверие 9) [2FE8422C]
Трек 14 точное извлечение (доверие 9) [03FE92AE]
Трек 15 точное извлечение (доверие 9) [DF862B51]
Трек 16 точное извлечение (доверие 9) [DDDCEB45]

15 трек(и) скопированы точно
1 трек(и) не удалось проверить на точность

Некоторые треки не прошли проверку на точность

Ошибок не произошло

Конец отчёта
Exact Audio Copy V0.99 prebeta 4 from 23. January 2008

Отчёт EAC об извлечении, выполненном 10. мая 2009, 22:40

Frank Sinatra / This Is Sinatra

Дисковод: Optiarc DVD RW AD-7170A Adapter: 0 ID: 0

Режим чтения : Достоверность
Использование точного потока : Да
Отключение кэша аудио : Да
Использование указателей C2 : Нет

Коррекция смещения при чтении : 48
Способность читать области Lead-in и Lead-out : Нет
Заполнение пропущенных сэмплов тишиной : Да
Удаление блоков с тишиной в начале и конце : Нет
При вычислениях CRC использовались нулевые сэмплы : Да
Интерфейс : Встроенный Win32-интерфейс для Win NT/2000

Выходной формат : Пользовательский кодировщик
Выбранный битрейт : 768 kBit/s
Качество : Высокий
Добавление ID3-тэга : Да
Утилита сжатия : C:\Program Files\Exact Audio Copy\Flac\flac.exe
Дополнительные параметры : -6 -V -T "ARTIST=%a" -T "TITLE=%t" -T "ALBUM=%g" -T "DATE=%y" -T "TRACKNUMBER=%n" -T "GENRE=%m" -T "COMMENT=%e" %s -o %d

TOC извлечённого CD

Трек | Старт | Длительность | Начальный сектор | Конечный сектор
---------------------------------------------------------------------
1 | 0:00.00 | 2:14.37 | 0 | 10086
2 | 2:14.37 | 3:07.53 | 10087 | 24164
3 | 5:22.15 | 2:41.40 | 24165 | 36279
4 | 8:03.55 | 3:01.00 | 36280 | 49854
5 | 11:04.55 | 2:52.35 | 49855 | 62789
6 | 13:57.15 | 3:27.60 | 62790 | 78374
7 | 17:25.00 | 3:12.50 | 78375 | 92824
8 | 20:37.50 | 2:53.55 | 92825 | 105854
9 | 23:31.30 | 3:04.47 | 105855 | 119701
10 | 26:36.02 | 3:15.33 | 119702 | 134359
11 | 29:51.35 | 3:00.57 | 134360 | 147916
12 | 32:52.17 | 3:07.08 | 147917 | 161949

Трек 1

Пиковый уровень 85.7 %
Качество трека 100.0 %
Копирование... OK

Трек 2

Пиковый уровень 74.6 %
Качество трека 100.0 %
Копирование... OK

Трек 3

Пиковый уровень 82.2 %
Качество трека 100.0 %
Копирование... OK

Трек 4

Пиковый уровень 79.6 %
Качество трека 100.0 %
Копирование... OK

Трек 5

Пиковый уровень 87.6 %
Качество трека 100.0 %
Копирование... OK

Трек 6

Пиковый уровень 63.8 %
Качество трека 100.0 %
Копирование... OK

Трек 7

Пиковый уровень 84.7 %
Качество трека 100.0 %
Копирование... OK

Трек 8

Пиковый уровень 65.5 %
Качество трека 100.0 %
Копирование... OK

Трек 9

Пиковый уровень 82.4 %
Качество трека 100.0 %
Копирование... OK

Трек 10

Пиковый уровень 62.6 %
Качество трека 99.9 %
Копирование... OK

Трек 11

Пиковый уровень 80.8 %
Качество трека 100.0 %
Копирование... OK

Трек 12

Пиковый уровень 77.6 %
Качество трека 100.0 %
Копирование... OK

AccurateRip: сводка

Трек 1 точное извлечение (доверие 9) [C4837255]
Трек 2 точное извлечение (доверие 8) [6EDE2E1F]
Трек 3 точное извлечение (доверие 8) [A277225D]
Трек 4 точное извлечение (доверие 8) [7D518723]
Трек 5 точное извлечение (доверие 8) [025636B3]
Трек 6 точное извлечение (доверие 8) [238C1FC0]
Трек 7 точное извлечение (доверие 8) [8C9A025E]
Трек 8 точное извлечение (доверие 8) [8B38D646]
Трек 9 точное извлечение (доверие 8) [14FA7A58]
Трек 10 точное извлечение (доверие 8) [6ADD2B4E]
Трек 11 точное извлечение (доверие 8) [1A7F977E]
Трек 12 точное извлечение (доверие 8) [4D073E5A]

Все треки извлечены точно

Ошибок не произошло

Конец отчёта
Exact Audio Copy V0.99 prebeta 4 from 23. January 2008

Отчёт EAC об извлечении, выполненном 10. мая 2009, 23:07

Frank Sinatra / Songs for Swingin' Lovers

Дисковод: Optiarc DVD RW AD-7170A Adapter: 0 ID: 0

Режим чтения : Достоверность
Использование точного потока : Да
Отключение кэша аудио : Да
Использование указателей C2 : Нет

Коррекция смещения при чтении : 48
Способность читать области Lead-in и Lead-out : Нет
Заполнение пропущенных сэмплов тишиной : Да
Удаление блоков с тишиной в начале и конце : Нет
При вычислениях CRC использовались нулевые сэмплы : Да
Интерфейс : Встроенный Win32-интерфейс для Win NT/2000

Выходной формат : Пользовательский кодировщик
Выбранный битрейт : 768 kBit/s
Качество : Высокий
Добавление ID3-тэга : Да
Утилита сжатия : C:\Program Files\Exact Audio Copy\Flac\flac.exe
Дополнительные параметры : -6 -V -T "ARTIST=%a" -T "TITLE=%t" -T "ALBUM=%g" -T "DATE=%y" -T "TRACKNUMBER=%n" -T "GENRE=%m" -T "COMMENT=%e" %s -o %d

TOC извлечённого CD

Трек | Старт | Длительность | Начальный сектор | Конечный сектор
---------------------------------------------------------------------
1 | 0:00.00 | 2:57.70 | 0 | 13344
2 | 2:57.70 | 2:37.12 | 13345 | 25131
3 | 5:35.07 | 2:19.38 | 25132 | 35594
4 | 7:54.45 | 2:49.57 | 35595 | 48326
5 | 10:44.27 | 2:32.38 | 48327 | 59764
6 | 13:16.65 | 3:57.32 | 59765 | 77571
7 | 17:14.22 | 2:45.08 | 77572 | 89954
8 | 19:59.30 | 2:42.07 | 89955 | 102111
9 | 22:41.37 | 3:45.50 | 102112 | 119036
10 | 26:27.12 | 2:31.73 | 119037 | 130434
11 | 28:59.10 | 4:27.17 | 130435 | 150476
12 | 33:26.27 | 3:08.53 | 150477 | 164629
13 | 36:35.05 | 2:54.55 | 164630 | 177734
14 | 39:29.60 | 2:44.50 | 177735 | 190084
15 | 42:14.35 | 2:45.20 | 190085 | 202479

Трек 1

Пиковый уровень 83.3 %
Качество трека 100.0 %
Копирование... OK

Трек 2

Пиковый уровень 80.7 %
Качество трека 99.9 %
Копирование... OK

Трек 3

Пиковый уровень 76.1 %
Качество трека 100.0 %
Копирование... OK

Трек 4

Пиковый уровень 81.3 %
Качество трека 100.0 %
Копирование... OK

Трек 5

Пиковый уровень 80.1 %
Качество трека 100.0 %
Копирование... OK

Трек 6

Пиковый уровень 87.5 %
Качество трека 100.0 %
Копирование... OK

Трек 7

Пиковый уровень 80.1 %
Качество трека 100.0 %
Копирование... OK

Трек 8

Пиковый уровень 74.5 %
Качество трека 100.0 %
Копирование... OK

Трек 9

Пиковый уровень 79.2 %
Качество трека 100.0 %
Копирование... OK

Трек 10

Пиковый уровень 78.8 %
Качество трека 100.0 %
Копирование... OK

Трек 11

Пиковый уровень 79.4 %
Качество трека 100.0 %
Копирование... OK

Трек 12

Пиковый уровень 81.7 %
Качество трека 99.9 %
Копирование... OK

Трек 13

Пиковый уровень 82.8 %
Качество трека 100.0 %
Копирование... OK

Трек 14

Пиковый уровень 78.1 %
Качество трека 100.0 %
Копирование... OK

Трек 15

Пиковый уровень 78.3 %
Качество трека 100.0 %
Копирование... OK

AccurateRip: сводка

Трек 1 точное извлечение (доверие 9) [8572B065]
Трек 2 точное извлечение (доверие 9) [D75194B3]
Трек 3 точное извлечение (доверие 9) [868E5F74]
Трек 4 точное извлечение (доверие 9) [8524F87E]
Трек 5 точное извлечение (доверие 9) [F8619BEE]
Трек 6 точное извлечение (доверие 9) [5331F541]
Трек 7 точное извлечение (доверие 9) [8D2D7A2E]
Трек 8 точное извлечение (доверие 9) [C688C8D4]
Трек 9 точное извлечение (доверие 10) [765C18B8]
Трек 10 точное извлечение (доверие 9) [8E090E54]
Трек 11 точное извлечение (доверие 9) [037EF064]
Трек 12 точное извлечение (доверие 9) [ACA3E76E]
Трек 13 точное извлечение (доверие 9) [0DF27813]
Трек 14 точное извлечение (доверие 9) [AD309026]
Трек 15 точное извлечение (доверие 9) [51C30A7D]

Все треки извлечены точно

Ошибок не произошло

Конец отчёта
Exact Audio Copy V0.99 prebeta 4 from 23. January 2008

Отчёт EAC об извлечении, выполненном 10. мая 2009, 23:29

Frank Sinatra / Close To You

Дисковод: Optiarc DVD RW AD-7170A Adapter: 0 ID: 0

Режим чтения : Достоверность
Использование точного потока : Да
Отключение кэша аудио : Да
Использование указателей C2 : Нет

Коррекция смещения при чтении : 48
Способность читать области Lead-in и Lead-out : Нет
Заполнение пропущенных сэмплов тишиной : Да
Удаление блоков с тишиной в начале и конце : Нет
При вычислениях CRC использовались нулевые сэмплы : Да
Интерфейс : Встроенный Win32-интерфейс для Win NT/2000

Выходной формат : Пользовательский кодировщик
Выбранный битрейт : 768 kBit/s
Качество : Высокий
Добавление ID3-тэга : Да
Утилита сжатия : C:\Program Files\Exact Audio Copy\Flac\flac.exe
Дополнительные параметры : -6 -V -T "ARTIST=%a" -T "TITLE=%t" -T "ALBUM=%g" -T "DATE=%y" -T "TRACKNUMBER=%n" -T "GENRE=%m" -T "COMMENT=%e" %s -o %d

TOC извлечённого CD

Трек | Старт | Длительность | Начальный сектор | Конечный сектор
---------------------------------------------------------------------
1 | 0:00.00 | 3:40.35 | 0 | 16534
2 | 3:40.35 | 4:24.12 | 16535 | 36346
3 | 8:04.47 | 2:45.18 | 36347 | 48739
4 | 10:49.65 | 3:22.52 | 48740 | 63941
5 | 14:12.42 | 3:37.13 | 63942 | 80229
6 | 17:49.55 | 4:52.45 | 80230 | 102174
7 | 22:42.25 | 3:41.25 | 102175 | 118774
8 | 26:23.50 | 3:00.52 | 118775 | 132326
9 | 29:24.27 | 3:16.63 | 132327 | 147089
10 | 32:41.15 | 3:50.45 | 147090 | 164384
11 | 36:31.60 | 3:28.10 | 164385 | 179994
12 | 39:59.70 | 4:09.65 | 179995 | 198734

Трек 1

Пиковый уровень 80.5 %
Качество трека 100.0 %
Копирование... OK

Трек 2

Пиковый уровень 80.7 %
Качество трека 99.9 %
Копирование... OK

Трек 3

Пиковый уровень 76.9 %
Качество трека 100.0 %
Копирование... OK

Трек 4

Пиковый уровень 77.4 %
Качество трека 100.0 %
Копирование... OK

Трек 5

Пиковый уровень 79.1 %
Качество трека 99.9 %
Копирование... OK

Трек 6

Пиковый уровень 70.2 %
Качество трека 100.0 %
Копирование... OK

Трек 7

Пиковый уровень 80.6 %
Качество трека 100.0 %
Копирование... OK

Трек 8

Пиковый уровень 76.7 %
Качество трека 100.0 %
Копирование... OK

Трек 9

Пиковый уровень 77.6 %
Качество трека 100.0 %
Копирование... OK

Трек 10

Пиковый уровень 74.0 %
Качество трека 99.9 %
Копирование... OK

Трек 11

Пиковый уровень 72.8 %
Качество трека 99.9 %
Копирование... OK

Трек 12

Пиковый уровень 66.5 %
Качество трека 100.0 %
Копирование... OK

AccurateRip: сводка

Трек 1 точное извлечение (доверие 8) [1054D40A]
Трек 2 точное извлечение (доверие 8) [5E220C74]
Трек 3 точное извлечение (доверие 8) [3958DE60]
Трек 4 точное извлечение (доверие 8) [AC26E263]
Трек 5 точное извлечение (доверие 8) [9BD467DD]
Трек 6 точное извлечение (доверие 8) [9DEF6584]
Трек 7 точное извлечение (доверие 8) [424FE492]
Трек 8 точное извлечение (доверие 8) [AF4EA90A]
Трек 9 точное извлечение (доверие 8) [14CF69E0]
Трек 10 точное извлечение (доверие 8) [E3C8ACFA]
Трек 11 точное извлечение (доверие 8) [83DF9AB6]
Трек 12 точное извлечение (доверие 8) [161BB6A9]

Все треки извлечены точно

Ошибок не произошло

Конец отчёта
Exact Audio Copy V0.99 prebeta 4 from 23. January 2008

Отчёт EAC об извлечении, выполненном 10. мая 2009, 23:53

Frank Sinatra / A Swingin' Affair

Дисковод: Optiarc DVD RW AD-7170A Adapter: 0 ID: 0

Режим чтения : Достоверность
Использование точного потока : Да
Отключение кэша аудио : Да
Использование указателей C2 : Нет

Коррекция смещения при чтении : 48
Способность читать области Lead-in и Lead-out : Нет
Заполнение пропущенных сэмплов тишиной : Да
Удаление блоков с тишиной в начале и конце : Нет
При вычислениях CRC использовались нулевые сэмплы : Да
Интерфейс : Встроенный Win32-интерфейс для Win NT/2000

Выходной формат : Пользовательский кодировщик
Выбранный битрейт : 768 kBit/s
Качество : Высокий
Добавление ID3-тэга : Да
Утилита сжатия : C:\Program Files\Exact Audio Copy\Flac\flac.exe
Дополнительные параметры : -6 -V -T "ARTIST=%a" -T "TITLE=%t" -T "ALBUM=%g" -T "DATE=%y" -T "TRACKNUMBER=%n" -T "GENRE=%m" -T "COMMENT=%e" %s -o %d

TOC извлечённого CD

Трек | Старт | Длительность | Начальный сектор | Конечный сектор
---------------------------------------------------------------------
1 | 0:00.00 | 4:02.72 | 0 | 18221
2 | 4:02.72 | 2:31.40 | 18222 | 29586
3 | 6:34.37 | 3:13.00 | 29587 | 44061
4 | 9:47.37 | 2:26.23 | 44062 | 55034
5 | 12:13.60 | 2:24.72 | 55035 | 65906
6 | 14:38.57 | 2:41.33 | 65907 | 78014
7 | 17:20.15 | 3:28.47 | 78015 | 93661
8 | 20:48.62 | 3:27.08 | 93662 | 109194
9 | 24:15.70 | 3:57.70 | 109195 | 127039
10 | 28:13.65 | 2:27.15 | 127040 | 138079
11 | 30:41.05 | 2:07.17 | 138080 | 147621
12 | 32:48.22 | 3:25.28 | 147622 | 163024
13 | 36:13.50 | 3:56.00 | 163025 | 180724
14 | 40:09.50 | 2:39.70 | 180725 | 192719
15 | 42:49.45 | 2:50.67 | 192720 | 205536

Трек 1

Пиковый уровень 84.5 %
Качество трека 100.0 %
Копирование... OK

Трек 2

Пиковый уровень 87.6 %
Качество трека 100.0 %
Копирование... OK

Трек 3

Пиковый уровень 82.1 %
Качество трека 100.0 %
Копирование... OK

Трек 4

Пиковый уровень 83.5 %
Качество трека 100.0 %
Копирование... OK

Трек 5

Пиковый уровень 80.0 %
Качество трека 100.0 %
Копирование... OK

Трек 6

Пиковый уровень 75.4 %
Качество трека 99.9 %
Копирование... OK

Трек 7

Пиковый уровень 78.3 %
Качество трека 99.9 %
Копирование... OK

Трек 8

Пиковый уровень 77.7 %
Качество трека 100.0 %
Копирование... OK

Трек 9

Пиковый уровень 85.2 %
Качество трека 100.0 %
Копирование... OK

Трек 10

Пиковый уровень 78.6 %
Качество трека 100.0 %
Копирование... OK

Трек 11

Пиковый уровень 78.6 %
Качество трека 100.0 %
Копирование... OK

Трек 12

Пиковый уровень 76.9 %
Качество трека 100.0 %
Копирование... OK

Трек 13

Пиковый уровень 81.2 %
Качество трека 100.0 %
Копирование... OK

Трек 14

Пиковый уровень 82.1 %
Качество трека 100.0 %
Копирование... OK

Трек 15

Пиковый уровень 83.6 %
Качество трека 100.0 %
Копирование... OK

AccurateRip: сводка

Трек 1 точное извлечение (доверие 7) [10C0230B]
Трек 2 точное извлечение (доверие 7) [730BB20A]
Трек 3 точное извлечение (доверие 7) [A68D1F63]
Трек 4 точное извлечение (доверие 7) [1B3A7DB8]
Трек 5 точное извлечение (доверие 7) [37DBAB3C]
Трек 6 точное извлечение (доверие 7) [C595B82E]
Трек 7 точное извлечение (доверие 7) [51487B0D]
Трек 8 точное извлечение (доверие 7) [0029A428]
Трек 9 точное извлечение (доверие 7) [F4C372E2]
Трек 10 точное извлечение (доверие 7) [1542A611]
Трек 11 точное извлечение (доверие 7) [9A3B8D34]
Трек 12 точное извлечение (доверие 7) [1B45BD8E]
Трек 13 точное извлечение (доверие 7) [FDD53905]
Трек 14 точное извлечение (доверие 7) [E0E3B81F]
Трек 15 точное извлечение (доверие 7) [3A6BC9B7]

Все треки извлечены точно

Ошибок не произошло

Конец отчёта
Exact Audio Copy V0.99 prebeta 4 from 23. January 2008

Отчёт EAC об извлечении, выполненном 11. мая 2009, 0:20

Frank Sinatra / Where Are You?

Дисковод: Optiarc DVD RW AD-7170A Adapter: 0 ID: 0

Режим чтения : Достоверность
Использование точного потока : Да
Отключение кэша аудио : Да
Использование указателей C2 : Нет

Коррекция смещения при чтении : 48
Способность читать области Lead-in и Lead-out : Нет
Заполнение пропущенных сэмплов тишиной : Да
Удаление блоков с тишиной в начале и конце : Нет
При вычислениях CRC использовались нулевые сэмплы : Да
Интерфейс : Встроенный Win32-интерфейс для Win NT/2000

Выходной формат : Пользовательский кодировщик
Выбранный битрейт : 768 kBit/s
Качество : Высокий
Добавление ID3-тэга : Да
Утилита сжатия : C:\Program Files\Exact Audio Copy\Flac\flac.exe
Дополнительные параметры : -6 -V -T "ARTIST=%a" -T "TITLE=%t" -T "ALBUM=%g" -T "DATE=%y" -T "TRACKNUMBER=%n" -T "GENRE=%m" -T "COMMENT=%e" %s -o %d

TOC извлечённого CD

Трек | Старт | Длительность | Начальный сектор | Конечный сектор
---------------------------------------------------------------------
1 | 0:00.00 | 3:30.27 | 0 | 15776
2 | 3:30.27 | 3:27.00 | 15777 | 31301
3 | 6:57.27 | 2:59.70 | 31302 | 44796
4 | 9:57.22 | 3:06.18 | 44797 | 58764
5 | 13:03.40 | 3:27.22 | 58765 | 74311
6 | 16:30.62 | 4:11.68 | 74312 | 93204
7 | 20:42.55 | 2:51.55 | 93205 | 106084
8 | 23:34.35 | 4:50.12 | 106085 | 127846
9 | 28:24.47 | 3:03.53 | 127847 | 141624
10 | 31:28.25 | 3:12.42 | 141625 | 156066
11 | 34:40.67 | 3:45.45 | 156067 | 172986
12 | 38:26.37 | 2:57.63 | 172987 | 186324

Трек 1

Пиковый уровень 87.6 %
Качество трека 100.0 %
Копирование... OK

Трек 2

Пиковый уровень 87.6 %
Качество трека 100.0 %
Копирование... OK

Трек 3

Пиковый уровень 83.7 %
Качество трека 100.0 %
Копирование... OK

Трек 4

Пиковый уровень 85.5 %
Качество трека 100.0 %
Копирование... OK

Трек 5

Пиковый уровень 87.6 %
Качество трека 99.9 %
Копирование... OK

Трек 6

Пиковый уровень 87.6 %
Качество трека 100.0 %
Копирование... OK

Трек 7

Пиковый уровень 87.6 %
Качество трека 99.9 %
Копирование... OK

Трек 8

Пиковый уровень 87.6 %
Качество трека 100.0 %
Копирование... OK

Трек 9

Пиковый уровень 80.4 %
Качество трека 99.5 %
Копирование... OK

Трек 10

Пиковый уровень 85.8 %
Качество трека 100.0 %
Копирование... OK

Трек 11

Пиковый уровень 85.2 %
Качество трека 99.9 %
Копирование... OK

Трек 12

Пиковый уровень 87.6 %
Качество трека 100.0 %
Копирование... OK

AccurateRip: сводка

Трек 1 точное извлечение (доверие 2) [6D60E084]
Трек 2 точное извлечение (доверие 2) [B7B9AA71]
Трек 3 точное извлечение (доверие 2) [6A02D3B2]
Трек 4 точное извлечение (доверие 2) [2E281269]
Трек 5 точное извлечение (доверие 2) [AEBEAC3E]
Трек 6 точное извлечение (доверие 2) [5C2442C2]
Трек 7 точное извлечение (доверие 2) [ECC9D47C]
Трек 8 точное извлечение (доверие 2) [DAD9656E]
Трек 9 точное извлечение (доверие 2) [4BB644F3]
Трек 10 точное извлечение (доверие 2) [59580BAB]
Трек 11 точное извлечение (доверие 2) [F103FD00]
Трек 12 точное извлечение (доверие 2) [A83974FE]

Все треки извлечены точно

Ошибок не произошло

Конец отчёта
Exact Audio Copy V0.99 prebeta 4 from 23. January 2008

Отчёт EAC об извлечении, выполненном 11. мая 2009, 11:05

Frank Sinatra / Come Fly With Me

Дисковод: Optiarc DVD RW AD-7170A Adapter: 0 ID: 0

Режим чтения : Достоверность
Использование точного потока : Да
Отключение кэша аудио : Да
Использование указателей C2 : Нет

Коррекция смещения при чтении : 48
Способность читать области Lead-in и Lead-out : Нет
Заполнение пропущенных сэмплов тишиной : Да
Удаление блоков с тишиной в начале и конце : Нет
При вычислениях CRC использовались нулевые сэмплы : Да
Интерфейс : Встроенный Win32-интерфейс для Win NT/2000

Выходной формат : Пользовательский кодировщик
Выбранный битрейт : 768 kBit/s
Качество : Высокий
Добавление ID3-тэга : Да
Утилита сжатия : C:\Program Files\Exact Audio Copy\Flac\flac.exe
Дополнительные параметры : -6 -V -T "ARTIST=%a" -T "TITLE=%t" -T "ALBUM=%g" -T "DATE=%y" -T "TRACKNUMBER=%n" -T "GENRE=%m" -T "COMMENT=%e" %s -o %d

TOC извлечённого CD

Трек | Старт | Длительность | Начальный сектор | Конечный сектор
---------------------------------------------------------------------
1 | 0:00.00 | 3:18.57 | 0 | 14906
2 | 3:18.57 | 3:20.40 | 14907 | 29946
3 | 6:39.22 | 2:29.03 | 29947 | 41124
4 | 9:08.25 | 3:31.50 | 41125 | 56999
5 | 12:40.00 | 4:36.37 | 57000 | 77736
6 | 17:16.37 | 3:29.05 | 77737 | 93416
7 | 20:45.42 | 2:10.58 | 93417 | 103224
8 | 22:56.25 | 2:50.27 | 103225 | 116001
9 | 25:46.52 | 3:30.03 | 116002 | 131754
10 | 29:16.55 | 2:55.47 | 131755 | 144926
11 | 32:12.27 | 2:43.20 | 144927 | 157171
12 | 34:55.47 | 3:49.18 | 157172 | 174364

Трек 1

Пиковый уровень 81.2 %
Качество трека 100.0 %
Копирование... OK

Трек 2

Пиковый уровень 64.0 %
Качество трека 99.9 %
Копирование... OK

Трек 3

Пиковый уровень 87.6 %
Качество трека 100.0 %
Копирование... OK

Трек 4

Пиковый уровень 69.6 %
Качество трека 100.0 %
Копирование... OK

Трек 5

Пиковый уровень 70.9 %
Качество трека 100.0 %
Копирование... OK

Трек 6

Пиковый уровень 84.4 %
Качество трека 100.0 %
Копирование... OK

Трек 7

Пиковый уровень 81.3 %
Качество трека 100.0 %
Копирование... OK

Трек 8

Пиковый уровень 78.7 %
Качество трека 100.0 %
Копирование... OK

Трек 9

Пиковый уровень 73.2 %
Качество трека 100.0 %
Копирование... OK

Трек 10

Пиковый уровень 82.4 %
Качество трека 100.0 %
Копирование... OK

Трек 11

Пиковый уровень 67.6 %
Качество трека 100.0 %
Копирование... OK

Трек 12

Пиковый уровень 87.6 %
Качество трека 100.0 %
Копирование... OK

AccurateRip: сводка

Трек 1 точное извлечение (доверие 7) [5EADEA72]
Трек 2 точное извлечение (доверие 7) [401BEEBF]
Трек 3 точное извлечение (доверие 7) [930C13EA]
Трек 4 точное извлечение (доверие 7) [80854916]
Трек 5 точное извлечение (доверие 7) [8B73AEED]
Трек 6 точное извлечение (доверие 7) [10F4D192]
Трек 7 точное извлечение (доверие 7) [6E5B758B]
Трек 8 точное извлечение (доверие 7) [30C53F93]
Трек 9 точное извлечение (доверие 7) [728CCD89]
Трек 10 точное извлечение (доверие 7) [F3F1DFF7]
Трек 11 точное извлечение (доверие 7) [FEE145A7]
Трек 12 точное извлечение (доверие 7) [8A5E631B]

Все треки извлечены точно

Ошибок не произошло

Конец отчёта
Exact Audio Copy V0.99 prebeta 4 from 23. January 2008

Отчёт EAC об извлечении, выполненном 11. мая 2009, 11:28

Frank Sinatra / This is Sinatra Volume Two

Дисковод: Optiarc DVD RW AD-7170A Adapter: 0 ID: 0

Режим чтения : Достоверность
Использование точного потока : Да
Отключение кэша аудио : Да
Использование указателей C2 : Нет

Коррекция смещения при чтении : 48
Способность читать области Lead-in и Lead-out : Нет
Заполнение пропущенных сэмплов тишиной : Да
Удаление блоков с тишиной в начале и конце : Нет
При вычислениях CRC использовались нулевые сэмплы : Да
Интерфейс : Встроенный Win32-интерфейс для Win NT/2000

Выходной формат : Пользовательский кодировщик
Выбранный битрейт : 768 kBit/s
Качество : Высокий
Добавление ID3-тэга : Да
Утилита сжатия : C:\Program Files\Exact Audio Copy\Flac\flac.exe
Дополнительные параметры : -6 -V -T "ARTIST=%a" -T "TITLE=%t" -T "ALBUM=%g" -T "DATE=%y" -T "TRACKNUMBER=%n" -T "GENRE=%m" -T "COMMENT=%e" %s -o %d

TOC извлечённого CD

Трек | Старт | Длительность | Начальный сектор | Конечный сектор
---------------------------------------------------------------------
1 | 0:00.00 | 2:24.62 | 0 | 10861
2 | 2:24.62 | 3:46.13 | 10862 | 27824
3 | 6:11.00 | 3:16.62 | 27825 | 42586
4 | 9:27.62 | 3:09.08 | 42587 | 56769
5 | 12:36.70 | 2:38.15 | 56770 | 68634
6 | 15:15.10 | 2:59.62 | 68635 | 82121
7 | 18:14.72 | 3:24.03 | 82122 | 97424
8 | 21:39.00 | 2:44.25 | 97425 | 109749
9 | 24:23.25 | 3:31.40 | 109750 | 125614
10 | 27:54.65 | 2:54.60 | 125615 | 138724
11 | 30:49.50 | 2:54.20 | 138725 | 151794
12 | 33:43.70 | 3:58.20 | 151795 | 169664
13 | 37:42.15 | 2:50.20 | 169665 | 182434
14 | 40:32.35 | 3:06.72 | 182435 | 196456
15 | 43:39.32 | 2:33.68 | 196457 | 207999
16 | 46:13.25 | 3:12.57 | 208000 | 222456

Трек 1

Пиковый уровень 81.6 %
Качество трека 100.0 %
Копирование... OK

Трек 2

Пиковый уровень 85.4 %
Качество трека 100.0 %
Копирование... OK

Трек 3

Пиковый уровень 73.2 %
Качество трека 100.0 %
Копирование... OK

Трек 4

Пиковый уровень 81.9 %
Качество трека 100.0 %
Копирование... OK

Трек 5

Пиковый уровень 90.8 %
Качество трека 100.0 %
Копирование... OK

Трек 6

Пиковый уровень 74.9 %
Качество трека 100.0 %
Копирование... OK

Трек 7

Пиковый уровень 71.7 %
Качество трека 100.0 %
Копирование... OK
Копирование... OK

Трек 8

Пиковый уровень 78.6 %
Качество трека 100.0 %
Копирование... OK

Трек 9

Пиковый уровень 74.9 %
Качество трека 100.0 %
Копирование... OK

Трек 10

Пиковый уровень 80.6 %
Качество трека 100.0 %
Копирование... OK

Трек 11

Пиковый уровень 69.9 %
Качество трека 99.9 %
Копирование... OK

Трек 12

Пиковый уровень 77.3 %
Качество трека 100.0 %
Копирование... OK

Трек 13

Пиковый уровень 84.1 %
Качество трека 100.0 %
Копирование... OK

Трек 14

Пиковый уровень 81.0 %
Качество трека 100.0 %
Копирование... OK

Трек 15

Пиковый уровень 80.9 %
Качество трека 100.0 %
Копирование... OK

Трек 16

Пиковый уровень 77.0 %
Качество трека 100.0 %
Копирование... OK

AccurateRip: сводка

Трек 1 точное извлечение (доверие 7) [B84CF8BD]
Трек 2 точное извлечение (доверие 7) [9FA2CDE9]
Трек 3 точное извлечение (доверие 7) [3F3E9D9A]
Трек 4 точное извлечение (доверие 7) [140A10B3]
Трек 5 точное извлечение (доверие 7) [89079C31]
Трек 6 точное извлечение (доверие 7) [6932E8A1]
Трек 7 точное извлечение (доверие 7) [0CBEB218]
Трек 8 точное извлечение (доверие 7) [92BB0086]
Трек 9 точное извлечение (доверие 7) [CA342F3C]
Трек 10 точное извлечение (доверие 7) [67FAD27E]
Трек 11 точное извлечение (доверие 7) [61DA0186]
Трек 12 точное извлечение (доверие 7) [91970C49]
Трек 13 точное извлечение (доверие 7) [D2FE241E]
Трек 14 точное извлечение (доверие 7) [7EC1BD1C]
Трек 15 точное извлечение (доверие 7) [463DE2AC]
Трек 16 точное извлечение (доверие 7) [A6488DCC]

Все треки извлечены точно

Ошибок не произошло

Конец отчёта
Exact Audio Copy V0.99 prebeta 4 from 23. January 2008

Отчёт EAC об извлечении, выполненном 11. мая 2009, 11:50

Sinatra, Frank / Nice 'N' Easy

Дисковод: Optiarc DVD RW AD-7170A Adapter: 0 ID: 0

Режим чтения : Достоверность
Использование точного потока : Да
Отключение кэша аудио : Да
Использование указателей C2 : Нет

Коррекция смещения при чтении : 48
Способность читать области Lead-in и Lead-out : Нет
Заполнение пропущенных сэмплов тишиной : Да
Удаление блоков с тишиной в начале и конце : Нет
При вычислениях CRC использовались нулевые сэмплы : Да
Интерфейс : Встроенный Win32-интерфейс для Win NT/2000

Выходной формат : Пользовательский кодировщик
Выбранный битрейт : 768 kBit/s
Качество : Высокий
Добавление ID3-тэга : Да
Утилита сжатия : C:\Program Files\Exact Audio Copy\Flac\flac.exe
Дополнительные параметры : -6 -V -T "ARTIST=%a" -T "TITLE=%t" -T "ALBUM=%g" -T "DATE=%y" -T "TRACKNUMBER=%n" -T "GENRE=%m" -T "COMMENT=%e" %s -o %d

TOC извлечённого CD

Трек | Старт | Длительность | Начальный сектор | Конечный сектор
---------------------------------------------------------------------
1 | 0:00.00 | 2:47.65 | 0 | 12589
2 | 2:47.65 | 3:35.27 | 12590 | 28741
3 | 6:23.17 | 3:16.13 | 28742 | 43454
4 | 9:39.30 | 2:18.00 | 43455 | 53804
5 | 11:57.30 | 4:29.07 | 53805 | 73986
6 | 16:26.37 | 3:22.38 | 73987 | 89174
7 | 19:49.00 | 3:19.32 | 89175 | 104131
8 | 23:08.32 | 3:57.15 | 104132 | 121921
9 | 27:05.47 | 3:23.03 | 121922 | 137149
10 | 30:28.50 | 3:25.50 | 137150 | 152574
11 | 33:54.25 | 2:48.42 | 152575 | 165216
12 | 36:42.67 | 2:55.60 | 165217 | 178401

Трек 1

Пиковый уровень 81.7 %
Качество трека 99.9 %
Копирование... OK

Трек 2

Пиковый уровень 86.0 %
Качество трека 99.9 %
Копирование... OK

Трек 3

Пиковый уровень 79.7 %
Качество трека 100.0 %
Копирование... OK

Трек 4

Пиковый уровень 69.5 %
Качество трека 100.0 %
Копирование... OK

Трек 5

Пиковый уровень 80.1 %
Качество трека 99.9 %
Копирование... OK

Трек 6

Пиковый уровень 72.8 %
Качество трека 100.0 %
Копирование... OK

Трек 7

Пиковый уровень 76.7 %
Качество трека 99.9 %
Копирование... OK

Трек 8

Пиковый уровень 74.7 %
Качество трека 100.0 %
Копирование... OK

Трек 9

Пиковый уровень 67.8 %
Качество трека 100.0 %
Копирование... OK

Трек 10

Пиковый уровень 63.7 %
Качество трека 100.0 %
Копирование... OK

Трек 11

Пиковый уровень 66.5 %
Качество трека 100.0 %
Копирование... OK

Трек 12

Пиковый уровень 72.4 %
Качество трека 100.0 %
Копирование... OK

AccurateRip: сводка

Трек 1 точное извлечение (доверие 9) [3F93DA0B]
Трек 2 точное извлечение (доверие 9) [23CE940D]
Трек 3 точное извлечение (доверие 9) [9DAC57D7]
Трек 4 точное извлечение (доверие 9) [098BB1A4]
Трек 5 точное извлечение (доверие 9) [227D174F]
Трек 6 точное извлечение (доверие 9) [22E9F7FC]
Трек 7 точное извлечение (доверие 9) [AE10AAF2]
Трек 8 точное извлечение (доверие 9) [7C0AE400]
Трек 9 точное извлечение (доверие 9) [54463FA7]
Трек 10 точное извлечение (доверие 9) [D13A69E7]
Трек 11 точное извлечение (доверие 9) [53C4715B]
Трек 12 точное извлечение (доверие 9) [EA614FFE]

Все треки извлечены точно

Ошибок не произошло

Конец отчёта
Exact Audio Copy V0.99 prebeta 4 from 23. January 2008

Отчёт EAC об извлечении, выполненном 11. мая 2009, 12:06

Frank Sinatra / Come Dance with Me

Дисковод: Optiarc DVD RW AD-7170A Adapter: 0 ID: 0

Режим чтения : Достоверность
Использование точного потока : Да
Отключение кэша аудио : Да
Использование указателей C2 : Нет

Коррекция смещения при чтении : 48
Способность читать области Lead-in и Lead-out : Нет
Заполнение пропущенных сэмплов тишиной : Да
Удаление блоков с тишиной в начале и конце : Нет
При вычислениях CRC использовались нулевые сэмплы : Да
Интерфейс : Встроенный Win32-интерфейс для Win NT/2000

Выходной формат : Пользовательский кодировщик
Выбранный битрейт : 768 kBit/s
Качество : Высокий
Добавление ID3-тэга : Да
Утилита сжатия : C:\Program Files\Exact Audio Copy\Flac\flac.exe
Дополнительные параметры : -6 -V -T "ARTIST=%a" -T "TITLE=%t" -T "ALBUM=%g" -T "DATE=%y" -T "TRACKNUMBER=%n" -T "GENRE=%m" -T "COMMENT=%e" %s -o %d

TOC извлечённого CD

Трек | Старт | Длительность | Начальный сектор | Конечный сектор
---------------------------------------------------------------------
1 | 0:00.00 | 2:31.57 | 0 | 11381
2 | 2:31.57 | 2:37.03 | 11382 | 23159
3 | 5:08.60 | 2:24.35 | 23160 | 33994
4 | 7:33.20 | 2:26.27 | 33995 | 44971
5 | 9:59.47 | 2:34.70 | 44972 | 56591
6 | 12:34.42 | 2:40.45 | 56592 | 68636
7 | 15:15.12 | 1:54.63 | 68637 | 77249
8 | 17:10.00 | 3:24.45 | 77250 | 92594
9 | 20:34.45 | 3:06.22 | 92595 | 106566
10 | 23:40.67 | 2:46.08 | 106567 | 119024
11 | 26:27.00 | 2:43.00 | 119025 | 131249
12 | 29:10.00 | 2:09.27 | 131250 | 140951

Трек 1

Пиковый уровень 80.3 %
Качество трека 100.0 %
Копирование... OK

Трек 2

Пиковый уровень 87.6 %
Качество трека 100.0 %
Копирование... OK

Трек 3

Пиковый уровень 85.8 %
Качество трека 100.0 %
Копирование... OK

Трек 4

Пиковый уровень 87.6 %
Качество трека 100.0 %
Копирование... OK

Трек 5

Пиковый уровень 84.2 %
Качество трека 100.0 %
Копирование... OK

Трек 6

Пиковый уровень 84.0 %
Качество трека 100.0 %
Копирование... OK

Трек 7

Пиковый уровень 87.6 %
Качество трека 99.9 %
Копирование... OK

Трек 8

Пиковый уровень 85.9 %
Качество трека 100.0 %
Копирование... OK

Трек 9

Пиковый уровень 80.7 %
Качество трека 100.0 %
Копирование... OK

Трек 10

Пиковый уровень 87.6 %
Качество трека 100.0 %
Копирование... OK

Трек 11

Пиковый уровень 87.5 %
Качество трека 100.0 %
Копирование... OK

Трек 12

Пиковый уровень 78.9 %
Качество трека 100.0 %
Копирование... OK

AccurateRip: сводка

Трек 1 точное извлечение (доверие 8) [912B5A7F]
Трек 2 точное извлечение (доверие 8) [2B40425B]
Трек 3 точное извлечение (доверие 8) [4FB5D78B]
Трек 4 точное извлечение (доверие 8) [E1C9A636]
Трек 5 точное извлечение (доверие 8) [2A08619D]
Трек 6 точное извлечение (доверие 8) [DB08CB3E]
Трек 7 точное извлечение (доверие 8) [68CD1CFA]
Трек 8 точное извлечение (доверие 8) [A4E5FE50]
Трек 9 точное извлечение (доверие 8) [30F701C9]
Трек 10 точное извлечение (доверие 8) [77D3A718]
Трек 11 точное извлечение (доверие 8) [F10C286D]
Трек 12 точное извлечение (доверие 8) [29B772BD]

Все треки извлечены точно

Ошибок не произошло

Конец отчёта
Exact Audio Copy V0.99 prebeta 4 from 23. January 2008

Отчёт EAC об извлечении, выполненном 11. мая 2009, 12:27

Frank Sinatra / No One Cares

Дисковод: Optiarc DVD RW AD-7170A Adapter: 0 ID: 0

Режим чтения : Достоверность
Использование точного потока : Да
Отключение кэша аудио : Да
Использование указателей C2 : Нет

Коррекция смещения при чтении : 48
Способность читать области Lead-in и Lead-out : Нет
Заполнение пропущенных сэмплов тишиной : Да
Удаление блоков с тишиной в начале и конце : Нет
При вычислениях CRC использовались нулевые сэмплы : Да
Интерфейс : Встроенный Win32-интерфейс для Win NT/2000

Выходной формат : Пользовательский кодировщик
Выбранный битрейт : 768 kBit/s
Качество : Высокий
Добавление ID3-тэга : Да
Утилита сжатия : C:\Program Files\Exact Audio Copy\Flac\flac.exe
Дополнительные параметры : -6 -V -T "ARTIST=%a" -T "TITLE=%t" -T "ALBUM=%g" -T "DATE=%y" -T "TRACKNUMBER=%n" -T "GENRE=%m" -T "COMMENT=%e" %s -o %d

TOC извлечённого CD

Трек | Старт | Длительность | Начальный сектор | Конечный сектор
---------------------------------------------------------------------
1 | 0:00.00 | 2:45.40 | 0 | 12414
2 | 2:45.40 | 3:19.12 | 12415 | 27351
3 | 6:04.52 | 3:23.48 | 27352 | 42624
4 | 9:28.25 | 2:35.52 | 42625 | 54301
5 | 12:04.02 | 3:19.43 | 54302 | 69269
6 | 15:23.45 | 3:37.02 | 69270 | 85546
7 | 19:00.47 | 4:03.60 | 85547 | 103831
8 | 23:04.32 | 3:44.68 | 103832 | 120699
9 | 26:49.25 | 3:42.30 | 120700 | 137379
10 | 30:31.55 | 3:48.65 | 137380 | 154544
11 | 34:20.45 | 3:42.27 | 154545 | 171221
12 | 38:02.72 | 3:05.30 | 171222 | 185126

Трек 1

Пиковый уровень 87.1 %
Качество трека 100.0 %
Копирование... OK

Трек 2

Пиковый уровень 87.6 %
Качество трека 100.0 %
Копирование... OK

Трек 3

Пиковый уровень 87.6 %
Качество трека 100.0 %
Копирование... OK

Трек 4

Пиковый уровень 87.4 %
Качество трека 99.9 %
Копирование... OK

Трек 5

Пиковый уровень 81.5 %
Качество трека 100.0 %
Копирование... OK

Трек 6

Пиковый уровень 82.9 %
Качество трека 99.9 %
Копирование... OK

Трек 7

Пиковый уровень 87.6 %
Качество трека 100.0 %
Копирование... OK

Трек 8

Пиковый уровень 86.4 %
Качество трека 100.0 %
Копирование... OK

Трек 9

Пиковый уровень 87.6 %
Качество трека 99.9 %
Копирование... OK

Трек 10

Пиковый уровень 87.3 %
Качество трека 100.0 %
Копирование... OK

Трек 11

Пиковый уровень 87.6 %
Качество трека 100.0 %
Копирование... OK

Трек 12

Пиковый уровень 75.0 %
Качество трека 100.0 %
Копирование... OK

AccurateRip: сводка

Трек 1 точное извлечение (доверие 8) [65867ECC]
Трек 2 точное извлечение (доверие 8) [609B87EF]
Трек 3 точное извлечение (доверие 8) [6508F7CF]
Трек 4 точное извлечение (доверие 8) [CF379772]
Трек 5 точное извлечение (доверие 8) [3159F636]
Трек 6 точное извлечение (доверие 8) [F9103A2A]
Трек 7 точное извлечение (доверие 8) [9D73F208]
Трек 8 точное извлечение (доверие 8) [7A5F61B7]
Трек 9 точное извлечение (доверие 8) [54055A57]
Трек 10 точное извлечение (доверие 8) [2481AEA1]
Трек 11 точное извлечение (доверие 8) [08387CCD]
Трек 12 точность не определена (достоверность 8) [01981DF8], AccurateRip вернул [AA071D2F]

11 трек(и) скопированы точно
1 трек(и) не удалось проверить на точность

Некоторые треки не прошли проверку на точность

Ошибок не произошло

Конец отчёта
Exact Audio Copy V0.99 prebeta 4 from 23. January 2008

Отчёт EAC об извлечении, выполненном 11. мая 2009, 12:46

Frank Sinatra / Look To Your Heart

Дисковод: Optiarc DVD RW AD-7170A Adapter: 0 ID: 0

Режим чтения : Достоверность
Использование точного потока : Да
Отключение кэша аудио : Да
Использование указателей C2 : Нет

Коррекция смещения при чтении : 48
Способность читать области Lead-in и Lead-out : Нет
Заполнение пропущенных сэмплов тишиной : Да
Удаление блоков с тишиной в начале и конце : Нет
При вычислениях CRC использовались нулевые сэмплы : Да
Интерфейс : Встроенный Win32-интерфейс для Win NT/2000

Выходной формат : Пользовательский кодировщик
Выбранный битрейт : 768 kBit/s
Качество : Высокий
Добавление ID3-тэга : Да
Утилита сжатия : C:\Program Files\Exact Audio Copy\Flac\flac.exe
Дополнительные параметры : -6 -V -T "ARTIST=%a" -T "TITLE=%t" -T "ALBUM=%g" -T "DATE=%y" -T "TRACKNUMBER=%n" -T "GENRE=%m" -T "COMMENT=%e" %s -o %d

TOC извлечённого CD

Трек | Старт | Длительность | Начальный сектор | Конечный сектор
---------------------------------------------------------------------
1 | 0:00.00 | 3:10.02 | 0 | 14251
2 | 3:10.02 | 2:45.35 | 14252 | 26661
3 | 5:55.37 | 2:47.08 | 26662 | 39194
4 | 8:42.45 | 3:16.00 | 39195 | 53894
5 | 11:58.45 | 2:56.30 | 53895 | 67124
6 | 14:55.00 | 2:31.55 | 67125 | 78504
7 | 17:26.55 | 2:59.57 | 78505 | 91986
8 | 20:26.37 | 3:14.48 | 91987 | 106584
9 | 23:41.10 | 3:18.37 | 106585 | 121471
10 | 26:59.47 | 2:56.50 | 121472 | 134721
11 | 29:56.22 | 2:56.00 | 134722 | 147921
12 | 32:52.22 | 1:54.20 | 147922 | 156491

Трек 1

Пиковый уровень 78.6 %
Качество трека 100.0 %
Копирование... OK

Трек 2

Пиковый уровень 64.6 %
Качество трека 100.0 %
Копирование... OK

Трек 3

Пиковый уровень 67.4 %
Качество трека 100.0 %
Копирование... OK

Трек 4

Пиковый уровень 65.0 %
Качество трека 100.0 %
Копирование... OK

Трек 5

Пиковый уровень 70.8 %
Качество трека 100.0 %
Копирование... OK

Трек 6

Пиковый уровень 76.2 %
Качество трека 99.9 %
Копирование... OK

Трек 7

Пиковый уровень 87.6 %
Качество трека 100.0 %
Копирование... OK

Трек 8

Пиковый уровень 67.2 %
Качество трека 100.0 %
Копирование... OK

Трек 9

Пиковый уровень 59.8 %
Качество трека 100.0 %
Копирование... OK

Трек 10

Пиковый уровень 68.5 %
Качество трека 100.0 %
Копирование... OK

Трек 11

Пиковый уровень 74.5 %
Качество трека 100.0 %
Копирование... OK

Трек 12

Пиковый уровень 83.2 %
Качество трека 100.0 %
Копирование... OK

AccurateRip: сводка

Трек 1 точное извлечение (доверие 7) [15F39D9D]
Трек 2 точное извлечение (доверие 7) [3E051B2C]
Трек 3 точное извлечение (доверие 7) [FD97C693]
Трек 4 точное извлечение (доверие 7) [C8006131]
Трек 5 точное извлечение (доверие 7) [07534298]
Трек 6 точное извлечение (доверие 7) [CA402710]
Трек 7 точное извлечение (доверие 7) [0893DA6B]
Трек 8 точное извлечение (доверие 7) [957B290D]
Трек 9 точное извлечение (доверие 7) [5395E621]
Трек 10 точное извлечение (доверие 7) [D8164D5F]
Трек 11 точное извлечение (доверие 7) [0375D0A1]
Трек 12 точное извлечение (доверие 7) [9F97ACBB]

Все треки извлечены точно

Ошибок не произошло

Конец отчёта
Exact Audio Copy V0.99 prebeta 4 from 23. January 2008

Отчёт EAC об извлечении, выполненном 11. мая 2009, 13:08

Frank Sinatra / Only The Lonely (Mobile Fidelity)

Дисковод: Optiarc DVD RW AD-7170A Adapter: 0 ID: 0

Режим чтения : Достоверность
Использование точного потока : Да
Отключение кэша аудио : Да
Использование указателей C2 : Нет

Коррекция смещения при чтении : 48
Способность читать области Lead-in и Lead-out : Нет
Заполнение пропущенных сэмплов тишиной : Да
Удаление блоков с тишиной в начале и конце : Нет
При вычислениях CRC использовались нулевые сэмплы : Да
Интерфейс : Встроенный Win32-интерфейс для Win NT/2000

Выходной формат : Пользовательский кодировщик
Выбранный битрейт : 768 kBit/s
Качество : Высокий
Добавление ID3-тэга : Да
Утилита сжатия : C:\Program Files\Exact Audio Copy\Flac\flac.exe
Дополнительные параметры : -6 -V -T "ARTIST=%a" -T "TITLE=%t" -T "ALBUM=%g" -T "DATE=%y" -T "TRACKNUMBER=%n" -T "GENRE=%m" -T "COMMENT=%e" %s -o %d

TOC извлечённого CD

Трек | Старт | Длительность | Начальный сектор | Конечный сектор
---------------------------------------------------------------------
1 | 0:00.00 | 4:10.45 | 0 | 18794
2 | 4:10.45 | 3:46.22 | 18795 | 35766
3 | 7:56.67 | 5:13.33 | 35767 | 59274
4 | 13:10.25 | 4:18.07 | 59275 | 78631
5 | 17:28.32 | 4:49.33 | 78632 | 100339
6 | 22:17.65 | 5:45.10 | 100340 | 126224
7 | 28:03.00 | 4:44.47 | 126225 | 147571
8 | 32:47.47 | 4:00.35 | 147572 | 165606
9 | 36:48.07 | 3:18.03 | 165607 | 180459
10 | 40:06.10 | 4:47.47 | 180460 | 202031
11 | 44:53.57 | 5:15.68 | 202032 | 225724
12 | 50:09.50 | 4:23.42 | 225725 | 245491

Трек 1

Пиковый уровень 87.6 %
Качество трека 100.0 %
Копирование... OK

Трек 2

Пиковый уровень 82.8 %
Качество трека 100.0 %
Копирование... OK

Трек 3

Пиковый уровень 84.7 %
Качество трека 100.0 %
Копирование... OK

Трек 4

Пиковый уровень 86.8 %
Качество трека 100.0 %
Копирование... OK

Трек 5

Пиковый уровень 87.6 %
Качество трека 100.0 %
Копирование... OK

Трек 6

Пиковый уровень 87.6 %
Качество трека 100.0 %
Копирование... OK

Трек 7

Пиковый уровень 85.3 %
Качество трека 100.0 %
Копирование... OK

Трек 8

Пиковый уровень 80.5 %
Качество трека 100.0 %
Копирование... OK

Трек 9

Пиковый уровень 87.6 %
Качество трека 100.0 %
Копирование... OK

Трек 10

Пиковый уровень 77.4 %
Качество трека 100.0 %
Копирование... OK

Трек 11,

Пиковый уровень 85.3 %
Качество трека 100.0 %
Копирование... OK

Трек 12

Пиковый уровень 87.5 %
Качество трека 100.0 %
Копирование... OK

AccurateRip: сводка

Трек 1 точное извлечение (доверие 7) [1F39F4BE]
Трек 2 точное извлечение (доверие 7) [E045423D]
Трек 3 точное извлечение (доверие 7) [EC456773]
Трек 4 точное извлечение (доверие 7) [1C71DCBF]
Трек 5 точное извлечение (доверие 7) [B59EF805]
Трек 6 точное извлечение (доверие 7) [B10EDDA4]
Трек 7 точное извлечение (доверие 7) [0F4D28A0]
Трек 8 точное извлечение (доверие 7) [50EAB2F2]
Трек 9 точное извлечение (доверие 7) [9E848308]
Трек 10 точное извлечение (доверие 7) [1E4322B4]
Трек 11 точное извлечение (доверие 7) [894F9F76]
Трек 12 точное извлечение (доверие 7) [A6E038C3]

Все треки извлечены точно

Ошибок не произошло

Конец отчёта
Exact Audio Copy V0.99 prebeta 4 from 23. January 2008

Отчёт EAC об извлечении, выполненном 11. мая 2009, 13:27

Frank Sinatra / Come Swing With Me!

Дисковод: Optiarc DVD RW AD-7170A Adapter: 0 ID: 0

Режим чтения : Достоверность
Использование точного потока : Да
Отключение кэша аудио : Да
Использование указателей C2 : Нет

Коррекция смещения при чтении : 48
Способность читать области Lead-in и Lead-out : Нет
Заполнение пропущенных сэмплов тишиной : Да
Удаление блоков с тишиной в начале и конце : Нет
При вычислениях CRC использовались нулевые сэмплы : Да
Интерфейс : Встроенный Win32-интерфейс для Win NT/2000

Выходной формат : Пользовательский кодировщик
Выбранный битрейт : 768 kBit/s
Качество : Высокий
Добавление ID3-тэга : Да
Утилита сжатия : C:\Program Files\Exact Audio Copy\Flac\flac.exe
Дополнительные параметры : -6 -V -T "ARTIST=%a" -T "TITLE=%t" -T "ALBUM=%g" -T "DATE=%y" -T "TRACKNUMBER=%n" -T "GENRE=%m" -T "COMMENT=%e" %s -o %d

TOC извлечённого CD

Трек | Старт | Длительность | Начальный сектор | Конечный сектор
---------------------------------------------------------------------
1 | 0:00.00 | 2:41.15 | 0 | 12089
2 | 2:41.15 | 3:26.02 | 12090 | 27541
3 | 6:07.17 | 2:03.23 | 27542 | 36789
4 | 8:10.40 | 2:36.72 | 36790 | 48561
5 | 10:47.37 | 2:23.13 | 48562 | 59299
6 | 13:10.50 | 2:37.07 | 59300 | 71081
7 | 15:47.57 | 2:42.65 | 71082 | 83296
8 | 18:30.47 | 1:59.63 | 83297 | 92284
9 | 20:30.35 | 4:05.47 | 92285 | 110706
10 | 24:36.07 | 1:54.08 | 110707 | 119264
11 | 26:30.15 | 2:09.30 | 119265 | 128969
12 | 28:39.45 | 2:31.60 | 128970 | 140354

Трек 1

Пиковый уровень 82.1 %
Качество трека 100.0 %
Копирование... OK

Трек 2

Пиковый уровень 80.6 %
Качество трека 100.0 %
Копирование... OK

Трек 3

Пиковый уровень 88.8 %
Качество трека 100.0 %
Копирование... OK

Трек 4

Пиковый уровень 91.7 %
Качество трека 100.0 %
Копирование... OK

Трек 5

Пиковый уровень 81.3 %
Качество трека 99.9 %
Копирование... OK

Трек 6

Пиковый уровень 85.7 %
Качество трека 100.0 %
Копирование... OK

Трек 7

Пиковый уровень 91.6 %
Качество трека 100.0 %
Копирование... OK

Трек 8

Пиковый уровень 87.4 %
Качество трека 100.0 %
Копирование... OK

Трек 9

Пиковый уровень 85.9 %
Качество трека 100.0 %
Копирование... OK

Трек 10

Пиковый уровень 87.4 %
Качество трека 100.0 %
Копирование... OK

Трек 11

Пиковый уровень 86.8 %
Качество трека 100.0 %
Копирование... OK

Трек 12

Пиковый уровень 87.8 %
Качество трека 100.0 %
Копирование... OK

AccurateRip: сводка

Трек 1 точное извлечение (доверие 8) [78BBF53C]
Трек 2 точное извлечение (доверие 8) [200A6102]
Трек 3 точное извлечение (доверие 8) [204D1BCE]
Трек 4 точное извлечение (доверие 8) [25A323EA]
Трек 5 точное извлечение (доверие 8) [D0B4B35E]
Трек 6 точное извлечение (доверие 8) [D9C1CC4B]
Трек 7 точное извлечение (доверие 8) [DEEDB08E]
Трек 8 точное извлечение (доверие 8) [99FBDF04]
Трек 9 точное извлечение (доверие 8) [7CFAC773]
Трек 10 точное извлечение (доверие 8) [DA1BE12E]
Трек 11 точное извлечение (доверие 8) [16458AC4]
Трек 12 точное извлечение (доверие 8) [58EAEF0A]

Все треки извлечены точно

Ошибок не произошло

Конец отчёта
Exact Audio Copy V0.99 prebeta 4 from 23. January 2008

Отчёт EAC об извлечении, выполненном 11. мая 2009, 13:59

Frank Sinatra / All The Way

Дисковод: Optiarc DVD RW AD-7170A Adapter: 0 ID: 0

Режим чтения : Достоверность
Использование точного потока : Да
Отключение кэша аудио : Да
Использование указателей C2 : Нет

Коррекция смещения при чтении : 48
Способность читать области Lead-in и Lead-out : Нет
Заполнение пропущенных сэмплов тишиной : Да
Удаление блоков с тишиной в начале и конце : Нет
При вычислениях CRC использовались нулевые сэмплы : Да
Интерфейс : Встроенный Win32-интерфейс для Win NT/2000

Выходной формат : Пользовательский кодировщик
Выбранный битрейт : 768 kBit/s
Качество : Высокий
Добавление ID3-тэга : Да
Утилита сжатия : C:\Program Files\Exact Audio Copy\Flac\flac.exe
Дополнительные параметры : -6 -V -T "ARTIST=%a" -T "TITLE=%t" -T "ALBUM=%g" -T "DATE=%y" -T "TRACKNUMBER=%n" -T "GENRE=%m" -T "COMMENT=%e" %s -o %d

TOC извлечённого CD

Трек | Старт | Длительность | Начальный сектор | Конечный сектор
---------------------------------------------------------------------
1 | 0:00.00 | 2:55.67 | 0 | 13191
2 | 2:55.67 | 2:43.68 | 13192 | 25484
3 | 5:39.60 | 3:04.05 | 25485 | 39289
4 | 8:43.65 | 2:03.27 | 39290 | 48541
5 | 10:47.17 | 3:53.48 | 48542 | 66064
6 | 14:40.65 | 2:39.00 | 66065 | 77989
7 | 17:19.65 | 2:54.72 | 77990 | 91111
8 | 20:14.62 | 2:42.40 | 91112 | 103301
9 | 22:57.27 | 2:42.60 | 103302 | 115511
10 | 25:40.12 | 3:28.18 | 115512 | 131129
11 | 29:08.30 | 3:15.05 | 131130 | 145759
12 | 32:23.35 | 2:43.20 | 145760 | 158004

Трек 1

Пиковый уровень 88.9 %
Качество трека 100.0 %
Копирование... OK

Трек 2

Пиковый уровень 88.7 %
Качество трека 100.0 %
Копирование... OK

Трек 3

Пиковый уровень 87.3 %
Качество трека 100.0 %
Копирование... OK

Трек 4

Пиковый уровень 87.6 %
Качество трека 100.0 %
Копирование... OK

Трек 5

Пиковый уровень 87.6 %
Качество трека 100.0 %
Копирование... OK

Трек 6

Пиковый уровень 82.6 %
Качество трека 100.0 %
Копирование... OK
Копирование... OK

Трек 7

Пиковый уровень 89.9 %
Качество трека 100.0 %
Копирование... OK

Трек 8

Пиковый уровень 86.7 %
Качество трека 100.0 %
Копирование... OK

Трек 9

Пиковый уровень 87.6 %
Качество трека 100.0 %
Копирование... OK

Трек 10

Пиковый уровень 72.1 %
Качество трека 100.0 %
Копирование... OK

Трек 11

Пиковый уровень 79.3 %
Качество трека 100.0 %
Копирование... OK

Трек 12

Пиковый уровень 69.4 %
Качество трека 100.0 %
Копирование... OK

AccurateRip: сводка

Трек 1 точность не определена (достоверность 8) [C31C7689], AccurateRip вернул [747D9AAE]
Трек 2 точность не определена (достоверность 8) [170A5B2F], AccurateRip вернул [E0B63218]
Трек 3 точность не определена (достоверность 8) [F325DA04], AccurateRip вернул [CE44F3B1]
Трек 4 точность не определена (достоверность 8) [B0E3C333], AccurateRip вернул [4252243D]
Трек 5 точность не определена (достоверность 8) [C50662BE], AccurateRip вернул [462E363B]
Трек 6 точность не определена (достоверность 8) [7E944C5F], AccurateRip вернул [8B26FB37]
Трек 7 точность не определена (достоверность 8) [25D44CA8], AccurateRip вернул [0BE4B6CF]
Трек 8 точность не определена (достоверность 8) [B95F4A4E], AccurateRip вернул [6328B578]
Трек 9 точность не определена (достоверность 8) [93E7904F], AccurateRip вернул [FE1D2521]
Трек 10 точность не определена (достоверность 8) [520BC8ED], AccurateRip вернул [441477CB]
Трек 11 точность не определена (достоверность 8) [E019575B], AccurateRip вернул [A7D1416C]
Трек 12 точность не определена (достоверность 8) [DF8DDA41], AccurateRip вернул [0AE902CB]

Ни один трек не прошёл проверки на точность
В вашей базе может быть иной вариант штамповки диска

Ошибок не произошло

Конец отчёта
Exact Audio Copy V0.99 prebeta 4 from 23. January 2008

Отчёт EAC об извлечении, выполненном 11. мая 2009, 14:17

Frank Sinatra / Sinatra's Swingin' Session!!!

Дисковод: Optiarc DVD RW AD-7170A Adapter: 0 ID: 0

Режим чтения : Достоверность
Использование точного потока : Да
Отключение кэша аудио : Да
Использование указателей C2 : Нет

Коррекция смещения при чтении : 48
Способность читать области Lead-in и Lead-out : Нет
Заполнение пропущенных сэмплов тишиной : Да
Удаление блоков с тишиной в начале и конце : Нет
При вычислениях CRC использовались нулевые сэмплы : Да
Интерфейс : Встроенный Win32-интерфейс для Win NT/2000

Выходной формат : Пользовательский кодировщик
Выбранный битрейт : 768 kBit/s
Качество : Высокий
Добавление ID3-тэга : Да
Утилита сжатия : C:\Program Files\Exact Audio Copy\Flac\flac.exe
Дополнительные параметры : -6 -V -T "ARTIST=%a" -T "TITLE=%t" -T "ALBUM=%g" -T "DATE=%y" -T "TRACKNUMBER=%n" -T "GENRE=%m" -T "COMMENT=%e" %s -o %d

TOC извлечённого CD

Трек | Старт | Длительность | Начальный сектор | Конечный сектор
---------------------------------------------------------------------
1 | 0:00.00 | 2:02.00 | 0 | 9149
2 | 2:02.00 | 2:52.15 | 9150 | 22064
3 | 4:54.15 | 1:48.55 | 22065 | 30219
4 | 6:42.70 | 2:03.12 | 30220 | 39456
5 | 8:46.07 | 2:20.08 | 39457 | 49964
6 | 11:06.15 | 2:04.20 | 49965 | 59284
7 | 13:10.35 | 1:31.42 | 59285 | 66151
8 | 14:42.02 | 2:59.18 | 66152 | 79594
9 | 17:41.20 | 2:17.27 | 79595 | 89896
10 | 19:58.47 | 2:25.58 | 89897 | 100829
11 | 22:24.30 | 2:23.55 | 100830 | 111609
12 | 24:48.10 | 1:33.70 | 111610 | 118654

Трек 1

Пиковый уровень 77.0 %
Качество трека 100.0 %
Копирование... OK

Трек 2

Пиковый уровень 78.0 %
Качество трека 99.9 %
Копирование... OK

Трек 3

Пиковый уровень 89.8 %
Качество трека 100.0 %
Копирование... OK
Копирование... OK

Трек 4

Пиковый уровень 90.1 %
Качество трека 100.0 %
Копирование... OK

Трек 5

Пиковый уровень 82.0 %
Качество трека 100.0 %
Копирование... OK

Трек 6

Пиковый уровень 85.5 %
Качество трека 100.0 %
Копирование... OK

Трек 7

Пиковый уровень 82.6 %
Качество трека 100.0 %
Копирование... OK

Трек 8

Пиковый уровень 73.7 %
Качество трека 100.0 %
Копирование... OK

Трек 9

Пиковый уровень 92.2 %
Качество трека 100.0 %
Копирование... OK

Трек 10

Пиковый уровень 84.8 %
Качество трека 100.0 %
Копирование... OK

Трек 11

Пиковый уровень 81.7 %
Качество трека 100.0 %
Копирование... OK

Трек 12

Пиковый уровень 86.3 %
Качество трека 100.0 %
Копирование... OK

AccurateRip: сводка

Трек 1 точное извлечение (доверие 9) [DC3EAAFB]
Трек 2 точное извлечение (доверие 9) [8425956F]
Трек 3 точное извлечение (доверие 9) [D54C0C97]
Трек 4 точное извлечение (доверие 9) [9C50836D]
Трек 5 точное извлечение (доверие 9) [D3456D44]
Трек 6 точное извлечение (доверие 9) [12E4634D]
Трек 7 точное извлечение (доверие 9) [598B002B]
Трек 8 точное извлечение (доверие 9) [DCB42C0C]
Трек 9 точное извлечение (доверие 8) [AA0A0689]
Трек 10 точное извлечение (доверие 9) [2E05413B]
Трек 11 точное извлечение (доверие 9) [1F6C2F74]
Трек 12 точное извлечение (доверие 9) [CF7746F1]

Все треки извлечены точно

Ошибок не произошло

Конец отчёта
Exact Audio Copy V0.99 prebeta 4 from 23. January 2008

Отчёт EAC об извлечении, выполненном 11. мая 2009, 14:38

Frank Sinatra / Point Of No Return

Дисковод: Optiarc DVD RW AD-7170A Adapter: 0 ID: 0

Режим чтения : Достоверность
Использование точного потока : Да
Отключение кэша аудио : Да
Использование указателей C2 : Нет

Коррекция смещения при чтении : 48
Способность читать области Lead-in и Lead-out : Нет
Заполнение пропущенных сэмплов тишиной : Да
Удаление блоков с тишиной в начале и конце : Нет
При вычислениях CRC использовались нулевые сэмплы : Да
Интерфейс : Встроенный Win32-интерфейс для Win NT/2000

Выходной формат : Пользовательский кодировщик
Выбранный битрейт : 768 kBit/s
Качество : Высокий
Добавление ID3-тэга : Да
Утилита сжатия : C:\Program Files\Exact Audio Copy\Flac\flac.exe
Дополнительные параметры : -6 -V -T "ARTIST=%a" -T "TITLE=%t" -T "ALBUM=%g" -T "DATE=%y" -T "TRACKNUMBER=%n" -T "GENRE=%m" -T "COMMENT=%e" %s -o %d

TOC извлечённого CD

Трек | Старт | Длительность | Начальный сектор | Конечный сектор
---------------------------------------------------------------------
1 | 0:00.00 | 3:49.27 | 0 | 17201
2 | 3:49.27 | 2:50.25 | 17202 | 29976
3 | 6:39.52 | 4:23.30 | 29977 | 49731
4 | 11:03.07 | 2:42.33 | 49732 | 61914
5 | 13:45.40 | 2:44.30 | 61915 | 74244
6 | 16:29.70 | 3:13.30 | 74245 | 88749
7 | 19:43.25 | 3:03.32 | 88750 | 102506
8 | 22:46.57 | 2:51.23 | 102507 | 115354
9 | 25:38.05 | 4:00.57 | 115355 | 133411
10 | 29:38.62 | 3:17.43 | 133412 | 148229
11 | 32:56.30 | 2:49.35 | 148230 | 160939
12 | 35:45.65 | 3:55.17 | 160940 | 178581

Трек 1

Пиковый уровень 72.7 %
Качество трека 100.0 %
Копирование... OK

Трек 2

Пиковый уровень 84.8 %
Качество трека 99.9 %
Копирование... OK

Трек 3

Пиковый уровень 77.3 %
Качество трека 100.0 %
Копирование... OK

Трек 4

Пиковый уровень 88.1 %
Качество трека 100.0 %
Копирование... OK

Трек 5

Пиковый уровень 76.2 %
Качество трека 100.0 %
Копирование... OK

Трек 6

Пиковый уровень 87.5 %
Качество трека 100.0 %
Копирование... OK

Трек 7

Пиковый уровень 87.5 %
Качество трека 100.0 %
Копирование... OK

Трек 8

Пиковый уровень 70.5 %
Качество трека 100.0 %
Копирование... OK

Трек 9

Пиковый уровень 87.6 %
Качество трека 100.0 %
Копирование... OK

Трек 10

Пиковый уровень 82.5 %
Качество трека 100.0 %
Копирование... OK

Трек 11

Пиковый уровень 84.0 %
Качество трека 100.0 %
Копирование... OK

Трек 12

Пиковый уровень 87.6 %
Качество трека 100.0 %
Копирование... OK

AccurateRip: сводка

Трек 1 точное извлечение (доверие 8) [F6925046]
Трек 2 точное извлечение (доверие 8) [A3CA8D87]
Трек 3 точное извлечение (доверие 8) [6FE923FA]
Трек 4 точное извлечение (доверие 8) [DF7C445C]
Трек 5 точное извлечение (доверие 8) [61129A25]
Трек 6 точное извлечение (доверие 8) [11C8A3D7]
Трек 7 точное извлечение (доверие 8) [4ACF7F11]
Трек 8 точное извлечение (доверие 8) [AFB9B536]
Трек 9 точное извлечение (доверие 8) [54A1AC12]
Трек 10 точное извлечение (доверие 9) [CEA8A11B]
Трек 11 точное извлечение (доверие 9) [92FE5854]
Трек 12 точное извлечение (доверие 9) [9DE18A8F]

Все треки извлечены точно

Ошибок не произошло

Конец отчёта
Exact Audio Copy V0.99 prebeta 4 from 23. January 2008

Отчёт EAC об извлечении, выполненном 11. мая 2009, 15:38

Frank Sinatra / Sinatra Sings Of Love And Things

Дисковод: Optiarc DVD RW AD-7170A Adapter: 0 ID: 0

Режим чтения : Достоверность
Использование точного потока : Да
Отключение кэша аудио : Да
Использование указателей C2 : Нет

Коррекция смещения при чтении : 48
Способность читать области Lead-in и Lead-out : Нет
Заполнение пропущенных сэмплов тишиной : Да
Удаление блоков с тишиной в начале и конце : Нет
При вычислениях CRC использовались нулевые сэмплы : Да
Интерфейс : Встроенный Win32-интерфейс для Win NT/2000

Выходной формат : Пользовательский кодировщик
Выбранный битрейт : 768 kBit/s
Качество : Высокий
Добавление ID3-тэга : Да
Утилита сжатия : C:\Program Files\Exact Audio Copy\Flac\flac.exe
Дополнительные параметры : -6 -V -T "ARTIST=%a" -T "TITLE=%t" -T "ALBUM=%g" -T "DATE=%y" -T "TRACKNUMBER=%n" -T "GENRE=%m" -T "COMMENT=%e" %s -o %d

TOC извлечённого CD

Трек | Старт | Длительность | Начальный сектор | Конечный сектор
---------------------------------------------------------------------
1 | 0:00.00 | 2:44.62 | 0 | 12361
2 | 2:44.62 | 2:26.15 | 12362 | 23326
3 | 5:11.02 | 3:02.53 | 23327 | 37029
4 | 8:13.55 | 1:52.30 | 37030 | 45459
5 | 10:06.10 | 3:18.50 | 45460 | 60359
6 | 13:24.60 | 2:12.70 | 60360 | 70329
7 | 15:37.55 | 2:41.32 | 70330 | 82436
8 | 18:19.12 | 2:38.70 | 82437 | 94356
9 | 20:58.07 | 2:43.60 | 94357 | 106641
10 | 23:41.67 | 3:02.40 | 106642 | 120331
11 | 26:44.32 | 3:00.55 | 120332 | 133886
12 | 29:45.12 | 3:12.60 | 133887 | 148346

Трек 1

Пиковый уровень 87.6 %
Качество трека 100.0 %
Копирование... OK

Трек 2

Пиковый уровень 92.7 %
Качество трека 100.0 %
Копирование... OK

Трек 3

Пиковый уровень 92.4 %
Качество трека 100.0 %
Копирование... OK

Трек 4

Пиковый уровень 89.2 %
Качество трека 100.0 %
Копирование... OK

Трек 5

Пиковый уровень 88.3 %
Качество трека 99.9 %
Копирование... OK

Трек 6

Пиковый уровень 87.6 %
Качество трека 100.0 %
Копирование... OK

Трек 7

Пиковый уровень 80.1 %
Качество трека 100.0 %
Копирование... OK

Трек 8

Пиковый уровень 87.6 %
Качество трека 100.0 %
Копирование... OK

Трек 9

Пиковый уровень 91.7 %
Качество трека 100.0 %
Копирование... OK

Трек 10

Пиковый уровень 86.6 %
Качество трека 99.9 %
Копирование... OK

Трек 11

Пиковый уровень 87.5 %
Качество трека 100.0 %
Копирование... OK

Трек 12

Пиковый уровень 77.0 %
Качество трека 100.0 %
Копирование... OK

AccurateRip: сводка

Трек 1 точное извлечение (доверие 9) [408A31B3]
Трек 2 точное извлечение (доверие 9) [1546B5B6]
Трек 3 точное извлечение (доверие 9) [8438EE51]
Трек 4 точное извлечение (доверие 9) [6ACB7062]
Трек 5 точное извлечение (доверие 9) [649A1090]
Трек 6 точное извлечение (доверие 9) [F6836A42]
Трек 7 точное извлечение (доверие 9) [5641B557]
Трек 8 точное извлечение (доверие 9) [0C266190]
Трек 9 точное извлечение (доверие 9) [322CD410]
Трек 10 точное извлечение (доверие 9) [24EB89B9]
Трек 11 точное извлечение (доверие 9) [15C22A86]
Трек 12 точное извлечение (доверие 9) [C9CD14A9]

Все треки извлечены точно

Ошибок не произошло

Конец отчёта
Exact Audio Copy V0.99 prebeta 4 from 23. January 2008

Отчёт EAC об извлечении, выполненном 11. мая 2009, 16:01

Frank Sinatra / The Rare Sinatra

Дисковод: Optiarc DVD RW AD-7170A Adapter: 0 ID: 0

Режим чтения : Достоверность
Использование точного потока : Да
Отключение кэша аудио : Да
Использование указателей C2 : Нет

Коррекция смещения при чтении : 48
Способность читать области Lead-in и Lead-out : Нет
Заполнение пропущенных сэмплов тишиной : Да
Удаление блоков с тишиной в начале и конце : Нет
При вычислениях CRC использовались нулевые сэмплы : Да
Интерфейс : Встроенный Win32-интерфейс для Win NT/2000

Выходной формат : Пользовательский кодировщик
Выбранный битрейт : 768 kBit/s
Качество : Высокий
Добавление ID3-тэга : Да
Утилита сжатия : C:\Program Files\Exact Audio Copy\Flac\flac.exe
Дополнительные параметры : -6 -V -T "ARTIST=%a" -T "TITLE=%t" -T "ALBUM=%g" -T "DATE=%y" -T "TRACKNUMBER=%n" -T "GENRE=%m" -T "COMMENT=%e" %s -o %d

TOC извлечённого CD

Трек | Старт | Длительность | Начальный сектор | Конечный сектор
---------------------------------------------------------------------
1 | 0:00.00 | 3:20.37 | 0 | 15036
2 | 3:20.37 | 2:58.10 | 15037 | 28396
3 | 6:18.47 | 3:04.35 | 28397 | 42231
4 | 9:23.07 | 2:36.05 | 42232 | 53936
5 | 11:59.12 | 2:40.68 | 53937 | 66004
6 | 14:40.05 | 3:08.57 | 66005 | 80161
7 | 17:48.62 | 2:54.25 | 80162 | 93236
8 | 20:43.12 | 4:00.43 | 93237 | 111279
9 | 24:43.55 | 2:41.17 | 111280 | 123371
10 | 27:24.72 | 3:10.35 | 123372 | 137656
11 | 30:35.32 | 2:33.55 | 137657 | 149186
12 | 33:09.12 | 2:54.38 | 149187 | 162274
13 | 36:03.50 | 2:28.05 | 162275 | 173379
14 | 38:31.55 | 2:29.67 | 173380 | 184621
15 | 41:01.47 | 2:04.68 | 184622 | 193989
16 | 43:06.40 | 3:02.67 | 193990 | 207706
17 | 46:09.32 | 2:57.03 | 207707 | 220984
18 | 49:06.35 | 3:06.07 | 220985 | 234941

Трек 1

Пиковый уровень 87.6 %
Качество трека 100.0 %
Копирование... OK

Трек 2

Пиковый уровень 87.4 %
Качество трека 99.9 %
Копирование... OK

Трек 3

Пиковый уровень 73.0 %
Качество трека 100.0 %
Копирование... OK

Трек 4

Пиковый уровень 83.7 %
Качество трека 99.9 %
Копирование... OK

Трек 5

Пиковый уровень 86.8 %
Качество трека 100.0 %
Копирование... OK

Трек 6

Пиковый уровень 87.6 %
Качество трека 100.0 %
Копирование... OK

Трек 7

Пиковый уровень 70.9 %
Качество трека 100.0 %
Копирование... OK

Трек 8

Пиковый уровень 73.8 %
Качество трека 100.0 %
Копирование... OK

Трек 9

Пиковый уровень 71.5 %
Качество трека 100.0 %
Копирование... OK

Трек 10

Пиковый уровень 80.1 %
Качество трека 100.0 %
Копирование... OK

Трек 11

Пиковый уровень 82.9 %
Качество трека 100.0 %
Копирование... OK

Трек 12

Пиковый уровень 88.7 %
Качество трека 100.0 %
Копирование... OK

Трек 13

Пиковый уровень 84.1 %
Качество трека 100.0 %
Копирование... OK

Трек 14

Пиковый уровень 77.9 %
Качество трека 99.9 %
Копирование... OK

Трек 15

Пиковый уровень 91.9 %
Качество трека 100.0 %
Копирование... OK

Трек 16

Пиковый уровень 72.8 %
Качество трека 100.0 %
Копирование... OK

Трек 17

Пиковый уровень 90.0 %
Качество трека 100.0 %
Копирование... OK

Трек 18

Пиковый уровень 71.0 %
Качество трека 99.9 %
Копирование... OK

AccurateRip: сводка

Трек 1 точное извлечение (доверие 7) [4CC2014B]
Трек 2 точное извлечение (доверие 7) [7CD0C861]
Трек 3 точное извлечение (доверие 7) [66797BEB]
Трек 4 точное извлечение (доверие 7) [8A6135E9]
Трек 5 точное извлечение (доверие 7) [D93C7DC2]
Трек 6 точное извлечение (доверие 7) [3A949E7D]
Трек 7 точное извлечение (доверие 7) [5865E5DC]
Трек 8 точное извлечение (доверие 7) [5278AE1F]
Трек 9 точное извлечение (доверие 7) [F3D38D6E]
Трек 10 точное извлечение (доверие 7) [6CA5F7B2]
Трек 11 точное извлечение (доверие 7) [5989897C]
Трек 12 точное извлечение (доверие 7) [72D42E4D]
Трек 13 точное извлечение (доверие 7) [9E2F7B25]
Трек 14 точное извлечение (доверие 7) [8613819E]
Трек 15 точное извлечение (доверие 7) [3CC687AD]
Трек 16 точное извлечение (доверие 7) [CC30E68A]
Трек 17 точное извлечение (доверие 7) [6DF376DC]
Трек 18 точное извлечение (доверие 8) [A5DDFA01]

Все треки извлечены точно

Ошибок не произошло

Конец отчёта


Трекер:  [ 25-Мар-2011 10:38 ]

  

Скачать .torrent

Размер .torrent файла 68 KB


Размер: 4.11 GB
Хэш (hash) релиза: 9a7746b2dcf9efc4f89c7b5bfa90c2a6b0a243ff

Еще никто не оставлял запись к записи скачать торрент Frank Sinatra - The Capitol Years . Будь первым!

!Обратная связь