Скачать через торрент музыку Frank Sinatra - The Complete Reprise Studio Recordings бесплатно без регистрации torrent

Если у вас наблюдаются проблемы со скриншотами, переходом по ссылками, скачиванием торрентов - проблемы в блокировщике рекламы AdBlock. #хорошегоДня!


Статистика раздачи
Размер:  3.94 GB   |    Зарегистрирован:  6 лет 6 месяцев   |    .torrent скачан:  82 раза   |   
Раздают:  1  
   
Загрузка...
 
Автор Сообщение

L


Frank Sinatra - The Complete Reprise Studio Recordings (20CD Box)
Part 2 - Disks 11-20
Страна: USA
Жанр: Jazz
Год выпуска: 1995
Формат: FLAC (tracks)
Битрейт аудио: lossless
Продолжительность: 10CD
Frank Sinatra - The Complete Reprise Studio Recordings (20CD Box) Part 1
Трэклисты и логи :

CD#11:
235. 1. That's Life (Gordon/Thompson) - 3:07
236. 2. Give Her Love (Harbert) - 2:12
237. 3. What Now, My Love? (Becaud/Leroyer/Sigman) - 2:30
238. 4. Somewhere My Love (Jarre/Webster) - 2:17
239. 5. Winchester Cathedral (Stephens) - 2:36
240. 6. I Will Wait for You (Demy/Gimbel/Legrand) - 2:17
241. 7. You're Gonna Hear from Me (Previn/Previn) - 2:57
242. 8. Sand and Sea (Becaud/David/Vidalin) - 2:27
243. 9. The Impossible Dream (Darion/Leigh) - 2:31
244. 10. Baubles, Bangles and Beads performed by Sinatra / Jobim, Antonio Carlos - 2:33
245. 11. I Concentrate on You performed by Sinatra / Jobim, Antonio Carlos - 2:36
246. 12. Dindi (DeOliveira/Gilbert/Jobim) - 3:28
247. 13. Change Partners performed by Sinatra / Al Viola - 2:41
248. 14. Quiet Nights of Quiet Stars (Corcovado) (Jobim/Lees) - 2:43
249. 15. If You Never Come to Me (DeOliveira/Gilbert/Jobim) - 2:09
250. 16. The Girl from Ipanema performed by Sinatra / Jobim, Antonio Carlos - 3:14
251. 17. Meditation (Meditaзгo) (Gimbel/Jobim/Mendonca) - 2:53
252. 18. Once I Loved (O Amor en Paz) performed by Sinatra / Jobim, Antonio Carlos - 2:37
253. 19. How Insensitive (Insensatez) performed by Sinatra / Jobim, Antonio Carlos - 3:16
254. 20. Drinking Again (Mercer/Tauber) - 3:11
255. 21. Somethin' Stupid performed by Sinatra / Nancy Sinatra - 2:39
256. 22. You Are There (Sukman/Webster) - 3:28
257. 23. The World We Knew (Over and Over) (Kaempfert/Rehbein/Sigman) - 2:47
258. 24. Born Free (Barry/Black) - 2:03
259. 25. This Is My Love (Harbert) - 3:34
EAC extraction logfile from 30. July 2005, 21:04 for CD
Frank Sinatra / The Complete Reprise Studio Recordings Disc 11

Used drive : PLEXTOR DVDR PX-712A Adapter: 1 ID: 0
Read mode : Secure with NO C2, accurate stream, disable cache
Read offset correction : 30
Overread into Lead-In and Lead-Out : Yes

Used output format : C:\Program Files\FLAC\flac.exe (User Defined Encoder)
320 kBit/s
Additional command line options : -8 -V -T "artist=%a" -T "title=%t" -T "album=%g" -T "date=%y" -T

"tracknumber=%n" -T "genre=%m" -T "comment=EAC Flac 1.1.1 -8" %s

Other options :
Fill up missing offset samples with silence : Yes
Delete leading and trailing silent blocks : No
Installed external ASPI interface

Track 1
Filename D:\Frank Sinatra - The Complete Reprise Studio Recordings\CD11\01 - That's Life.wav

Pre-gap length 0:00:02.00

Peak level 84.2 %
Track quality 100.0 %
Test CRC 904BA730
Copy CRC 904BA730
Copy OK

Track 2
Filename D:\Frank Sinatra - The Complete Reprise Studio Recordings\CD11\02 - Give Her Love.wav

Peak level 72.3 %
Track quality 100.0 %
Test CRC 593FFA39
Copy CRC 593FFA39
Copy OK

Track 3
Filename D:\Frank Sinatra - The Complete Reprise Studio Recordings\CD11\03 - What Now My Love .wav

Peak level 67.2 %
Track quality 100.0 %
Test CRC E4CB67A3
Copy CRC E4CB67A3
Copy OK

Track 4
Filename D:\Frank Sinatra - The Complete Reprise Studio Recordings\CD11\04 - Somewhere My Love.wav

Peak level 85.4 %
Track quality 99.9 %
Test CRC DA65B430
Copy CRC DA65B430
Copy OK

Track 5
Filename D:\Frank Sinatra - The Complete Reprise Studio Recordings\CD11\05 - Winchester Cathedral.wav

Peak level 86.5 %
Track quality 100.0 %
Test CRC 10ACDDAF
Copy CRC 10ACDDAF
Copy OK

Track 6
Filename D:\Frank Sinatra - The Complete Reprise Studio Recordings\CD11\06 - I Will Wait For You.wav

Peak level 67.7 %
Track quality 100.0 %
Test CRC C770F242
Copy CRC C770F242
Copy OK

Track 7
Filename D:\Frank Sinatra - The Complete Reprise Studio Recordings\CD11\07 - You're Gonna Wait For Me.wav

Peak level 81.9 %
Track quality 100.0 %
Test CRC E4EA3B5C
Copy CRC E4EA3B5C
Copy OK

Track 8
Filename D:\Frank Sinatra - The Complete Reprise Studio Recordings\CD11\08 - Sand And Sea.wav

Peak level 78.3 %
Track quality 100.0 %
Test CRC 3E4E1D90
Copy CRC 3E4E1D90
Copy OK

Track 9
Filename D:\Frank Sinatra - The Complete Reprise Studio Recordings\CD11\09 - The Impossible Dream.wav

Peak level 74.3 %
Track quality 99.9 %
Test CRC 589727A7
Copy CRC 589727A7
Copy OK

Track 10
Filename D:\Frank Sinatra - The Complete Reprise Studio Recordings\CD11\10 - Baubles, Bangles And Beads.wav

Peak level 92.4 %
Track quality 100.0 %
Test CRC 454F78FE
Copy CRC 454F78FE
Copy OK

Track 11
Filename D:\Frank Sinatra - The Complete Reprise Studio Recordings\CD11\11 - I Concentrate On You.wav

Pre-gap length 0:00:00.01

Peak level 77.1 %
Track quality 100.0 %
Test CRC D69BDBF7
Copy CRC D69BDBF7
Copy OK

Track 12
Filename D:\Frank Sinatra - The Complete Reprise Studio Recordings\CD11\12 - Dindi.wav

Peak level 79.5 %
Track quality 100.0 %
Test CRC 52D62BD4
Copy CRC 52D62BD4
Copy OK

Track 13
Filename D:\Frank Sinatra - The Complete Reprise Studio Recordings\CD11\13 - Change Partners.wav

Peak level 88.0 %
Track quality 100.0 %
Test CRC 1E90886D
Copy CRC 1E90886D
Copy OK

Track 14
Filename D:\Frank Sinatra - The Complete Reprise Studio Recordings\CD11\14 - Quiet Nights Of Quiet Stars (Corcovado).wav

Peak level 64.9 %
Track quality 100.0 %
Test CRC C1D17732
Copy CRC C1D17732
Copy OK

Track 15
Filename D:\Frank Sinatra - The Complete Reprise Studio Recordings\CD11\15 - If You Never Come To Me.wav

Peak level 84.9 %
Track quality 99.9 %
Test CRC 4A0FC184
Copy CRC 4A0FC184
Copy OK

Track 16
Filename D:\Frank Sinatra - The Complete Reprise Studio Recordings\CD11\16 - The Girl From Ipanema.wav

Peak level 100.0 %
Track quality 100.0 %
Test CRC AA4FD178
Copy CRC AA4FD178
Copy OK

Track 17
Filename D:\Frank Sinatra - The Complete Reprise Studio Recordings\CD11\17 - Meditation (Meditacao).wav

Peak level 80.1 %
Track quality 99.9 %
Test CRC 843F5D5B
Copy CRC 843F5D5B
Copy OK

Track 18
Filename D:\Frank Sinatra - The Complete Reprise Studio Recordings\CD11\18 - Once I Loved (O Amor En Paz).wav

Peak level 70.9 %
Track quality 100.0 %
Test CRC A0D709DD
Copy CRC A0D709DD
Copy OK

Track 19
Filename D:\Frank Sinatra - The Complete Reprise Studio Recordings\CD11\19 - How Insensitive (Insensatez).wav

Peak level 64.5 %
Track quality 100.0 %
Test CRC CF8908D1
Copy CRC CF8908D1
Copy OK

Track 20
Filename D:\Frank Sinatra - The Complete Reprise Studio Recordings\CD11\20 - Drinking Again.wav

Peak level 65.9 %
Track quality 100.0 %
Test CRC 045D65BC
Copy CRC 045D65BC
Copy OK

Track 21
Filename D:\Frank Sinatra - The Complete Reprise Studio Recordings\CD11\21 - Something Stupid.wav

Peak level 75.7 %
Track quality 100.0 %
Test CRC 970FBD0C
Copy CRC 970FBD0C
Copy OK

Track 22
Filename D:\Frank Sinatra - The Complete Reprise Studio Recordings\CD11\22 - You Are There.wav

Peak level 86.8 %
Track quality 99.9 %
Test CRC 3EFCE0ED
Copy CRC 3EFCE0ED
Copy OK

Track 23
Filename D:\Frank Sinatra - The Complete Reprise Studio Recordings\CD11\23 - The World We Knew (Over And Over).wav

Peak level 100.0 %
Track quality 100.0 %
Test CRC 758D82E2
Copy CRC 758D82E2
Copy OK

Track 24
Filename D:\Frank Sinatra - The Complete Reprise Studio Recordings\CD11\24 - Born Free.wav

Peak level 80.3 %
Track quality 99.9 %
Test CRC EB61A13C
Copy CRC EB61A13C
Copy OK

Track 25
Filename D:\Frank Sinatra - The Complete Reprise Studio Recordings\CD11\25 - This Is My Love.wav

Peak level 77.4 %
Track quality 100.0 %
Test CRC A4DA55C8
Copy CRC A4DA55C8
Copy OK

No errors occured

End of status report
CD#12:
260. 1. This Is My Song (Chaplin) - 2:27
261. 2. Don't Sleep in the Subway (Hatch/Trent) - 2:18
262. 3. Some Enchanted Evening (Hammerstein/Rodgers) - 2:35
263. 4. This Town (Hazlewood) - 2:59
264. 5. Younger Than Springtime (Hammerstein/Rodgers) - 2:42
265. 6. All I Need Is the Girl performed by Sinatra / Ellington, Duke & His Orchestra - 5:00
266. 7. Yellow Days performed by Sinatra / Ellington, Duke & His Orchestra - 4:57
267. 8. Indian Summer performed by Sinatra / Ellington, Duke & His Orchestra - 4:12
268. 9. Come Back to Me performed by Sinatra / Ellington, Duke & His Orchestra - 3:23
269. 10. Poor Butterfly performed by Sinatra / Ellington, Duke & His Orchestra - 4:27
270. 11. Sunny performed by Sinatra / Ellington, Duke & His Orchestra - 4:12
271. 12. I Like the Sunrise performed by Sinatra / Ellington, Duke & His Orchestra - 5:00
272. 13. Follow Me performed by Sinatra / Ellington, Duke & His Orchestra - 3:55
273. 14. My Way of Life (Kaempfert/Rehbein/Sigman) - 3:07
274. 15. Cycles (Caldwell/Caldwell) - 3:10
275. 16. Whatever Happened to Christmas? (Webb) - 3:04
276. 17. The Twelve Days of Christmas performed by Sinatra / Tina Sinatra / Nancy Sinatra - 4:28
277. 18. The Bells of Christmas (Greensleeves) performed by Sinatra / Tina Sinatra / Nancy Sinatra - 3:40
278. 19. I Wouldn't Trade Christmas performed by Sinatra / Tina Sinatra / Nancy Sinatra - 2:53
279. 20. The Christmas Waltz (Cahn/Styne) - 3:10
EAC extraction logfile from 30. July 2005, 21:42 for CD
Frank Sinatra / The Complete Reprise Studio Recordings Disc 12

Used drive : PLEXTOR DVDR PX-712A Adapter: 1 ID: 0
Read mode : Secure with NO C2, accurate stream, disable cache
Read offset correction : 30
Overread into Lead-In and Lead-Out : Yes

Used output format : C:\Program Files\FLAC\flac.exe (User Defined Encoder)
320 kBit/s
Additional command line options : -8 -V -T "artist=%a" -T "title=%t" -T "album=%g" -T "date=%y" -T

"tracknumber=%n" -T "genre=%m" -T "comment=EAC Flac 1.1.1 -8" %s

Other options :
Fill up missing offset samples with silence : Yes
Delete leading and trailing silent blocks : No
Installed external ASPI interface

Track 1
Filename D:\Frank Sinatra - The Complete Reprise Studio Recordings\CD12\01 - This Is My Song.wav

Pre-gap length 0:00:02.00

Peak level 86.1 %
Track quality 100.0 %
Test CRC 6A274ADD
Copy CRC 6A274ADD
Copy OK

Track 2
Filename D:\Frank Sinatra - The Complete Reprise Studio Recordings\CD12\02 - Don't Sleep In The Subway.wav

Pre-gap length 0:00:00.58

Peak level 90.4 %
Track quality 100.0 %
Test CRC AE2690B7
Copy CRC AE2690B7
Copy OK

Track 3
Filename D:\Frank Sinatra - The Complete Reprise Studio Recordings\CD12\03 - Some Enchanted Evening.wav

Pre-gap length 0:00:00.45

Peak level 88.0 %
Track quality 99.9 %
Test CRC 30DF9FCE
Copy CRC 30DF9FCE
Copy OK

Track 4
Filename D:\Frank Sinatra - The Complete Reprise Studio Recordings\CD12\04 - This Town.wav

Pre-gap length 0:00:00.60

Peak level 93.3 %
Track quality 100.0 %
Test CRC D0CABE28
Copy CRC D0CABE28
Copy OK

Track 5
Filename D:\Frank Sinatra - The Complete Reprise Studio Recordings\CD12\05 - Younger Than Springtime.wav

Pre-gap length 0:00:00.27

Peak level 90.0 %
Track quality 100.0 %
Test CRC DD900EBF
Copy CRC DD900EBF
Copy OK

Track 6
Filename D:\Frank Sinatra - The Complete Reprise Studio Recordings\CD12\06 - All I Need Is The Girl.wav

Pre-gap length 0:00:01.13

Peak level 100.0 %
Track quality 100.0 %
Test CRC E5E73DF7
Copy CRC E5E73DF7
Copy OK

Track 7
Filename D:\Frank Sinatra - The Complete Reprise Studio Recordings\CD12\07 - Yellow Days.wav

Pre-gap length 0:00:01.05

Peak level 87.2 %
Track quality 99.9 %
Test CRC 4CB8D99D
Copy CRC 4CB8D99D
Copy OK

Track 8
Filename D:\Frank Sinatra - The Complete Reprise Studio Recordings\CD12\08 - Indian Summer.wav

Pre-gap length 0:00:00.57

Peak level 100.0 %
Track quality 100.0 %
Test CRC 40DA721F
Copy CRC 40DA721F
Copy OK

Track 9
Filename D:\Frank Sinatra - The Complete Reprise Studio Recordings\CD12\09 - Come Back To Me.wav

Pre-gap length 0:00:01.05

Peak level 100.0 %
Track quality 100.0 %
Test CRC 0F5C6488
Copy CRC 0F5C6488
Copy OK

Track 10
Filename D:\Frank Sinatra - The Complete Reprise Studio Recordings\CD12\10 - Poor Butterfly.wav

Pre-gap length 0:00:00.73

Peak level 100.0 %
Track quality 100.0 %
Test CRC 08CC62BF
Copy CRC 08CC62BF
Copy OK

Track 11
Filename D:\Frank Sinatra - The Complete Reprise Studio Recordings\CD12\11 - Sunny.wav

Pre-gap length 0:00:00.65

Peak level 100.0 %
Track quality 100.0 %
Test CRC 37999F37
Copy CRC 37999F37
Copy OK

Track 12
Filename D:\Frank Sinatra - The Complete Reprise Studio Recordings\CD12\12 - I Like The Sunrise.wav

Pre-gap length 0:00:01.00

Peak level 66.1 %
Track quality 100.0 %
Test CRC C534B226
Copy CRC C534B226
Copy OK

Track 13
Filename D:\Frank Sinatra - The Complete Reprise Studio Recordings\CD12\13 - Follow Me.wav

Pre-gap length 0:00:00.70

Peak level 100.0 %
Track quality 100.0 %
Test CRC 67B57994
Copy CRC 67B57994
Copy OK

Track 14
Filename D:\Frank Sinatra - The Complete Reprise Studio Recordings\CD12\14 - My Way Of Life.wav

Pre-gap length 0:00:00.70

Peak level 83.5 %
Track quality 99.9 %
Test CRC A974A611
Copy CRC A974A611
Copy OK

Track 15
Filename D:\Frank Sinatra - The Complete Reprise Studio Recordings\CD12\15 - Cycles.wav

Pre-gap length 0:00:01.02

Peak level 88.0 %
Track quality 100.0 %
Test CRC 1A8221C0
Copy CRC 1A8221C0
Copy OK

Track 16
Filename D:\Frank Sinatra - The Complete Reprise Studio Recordings\CD12\16 - Whatever Happened To Christmas .wav

Pre-gap length 0:00:00.60

Peak level 83.0 %
Track quality 100.0 %
Test CRC 90FFACEB
Copy CRC 90FFACEB
Copy OK

Track 17
Filename D:\Frank Sinatra - The Complete Reprise Studio Recordings\CD12\17 - The Twelve Days Of Christmas.wav

Pre-gap length 0:00:01.02

Peak level 88.9 %
Track quality 100.0 %
Test CRC 694CB9F9
Copy CRC 694CB9F9
Copy OK

Track 18
Filename D:\Frank Sinatra - The Complete Reprise Studio Recordings\CD12\18 - The Bells Of Christmas (Greensleeves).wav

Pre-gap length 0:00:00.70

Peak level 90.8 %
Track quality 100.0 %
Test CRC 4CB5F1FF
Copy CRC 4CB5F1FF
Copy OK

Track 19
Filename D:\Frank Sinatra - The Complete Reprise Studio Recordings\CD12\19 - I Wouldn't Trade Christmas.wav

Pre-gap length 0:00:01.05

Peak level 86.6 %
Track quality 99.9 %
Test CRC 2620522C
Copy CRC 2620522C
Copy OK

Track 20
Filename D:\Frank Sinatra - The Complete Reprise Studio Recordings\CD12\20 - The Christmas Waltz.wav

Pre-gap length 0:00:01.03

Peak level 84.7 %
Track quality 100.0 %
Test CRC 78427360
Copy CRC 78427360
Copy OK

No errors occured

End of status report
CD#13:
280. 1. Blue Lace (Jacob/Jacob/Ortolani) - 2:43
281. 2. Star! (Cahn/VanHeusen) - 2:34
282. 3. Gentle on My Mind (Hartford) - 3:22
283. 4. By the Time I Get to Phoenix (Webb) - 3:55
284. 5. Little Green Apples (Russell) - 4:58
285. 6. Moody River (Bruce) - 2:33
286. 7. Pretty Colors (Gorgoni/Taylor) - 2:35
287. 8. Rain in My Heart (Pike/Randazzo) - 3:21
288. 9. Wandering (Caldwell) - 2:46
289. 10. Both Sides Now (Mitchell) - 2:56
290. 11. My Way (Anka/Francois/Revaux/Thibault) - 4:36
291. 12. One Note Samba (Samba de Uma Nota So) performed by Sinatra / Jobim, Antonio Carlos - 2:20
292. 13. Don't Ever Go Away (Por Causa de Voce) (Duran/Gilbert/Jobim) - 2:28
293. 14. Wave (Jobim) - 3:19
294. 15. Bonito (Gilbert/Jobim/Lees) - 3:39
295. 16. Someone to Light Up My Life (DeMoraes/Jobim/Lees) - 2:37
296. 17. Desafinado [#] performed by Sinatra / Jobim, Antonio Carlos - 3:00
297. 18. Agua de Beber performed by Sinatra / Jobim, Antonio Carlos - 2:35
298. 19. Songs of the Sabiб (Buarque/Gimbel/Jobim) - 3:38
299. 20. This Happy Madness (Estrada Branca) performed by Sinatra / Jobim, Antonio Carlos - 2:54
300. 21. Triste (Jobim) - 2:39
EAC extraction logfile from 30. July 2005, 23:02 for CD
Frank Sinatra / The Complete Reprise Studio Recordings Disc 13

Used drive : PLEXTOR DVDR PX-712A Adapter: 1 ID: 0
Read mode : Secure with NO C2, accurate stream, disable cache
Read offset correction : 30
Overread into Lead-In and Lead-Out : Yes

Used output format : C:\Program Files\FLAC\flac.exe (User Defined Encoder)
320 kBit/s
Additional command line options : -8 -V -T "artist=%a" -T "title=%t" -T "album=%g" -T "date=%y" -T

"tracknumber=%n" -T "genre=%m" -T "comment=EAC Flac 1.1.1 -8" %s

Other options :
Fill up missing offset samples with silence : Yes
Delete leading and trailing silent blocks : No
Installed external ASPI interface

Track 1
Filename D:\Frank Sinatra - The Complete Reprise Studio Recordings\CD13\01 - Blue Lace.wav

Pre-gap length 0:00:02.00

Peak level 71.4 %
Track quality 99.9 %
Test CRC 70C0A92B
Copy CRC 70C0A92B
Copy OK

Track 2
Filename D:\Frank Sinatra - The Complete Reprise Studio Recordings\CD13\02 - Star!.wav

Peak level 94.8 %
Track quality 100.0 %
Test CRC 27FF529A
Copy CRC 27FF529A
Copy OK

Track 3
Filename D:\Frank Sinatra - The Complete Reprise Studio Recordings\CD13\03 - Gentle On My Mind.wav

Peak level 82.5 %
Track quality 100.0 %
Test CRC 414BDC7C
Copy CRC 414BDC7C
Copy OK

Track 4
Filename D:\Frank Sinatra - The Complete Reprise Studio Recordings\CD13\04 - By The Time I Get To Phoenix.wav

Peak level 67.3 %
Track quality 100.0 %
Test CRC 99ACA85D
Copy CRC 99ACA85D
Copy OK

Track 5
Filename D:\Frank Sinatra - The Complete Reprise Studio Recordings\CD13\05 - Little Green Apples.wav

Peak level 73.2 %
Track quality 100.0 %
Test CRC 201250E6
Copy CRC 201250E6
Copy OK

Track 6
Filename D:\Frank Sinatra - The Complete Reprise Studio Recordings\CD13\06 - Moody River.wav

Pre-gap length 0:00:01.03

Peak level 81.0 %
Track quality 100.0 %
Test CRC 12F87F14
Copy CRC 12F87F14
Copy OK

Track 7
Filename D:\Frank Sinatra - The Complete Reprise Studio Recordings\CD13\07 - Pretty Colors.wav

Pre-gap length 0:00:01.00

Peak level 75.0 %
Track quality 100.0 %
Test CRC 3C427F6B
Copy CRC 3C427F6B
Copy OK

Track 8
Filename D:\Frank Sinatra - The Complete Reprise Studio Recordings\CD13\08 - Rain In My Heart.wav

Peak level 85.2 %
Track quality 100.0 %
Test CRC 7D80C73F
Copy CRC 7D80C73F
Copy OK

Track 9
Filename D:\Frank Sinatra - The Complete Reprise Studio Recordings\CD13\09 - Wandering.wav

Peak level 87.5 %
Track quality 100.0 %
Test CRC B2C21A34
Copy CRC B2C21A34
Copy OK

Track 10
Filename D:\Frank Sinatra - The Complete Reprise Studio Recordings\CD13\10 - Both Sides Now.wav

Peak level 88.3 %
Track quality 100.0 %
Test CRC 82CA6135
Copy CRC 82CA6135
Copy OK

Track 11
Filename D:\Frank Sinatra - The Complete Reprise Studio Recordings\CD13\11 - My Way.wav

Peak level 86.5 %
Track quality 100.0 %
Test CRC B337505F
Copy CRC B337505F
Copy OK

Track 12
Filename D:\Frank Sinatra - The Complete Reprise Studio Recordings\CD13\12 - One Note Samba (Samba De Uma Nota So).wav

Peak level 87.0 %
Track quality 100.0 %
Test CRC 310B49B1
Copy CRC 310B49B1
Copy OK

Track 13
Filename D:\Frank Sinatra - The Complete Reprise Studio Recordings\CD13\13 - Don't Ever Go Away (Por Causa De Voce).wav

Peak level 86.3 %
Track quality 100.0 %
Test CRC 2A0DD6E8
Copy CRC 2A0DD6E8
Copy OK

Track 14
Filename D:\Frank Sinatra - The Complete Reprise Studio Recordings\CD13\14 - Wave.wav

Peak level 90.6 %
Track quality 99.9 %
Test CRC 2AC85A0E
Copy CRC 2AC85A0E
Copy OK

Track 15
Filename D:\Frank Sinatra - The Complete Reprise Studio Recordings\CD13\15 - Bonita.wav

Peak level 82.2 %
Track quality 99.9 %
Test CRC 78777CA8
Copy CRC 78777CA8
Copy OK

Track 16
Filename D:\Frank Sinatra - The Complete Reprise Studio Recordings\CD13\16 - Someone To Light Up My Life.wav

Peak level 83.9 %
Track quality 99.9 %
Test CRC 8EE2A069
Copy CRC 8EE2A069
Copy OK

Track 17
Filename D:\Frank Sinatra - The Complete Reprise Studio Recordings\CD13\17 - Desafinado.wav

Peak level 86.2 %
Track quality 100.0 %
Test CRC C36DCBD0
Copy CRC C36DCBD0
Copy OK

Track 18
Filename D:\Frank Sinatra - The Complete Reprise Studio Recordings\CD13\18 - Drinking Water (Aqua De Beber).wav

Peak level 94.8 %
Track quality 100.0 %
Test CRC BC118F68
Copy CRC BC118F68
Copy OK

Track 19
Filename D:\Frank Sinatra - The Complete Reprise Studio Recordings\CD13\19 - Song Of The Sabia.wav

Peak level 93.6 %
Track quality 99.9 %
Test CRC 85C57B91
Copy CRC 85C57B91
Copy OK

Track 20
Filename D:\Frank Sinatra - The Complete Reprise Studio Recordings\CD13\20 - This Happy Madness (Estrada Branca).wav

Peak level 82.3 %
Track quality 100.0 %
Test CRC B14F7E30
Copy CRC B14F7E30
Copy OK

Track 21
Filename D:\Frank Sinatra - The Complete Reprise Studio Recordings\CD13\21 - Triste.wav

Peak level 92.8 %
Track quality 99.9 %
Test CRC 7CED0C2E
Copy CRC 7CED0C2E
Copy OK

No errors occured

End of status report
CD#14:
301. 1. All My Tomorrows (Cahn/Van Heusen) - 4:38
302. 2. Didn't We (Webb) - 2:56
303. 3. A Day in the Life of a Fool (Bonfa/Sigman) - 3:01
304. 4. Yesterday (Lennon/McCartney) - 3:56
305. 5. If You Go Away (Brel/McKuen) - 3:32
306. 6. Watch What Happens (Demy/Gimbel/Legrand) - 2:19
307. 7. For Once in My Life (Miller/Murden) - 2:51
308. 8. Mrs. Robinson (Simon) - 2:54
309. 9. Hallelujah, I Love Her So (Charles) - 2:49
310. 10. I've Been to Town (McKuen) - 3:11
311. 11. Empty Is (McKuen) - 2:43
312. 12. The Single Man (McKuen) - 3:00
313. 13. Lonesome Cities (McKuen) - 3:16
314. 14. The Beautiful Strangers (McKuen) - 2:39
315. 15. A Man Alone (McKuen) - 3:45
316. 16. Love's Been Good to Me (McKuen) - 3:24
317. 17. Out Beyond the Window (McKuen) - 2:42
318. 18. Night (McKuen) - 2:23
319. 19. Some Traveling Music (McKuen) - 2:34
320. 20. From Promise to Promise (McKuen) - 1:29
321. 21. A Man Alone (Reprise) (McKuen) - 1:31
322. 22. In the Shadow of the Moon (Brown/Keissling) - 2:55
323. 23. Forget to Remember (Pike/Randazzo) - 2:58
324. 24. Goin' Out of My Head (Randazzo/Weinstein) - 2:45
EAC extraction logfile from 30. July 2005, 23:51 for CD
Frank Sinatra / The Complete Reprise Studio Recordings Disc 14

Used drive : PLEXTOR DVDR PX-712A Adapter: 1 ID: 0
Read mode : Secure with NO C2, accurate stream, disable cache
Read offset correction : 30
Overread into Lead-In and Lead-Out : Yes

Used output format : C:\Program Files\FLAC\flac.exe (User Defined Encoder)
320 kBit/s
Additional command line options : -8 -V -T "artist=%a" -T "title=%t" -T "album=%g" -T "date=%y" -T

"tracknumber=%n" -T "genre=%m" -T "comment=EAC Flac 1.1.1 -8" %s

Other options :
Fill up missing offset samples with silence : Yes
Delete leading and trailing silent blocks : No
Installed external ASPI interface

Track 1
Filename D:\Frank Sinatra - The Complete Reprise Studio Recordings\CD14\01 - All My Tomorrows.wav

Pre-gap length 0:00:02.00

Peak level 89.2 %
Track quality 100.0 %
Test CRC 8AE14AD9
Copy CRC 8AE14AD9
Copy OK

Track 2
Filename D:\Frank Sinatra - The Complete Reprise Studio Recordings\CD14\02 - Didn't We.wav

Peak level 79.8 %
Track quality 100.0 %
Test CRC C8D40BC2
Copy CRC C8D40BC2
Copy OK

Track 3
Filename D:\Frank Sinatra - The Complete Reprise Studio Recordings\CD14\03 - A Day In The Life Of A Fool.wav

Peak level 62.9 %
Track quality 100.0 %
Test CRC 4FEC2C98
Copy CRC 4FEC2C98
Copy OK

Track 4
Filename D:\Frank Sinatra - The Complete Reprise Studio Recordings\CD14\04 - Yesterday.wav

Peak level 83.3 %
Track quality 100.0 %
Test CRC DD1756E7
Copy CRC DD1756E7
Copy OK

Track 5
Filename D:\Frank Sinatra - The Complete Reprise Studio Recordings\CD14\05 - If You Go Away.wav

Peak level 94.0 %
Track quality 100.0 %
Test CRC DDAB79F8
Copy CRC DDAB79F8
Copy OK

Track 6
Filename D:\Frank Sinatra - The Complete Reprise Studio Recordings\CD14\06 - Watch What Happens.wav

Peak level 77.5 %
Track quality 99.9 %
Test CRC 6C7348B9
Copy CRC 6C7348B9
Copy OK

Track 7
Filename D:\Frank Sinatra - The Complete Reprise Studio Recordings\CD14\07 - For Once In My Life.wav

Peak level 73.8 %
Track quality 100.0 %
Test CRC D3E32C6F
Copy CRC D3E32C6F
Copy OK

Track 8
Filename D:\Frank Sinatra - The Complete Reprise Studio Recordings\CD14\08 - Mrs. Robinson.wav

Peak level 100.0 %
Track quality 100.0 %
Test CRC 72DD4C62
Copy CRC 72DD4C62
Copy OK

Track 9
Filename D:\Frank Sinatra - The Complete Reprise Studio Recordings\CD14\09 - Hallelujah, I Lover Her So.wav

Peak level 83.1 %
Track quality 100.0 %
Test CRC 69F186FC
Copy CRC 69F186FC
Copy OK

Track 10
Filename D:\Frank Sinatra - The Complete Reprise Studio Recordings\CD14\10 - I've Been To Town.wav

Peak level 82.4 %
Track quality 99.9 %
Test CRC 307A6A16
Copy CRC 307A6A16
Copy OK

Track 11
Filename D:\Frank Sinatra - The Complete Reprise Studio Recordings\CD14\11 - Empty Is.wav

Peak level 70.3 %
Track quality 100.0 %
Test CRC ACBD201B
Copy CRC ACBD201B
Copy OK

Track 12
Filename D:\Frank Sinatra - The Complete Reprise Studio Recordings\CD14\12 - The Single Man.wav

Peak level 88.6 %
Track quality 100.0 %
Test CRC BE481A30
Copy CRC BE481A30
Copy OK

Track 13
Filename D:\Frank Sinatra - The Complete Reprise Studio Recordings\CD14\13 - Lonesome Cities.wav

Peak level 91.2 %
Track quality 99.9 %
Test CRC 3DDA69E9
Copy CRC 3DDA69E9
Copy OK

Track 14
Filename D:\Frank Sinatra - The Complete Reprise Studio Recordings\CD14\14 - The Beautiful Strangers.wav

Peak level 72.7 %
Track quality 100.0 %
Test CRC 37DA2C3B
Copy CRC 37DA2C3B
Copy OK

Track 15
Filename D:\Frank Sinatra - The Complete Reprise Studio Recordings\CD14\15 - A Man Alone.wav

Peak level 89.1 %
Track quality 100.0 %
Test CRC A055B539
Copy CRC A055B539
Copy OK

Track 16
Filename D:\Frank Sinatra - The Complete Reprise Studio Recordings\CD14\16 - Love's Been Good To Me.wav

Peak level 88.5 %
Track quality 100.0 %
Test CRC ED336D74
Copy CRC ED336D74
Copy OK

Track 17
Filename D:\Frank Sinatra - The Complete Reprise Studio Recordings\CD14\17 - Out Beyond The Window.wav

Peak level 82.2 %
Track quality 100.0 %
Test CRC 006CCA4A
Copy CRC 006CCA4A
Copy OK

Track 18
Filename D:\Frank Sinatra - The Complete Reprise Studio Recordings\CD14\18 - Night.wav

Peak level 93.0 %
Track quality 100.0 %
Test CRC 2232F32E
Copy CRC 2232F32E
Copy OK

Track 19
Filename D:\Frank Sinatra - The Complete Reprise Studio Recordings\CD14\19 - Some Traveling Music.wav

Peak level 71.3 %
Track quality 100.0 %
Test CRC E74E27F4
Copy CRC E74E27F4
Copy OK

Track 20
Filename D:\Frank Sinatra - The Complete Reprise Studio Recordings\CD14\20 - From Promise To Promise.wav

Peak level 52.6 %
Track quality 100.0 %
Test CRC CF6AA081
Copy CRC CF6AA081
Copy OK

Track 21
Filename D:\Frank Sinatra - The Complete Reprise Studio Recordings\CD14\21 - A Man Alone (Reprise).wav

Peak level 76.7 %
Track quality 99.8 %
Test CRC 084B54B5
Copy CRC 084B54B5
Copy OK

Track 22
Filename D:\Frank Sinatra - The Complete Reprise Studio Recordings\CD14\22 - In The Shadow Of The Moon.wav

Pre-gap length 0:00:01.25

Peak level 89.4 %
Track quality 100.0 %
Test CRC 53D9AC23
Copy CRC 53D9AC23
Copy OK

Track 23
Filename D:\Frank Sinatra - The Complete Reprise Studio Recordings\CD14\23 - Forget To Remember.wav

Peak level 83.4 %
Track quality 100.0 %
Test CRC A7054DB7
Copy CRC A7054DB7
Copy OK

Track 24
Filename D:\Frank Sinatra - The Complete Reprise Studio Recordings\CD14\24 - Goin' Out Of My Head.wav

Peak level 94.7 %
Track quality 100.0 %
Test CRC 9E526FB7
Copy CRC 9E526FB7
Copy OK

No errors occured

End of status report
CD#15:
325. 1. I Would Be in Love (Anyway) (Gaudio/Holmes) - 2:32
326. 2. The Train (Gaudio/Holmes) - 3:26
327. 3. She Says (Gaudio/Holmes) - 1:51
328. 4. Lady Day (Gaudio/Holmes) - 2:48
329. 5. Watertown (Gaudio/Holmes) - 3:36
330. 6. What's Now Is Now (Gaudio/Holmes) - 4:02
331. 7. Goodbye (She Quietly Says) (Gaudio/Holmes) - 3:06
332. 8. What a Funny Girl (You Used to Be) (Gaudio/Holmes) - 2:56
333. 9. Elizabeth (Gaudio/Holmes) - 3:37
334. 10. Michael and Peter (Gaudio/Holmes) - 5:06
335. 11. For a While (Gaudio/Holmes) - 3:09
336. 12. Lady Day (Gaudio/Holmes) - 3:41
337. 13. I Will Drink the Wine (Ryan) - 3:28
338. 14. Bein' Green (Raposo) - 3:00
339. 15. My Sweet Lady (Denver) - 3:01
340. 16. Sunrise in the Morning (Ryan) - 2:51
341. 17. I'm Not Afraid (Brel/Jouannest/McKuen) - 3:39
342. 18. Something (Harrison) - 3:32
343. 19. Leaving on a Jet Plane (Denver) - 2:27
344. 20. Close to You (Hoffman/Lampl/Livingston) - 2:34
345. 21. Feelin' Kinda Sunday performed by Sinatra / Nancy Sinatra - 2:52
346. 22. Life's a Trippy Thing performed by Sinatra / Nancy Sinatra - 2:42
347. 23. The Game Is Over [#] (Denver) - 2:37
EAC extraction logfile from 31. July 2005, 0:33 for CD
Frank Sinatra / The Complete Reprise Studio Recordings Disc 15

Used drive : PLEXTOR DVDR PX-712A Adapter: 1 ID: 0
Read mode : Secure with NO C2, accurate stream, disable cache
Read offset correction : 30
Overread into Lead-In and Lead-Out : Yes

Used output format : C:\Program Files\FLAC\flac.exe (User Defined Encoder)
320 kBit/s
Additional command line options : -8 -V -T "artist=%a" -T "title=%t" -T "album=%g" -T "date=%y" -T

"tracknumber=%n" -T "genre=%m" -T "comment=EAC Flac 1.1.1 -8" %s

Other options :
Fill up missing offset samples with silence : Yes
Delete leading and trailing silent blocks : No
Installed external ASPI interface

Track 1
Filename D:\Frank Sinatra - The Complete Reprise Studio Recordings\CD15\01 - I Would Be In Love (Anyway).wav

Pre-gap length 0:00:02.00

Peak level 84.6 %
Track quality 99.9 %
Test CRC 6BB2FE0D
Copy CRC 6BB2FE0D
Copy OK

Track 2
Filename D:\Frank Sinatra - The Complete Reprise Studio Recordings\CD15\02 - The Train.wav

Peak level 71.2 %
Track quality 99.9 %
Test CRC C5892E74
Copy CRC C5892E74
Copy OK

Track 3
Filename D:\Frank Sinatra - The Complete Reprise Studio Recordings\CD15\03 - She Says.wav

Peak level 57.5 %
Track quality 100.0 %
Test CRC 38801D55
Copy CRC 38801D55
Copy OK

Track 4
Filename D:\Frank Sinatra - The Complete Reprise Studio Recordings\CD15\04 - Lady Day.wav

Peak level 95.9 %
Track quality 100.0 %
Test CRC BB5A5F98
Copy CRC BB5A5F98
Copy OK

Track 5
Filename D:\Frank Sinatra - The Complete Reprise Studio Recordings\CD15\05 - Watertown.wav

Peak level 90.6 %
Track quality 100.0 %
Test CRC 727458A6
Copy CRC 727458A6
Copy OK

Track 6
Filename D:\Frank Sinatra - The Complete Reprise Studio Recordings\CD15\06 - What's Now Is Now.wav

Peak level 97.2 %
Track quality 100.0 %
Test CRC 1D83D6E1
Copy CRC 1D83D6E1
Copy OK

Track 7
Filename D:\Frank Sinatra - The Complete Reprise Studio Recordings\CD15\07 - Goodbye (She Quietly Says).wav

Peak level 83.5 %
Track quality 100.0 %
Test CRC 8A89498D
Copy CRC 8A89498D
Copy OK

Track 8
Filename D:\Frank Sinatra - The Complete Reprise Studio Recordings\CD15\08 - What A Funny Girl (You Used To Be).wav

Peak level 83.9 %
Track quality 100.0 %
Test CRC 7A1AE7E0
Copy CRC 7A1AE7E0
Copy OK

Track 9
Filename D:\Frank Sinatra - The Complete Reprise Studio Recordings\CD15\09 - Elizabeth.wav

Peak level 96.0 %
Track quality 100.0 %
Test CRC 632EFEB5
Copy CRC 632EFEB5
Copy OK

Track 10
Filename D:\Frank Sinatra - The Complete Reprise Studio Recordings\CD15\10 - Michael And Peter.wav

Peak level 97.7 %
Track quality 99.9 %
Test CRC 780B5148
Copy CRC 780B5148
Copy OK

Track 11
Filename D:\Frank Sinatra - The Complete Reprise Studio Recordings\CD15\11 - For A While.wav

Peak level 89.8 %
Track quality 100.0 %
Test CRC BD90A431
Copy CRC BD90A431
Copy OK

Track 12
Filename D:\Frank Sinatra - The Complete Reprise Studio Recordings\CD15\12 - Lady Day.wav

Peak level 92.3 %
Track quality 100.0 %
Test CRC F713CE9D
Copy CRC F713CE9D
Copy OK

Track 13
Filename D:\Frank Sinatra - The Complete Reprise Studio Recordings\CD15\13 - I Will Drink The Wine.wav

Peak level 76.9 %
Track quality 100.0 %
Test CRC E875B63E
Copy CRC E875B63E
Copy OK

Track 14
Filename D:\Frank Sinatra - The Complete Reprise Studio Recordings\CD15\14 - Bein' Green.wav

Peak level 95.2 %
Track quality 100.0 %
Test CRC 95115E3B
Copy CRC 95115E3B
Copy OK

Track 15
Filename D:\Frank Sinatra - The Complete Reprise Studio Recordings\CD15\15 - My Sweet Lady.wav

Peak level 88.8 %
Track quality 100.0 %
Test CRC F1F654B0
Copy CRC F1F654B0
Copy OK

Track 16
Filename D:\Frank Sinatra - The Complete Reprise Studio Recordings\CD15\16 - Sunrise In The Morning.wav

Peak level 76.2 %
Track quality 100.0 %
Test CRC B97310B2
Copy CRC B97310B2
Copy OK

Track 17
Filename D:\Frank Sinatra - The Complete Reprise Studio Recordings\CD15\17 - I'm Not Afraid.wav

Peak level 100.0 %
Track quality 100.0 %
Test CRC 3DC068D2
Copy CRC 3DC068D2
Copy OK

Track 18
Filename D:\Frank Sinatra - The Complete Reprise Studio Recordings\CD15\18 - Something.wav

Peak level 94.9 %
Track quality 100.0 %
Test CRC 95AF1E0E
Copy CRC 95AF1E0E
Copy OK

Track 19
Filename D:\Frank Sinatra - The Complete Reprise Studio Recordings\CD15\19 - Leaving On A Jet Plane.wav

Pre-gap length 0:00:01.28

Peak level 81.2 %
Track quality 99.9 %
Test CRC DC8FED76
Copy CRC DC8FED76
Copy OK

Track 20
Filename D:\Frank Sinatra - The Complete Reprise Studio Recordings\CD15\20 - Close To You.wav

Pre-gap length 0:00:01.05

Peak level 73.1 %
Track quality 100.0 %
Test CRC BEB0DBB1
Copy CRC BEB0DBB1
Copy OK

Track 21
Filename D:\Frank Sinatra - The Complete Reprise Studio Recordings\CD15\21 - Feelin' Kinda Sunday.wav

Peak level 77.4 %
Track quality 100.0 %
Test CRC 22A0D97C
Copy CRC 22A0D97C
Copy OK

Track 22
Filename D:\Frank Sinatra - The Complete Reprise Studio Recordings\CD15\22 - Life's A Trippy Thing.wav

Peak level 74.9 %
Track quality 100.0 %
Test CRC 30704D4B
Copy CRC 30704D4B
Copy OK

Track 23
Filename D:\Frank Sinatra - The Complete Reprise Studio Recordings\CD15\23 - The Game Is Over.wav

Peak level 85.7 %
Track quality 100.0 %
Test CRC AF483568
Copy CRC AF483568
Copy OK

No errors occured

End of status report
CD#16:
348. 1. Bang Bang (My Baby Shot Me Down) [#] (Bono) - 3:37
349. 2. You Will Be My Music (Raposo) - 3:52
350. 3. Noah (Raposo) - 4:24
351. 4. Nobody Wins (Kristofferson) - 5:12
352. 5. The Hurt Doesn't Go Away (Raposo) - 2:51
353. 6. Winners (Raposo) - 2:53
354. 7. Let Me Try Again (Laisse Moi le Temps) (Anka/Cahn/Jourdan/Vasori) - 3:31
355. 8. Walk Away [#] (Bernstein/Leigh) - 2:57
356. 9. Send in the Clowns (Sondheim) - 4:11
357. 10. There Used to Be a Ballpark (Raposo) - 3:36
358. 11. You're So Right (For What's Wrong in My... (Joyce/Pike/Randazzo) - 4:06
359. 12. Dream Away (Williams/Williams) - 4:18
360. 13. Bad, Bad Leroy Brown (Croce) - 2:50
361. 14. I'm Gonna Make It All the Way (Huddleston) - 2:52
362. 15. Empty Tables (Mercer/Van Heusen) - 3:03
363. 16. If (Gates) - 3:08
364. 17. The Summer Knows (Bergman/Bergman/Legrand) - 2:41
365. 18. Sweet Caroline (Diamond) - 2:41
366. 19. You Turned My World Around (Carnes/Ellingson/Kaempfert/Rehbein) - 2:46
367. 20. What Are You Doing the Rest of Your Life? (Bergman/Bergman/Legrand) - 4:02
368. 21. Tie a Yellow Ribbon Arond the Ole Oak Tree (Brown/Levine) - 3:04
369. 22. Satisfy Me One More Time (Huddleston) - 2:19
EAC extraction logfile from 31. July 2005, 1:10 for CD
Frank Sinatra / The Complete Reprise Studio Recordings Disc 16

Used drive : PLEXTOR DVDR PX-712A Adapter: 1 ID: 0
Read mode : Secure with NO C2, accurate stream, disable cache
Read offset correction : 30
Overread into Lead-In and Lead-Out : Yes

Used output format : C:\Program Files\FLAC\flac.exe (User Defined Encoder)
320 kBit/s
Additional command line options : -8 -V -T "artist=%a" -T "title=%t" -T "album=%g" -T "date=%y" -T

"tracknumber=%n" -T "genre=%m" -T "comment=EAC Flac 1.1.1 -8" %s

Other options :
Fill up missing offset samples with silence : Yes
Delete leading and trailing silent blocks : No
Installed external ASPI interface

Track 1
Filename D:\Frank Sinatra - The Complete Reprise Studio Recordings\CD16\01 - Bang Bang (My Baby Shot Me Down).wav

Pre-gap length 0:00:02.00

Peak level 97.1 %
Track quality 100.0 %
Test CRC D6B9D2D3
Copy CRC D6B9D2D3
Copy OK

Track 2
Filename D:\Frank Sinatra - The Complete Reprise Studio Recordings\CD16\02 - You Will Be My Music.wav

Peak level 76.6 %
Track quality 100.0 %
Test CRC 2DCC9F01
Copy CRC 2DCC9F01
Copy OK

Track 3
Filename D:\Frank Sinatra - The Complete Reprise Studio Recordings\CD16\03 - Noah.wav

Peak level 100.0 %
Track quality 100.0 %
Test CRC 29A3C960
Copy CRC 29A3C960
Copy OK

Track 4
Filename D:\Frank Sinatra - The Complete Reprise Studio Recordings\CD16\04 - Nobody Wins.wav

Peak level 74.2 %
Track quality 100.0 %
Test CRC 54B63CA2
Copy CRC 54B63CA2
Copy OK

Track 5
Filename D:\Frank Sinatra - The Complete Reprise Studio Recordings\CD16\05 - The Hurt Doesn't Go Away.wav

Peak level 68.9 %
Track quality 100.0 %
Test CRC EC0D0503
Copy CRC EC0D0503
Copy OK

Track 6
Filename D:\Frank Sinatra - The Complete Reprise Studio Recordings\CD16\06 - Winners.wav

Pre-gap length 0:00:01.00

Peak level 97.4 %
Track quality 100.0 %
Test CRC E110743E
Copy CRC E110743E
Copy OK

Track 7
Filename D:\Frank Sinatra - The Complete Reprise Studio Recordings\CD16\07 - Let Me Try Again.wav

Peak level 76.5 %
Track quality 100.0 %
Test CRC CFAEA6C7
Copy CRC CFAEA6C7
Copy OK

Track 8
Filename D:\Frank Sinatra - The Complete Reprise Studio Recordings\CD16\08 - Walk Away.wav

Peak level 89.2 %
Track quality 100.0 %
Test CRC 6A904897
Copy CRC 6A904897
Copy OK

Track 9
Filename D:\Frank Sinatra - The Complete Reprise Studio Recordings\CD16\09 - Send In The Clowns.wav

Peak level 81.9 %
Track quality 100.0 %
Test CRC 6A195042
Copy CRC 6A195042
Copy OK

Track 10
Filename D:\Frank Sinatra - The Complete Reprise Studio Recordings\CD16\10 - There Used To Be A Ballpark.wav

Peak level 71.9 %
Track quality 100.0 %
Test CRC 17C43585
Copy CRC 17C43585
Copy OK

Track 11
Filename D:\Frank Sinatra - The Complete Reprise Studio Recordings\CD16\11 - You're So Right (For What's Wrong With My

Life).wav

Peak level 66.1 %
Track quality 100.0 %
Test CRC F152BC31
Copy CRC F152BC31
Copy OK

Track 12
Filename D:\Frank Sinatra - The Complete Reprise Studio Recordings\CD16\12 - Dream Away.wav

Peak level 73.0 %
Track quality 100.0 %
Test CRC 27AF3489
Copy CRC 27AF3489
Copy OK

Track 13
Filename D:\Frank Sinatra - The Complete Reprise Studio Recordings\CD16\13 - Bad, Bad Leroy Brown.wav

Peak level 98.0 %
Track quality 99.9 %
Test CRC D8726512
Copy CRC D8726512
Copy OK

Track 14
Filename D:\Frank Sinatra - The Complete Reprise Studio Recordings\CD16\14 - I'm Gonna Make It All The Way.wav

Peak level 77.9 %
Track quality 100.0 %
Test CRC FDF3B34F
Copy CRC FDF3B34F
Copy OK

Track 15
Filename D:\Frank Sinatra - The Complete Reprise Studio Recordings\CD16\15 - Empty Tables.wav

Peak level 61.8 %
Track quality 100.0 %
Test CRC ABF2F918
Copy CRC ABF2F918
Copy OK

Track 16
Filename D:\Frank Sinatra - The Complete Reprise Studio Recordings\CD16\16 - If.wav

Peak level 86.1 %
Track quality 100.0 %
Test CRC D3B81B77
Copy CRC D3B81B77
Copy OK

Track 17
Filename D:\Frank Sinatra - The Complete Reprise Studio Recordings\CD16\17 - The Summer Knows.wav

Peak level 100.0 %
Track quality 100.0 %
Test CRC E351F268
Copy CRC E351F268
Copy OK

Track 18
Filename D:\Frank Sinatra - The Complete Reprise Studio Recordings\CD16\18 - Sweet Caroline.wav

Peak level 93.3 %
Track quality 100.0 %
Test CRC E4BBB854
Copy CRC E4BBB854
Copy OK

Track 19
Filename D:\Frank Sinatra - The Complete Reprise Studio Recordings\CD16\19 - You Turned My World Around.wav

Peak level 91.2 %
Track quality 100.0 %
Test CRC 87BB157A
Copy CRC 87BB157A
Copy OK

Track 20
Filename D:\Frank Sinatra - The Complete Reprise Studio Recordings\CD16\20 - What Are You Doing The Rest Of Your Life

.wav

Peak level 78.5 %
Track quality 99.9 %
Test CRC 3784F12F
Copy CRC 3784F12F
Copy OK

Track 21
Filename D:\Frank Sinatra - The Complete Reprise Studio Recordings\CD16\21 - Tie A Yellow Ribbon Round The Ole Oak

Tree.wav

Peak level 94.2 %
Track quality 100.0 %
Test CRC 553AC9F5
Copy CRC 553AC9F5
Copy OK

Track 22
Filename D:\Frank Sinatra - The Complete Reprise Studio Recordings\CD16\22 - Satisfy Me One More Time.wav

Peak level 84.8 %
Track quality 100.0 %
Test CRC 344BD051
Copy CRC 344BD051
Copy OK

No errors occured

End of status report
CD#17:
370. 1. You Are the Sunshine of My Life (Wonder) - 2:34
371. 2. Just as Though You Were Here (Brooks/DeLange) - 4:23
372. 3. Everything Happens to Me [#] (Adair/Dennis) - 3:43
373. 4. Anytime (I'll Be There) (Anka) - 3:21
374. 5. The Only Couple on the Floor (Daine/Durrill) - 3:11
375. 6. I Believe I'm Gonna Love You (Lloyd/Sklerov) - 2:48
376. 7. The Saddest Thing of All (Legrand/Leroyer/Ruault/Sigman) - 3:29
377. 8. A Baby Just Like You (Denver/Henry) - 2:47
378. 9. Christmas Memories (Bergman/Bergman/Costa) - 2:09
379. 10. I Sing the Songs (I Write the Songs) (Johnston) - 3:51
380. 11. Empty Tables performed by Sinatra / Bill Miller - 2:48
381. 12. Send in the Clowns performed by Sinatra / Bill Miller - 3:39
382. 13. The Best I Ever Had performed by Sinatra / Sam Butera - 1:57
383. 14. Stargazer performed by Sinatra / Bill Butera - 2:58
384. 15. Dry Your Eyes (Diamond/Robertson) - 3:02
385. 16. Like a Sad Song (Denver) - 4:12
386. 17. I Love My Wife (Coleman/Stewart) - 3:10
387. 18. Night and Day (Porter) - 2:11
388. 19. All or Nothing at All [#] (Altman/Lawrence) - 2:36
389. 20. Everybody Ought to Be in Love (Anka) - 3:19
390. 21. Nancy (With the Laughing Face) (Silvers/VanHeusen) - 2:29
391. 22. Emily (Mandel/Mercer) - 2:59
392. 23. Linda [#] (Lawrence) - 2:44
393. 24. Sweet Lorraine (Burwell/Parish) - 2:22
EAC extraction logfile from 31. July 2005, 10:58 for CD
Frank Sinatra / The Complete Reprise Studio Recordings Disc 17

Used drive : PLEXTOR DVDR PX-712A Adapter: 1 ID: 0
Read mode : Secure with NO C2, accurate stream, disable cache
Read offset correction : 30
Overread into Lead-In and Lead-Out : Yes

Used output format : C:\Program Files\FLAC\flac.exe (User Defined Encoder)
320 kBit/s
Additional command line options : -8 -V -T "artist=%a" -T "title=%t" -T "album=%g" -T "date=%y" -T

"tracknumber=%n" -T "genre=%m" -T "comment=EAC Flac 1.1.1 -8" %s

Other options :
Fill up missing offset samples with silence : Yes
Delete leading and trailing silent blocks : No
Installed external ASPI interface

Track 1
Filename D:\Frank Sinatra - The Complete Reprise Studio Recordings\CD17\01 - You Are The Sunshine Of My Life.wav

Pre-gap length 0:00:02.00

Peak level 82.9 %
Track quality 100.0 %
Test CRC 3DFBAF1A
Copy CRC 3DFBAF1A
Copy OK

Track 2
Filename D:\Frank Sinatra - The Complete Reprise Studio Recordings\CD17\02 - Just As Though You Were Here.wav

Peak level 81.8 %
Track quality 100.0 %
Test CRC 0A774CFB
Copy CRC 0A774CFB
Copy OK

Track 3
Filename D:\Frank Sinatra - The Complete Reprise Studio Recordings\CD17\03 - Everything Happens To Me.wav

Peak level 59.1 %
Track quality 100.0 %
Test CRC AD035635
Copy CRC AD035635
Copy OK

Track 4
Filename D:\Frank Sinatra - The Complete Reprise Studio Recordings\CD17\04 - Anytime (I'll Be There).wav

Peak level 90.5 %
Track quality 100.0 %
Test CRC A7C3D22F
Copy CRC A7C3D22F
Copy OK

Track 5
Filename D:\Frank Sinatra - The Complete Reprise Studio Recordings\CD17\05 - The Only Couple On The Floor.wav

Peak level 86.1 %
Track quality 100.0 %
Test CRC 92837DDE
Copy CRC 92837DDE
Copy OK

Track 6
Filename D:\Frank Sinatra - The Complete Reprise Studio Recordings\CD17\06 - I Believe I'm Gonna Love You.wav

Peak level 89.1 %
Track quality 100.0 %
Test CRC 21E78FC5
Copy CRC 21E78FC5
Copy OK

Track 7
Filename D:\Frank Sinatra - The Complete Reprise Studio Recordings\CD17\07 - The Saddest Thing Of All.wav

Peak level 74.5 %
Track quality 100.0 %
Test CRC 4EFE55D2
Copy CRC 4EFE55D2
Copy OK

Track 8
Filename D:\Frank Sinatra - The Complete Reprise Studio Recordings\CD17\08 - A Baby Just Like You.wav

Peak level 64.2 %
Track quality 99.9 %
Test CRC 128175D0
Copy CRC 128175D0
Copy OK

Track 9
Filename D:\Frank Sinatra - The Complete Reprise Studio Recordings\CD17\09 - Christmas Memories.wav

Pre-gap length 0:00:01.17

Peak level 88.1 %
Track quality 100.0 %
Test CRC D26B0CE4
Copy CRC D26B0CE4
Copy OK

Track 10
Filename D:\Frank Sinatra - The Complete Reprise Studio Recordings\CD17\10 - I Sing The Songs (I Write The Songs).wav

Peak level 83.2 %
Track quality 100.0 %
Test CRC 117BD2C1
Copy CRC 117BD2C1
Copy OK

Track 11
Filename D:\Frank Sinatra - The Complete Reprise Studio Recordings\CD17\11 - Empty Tables.wav

Peak level 52.8 %
Track quality 99.9 %
Test CRC 98D15F04
Copy CRC 98D15F04
Copy OK

Track 12
Filename D:\Frank Sinatra - The Complete Reprise Studio Recordings\CD17\12 - Send In The Clowns.wav

Peak level 100.0 %
Track quality 100.0 %
Test CRC 56E72A32
Copy CRC 56E72A32
Copy OK

Track 13
Filename D:\Frank Sinatra - The Complete Reprise Studio Recordings\CD17\13 - The Best I've Ever Had.wav

Peak level 78.1 %
Track quality 100.0 %
Test CRC D36B7C24
Copy CRC D36B7C24
Copy OK

Track 14
Filename D:\Frank Sinatra - The Complete Reprise Studio Recordings\CD17\14 - Stargazer.wav

Peak level 78.6 %
Track quality 100.0 %
Test CRC AB38BA43
Copy CRC AB38BA43
Copy OK

Track 15
Filename D:\Frank Sinatra - The Complete Reprise Studio Recordings\CD17\15 - Dry Your Eyes.wav

Peak level 73.6 %
Track quality 100.0 %
Test CRC 5A91B7BD
Copy CRC 5A91B7BD
Copy OK

Track 16
Filename D:\Frank Sinatra - The Complete Reprise Studio Recordings\CD17\16 - Like A Sad Song.wav

Peak level 63.5 %
Track quality 100.0 %
Test CRC FF3B86B4
Copy CRC FF3B86B4
Copy OK

Track 17
Filename D:\Frank Sinatra - The Complete Reprise Studio Recordings\CD17\17 - I Love My Wife.wav

Peak level 86.2 %
Track quality 100.0 %
Test CRC F7C27B55
Copy CRC F7C27B55
Copy OK

Track 18
Filename D:\Frank Sinatra - The Complete Reprise Studio Recordings\CD17\18 - Night And Day.wav

Peak level 91.4 %
Track quality 100.0 %
Test CRC 94662AA8
Copy CRC 94662AA8
Copy OK

Track 19
Filename D:\Frank Sinatra - The Complete Reprise Studio Recordings\CD17\19 - All Or Nothing At All.wav

Peak level 88.7 %
Track quality 100.0 %
Test CRC F9138885
Copy CRC F9138885
Copy OK

Track 20
Filename D:\Frank Sinatra - The Complete Reprise Studio Recordings\CD17\20 - Everybody Ought To Be In Love.wav

Peak level 90.8 %
Track quality 100.0 %
Test CRC 7621D884
Copy CRC 7621D884
Copy OK

Track 21
Filename D:\Frank Sinatra - The Complete Reprise Studio Recordings\CD17\21 - Nancy.wav

Peak level 100.0 %
Track quality 99.9 %
Test CRC 44B8B83C
Copy CRC 44B8B83C
Copy OK

Track 22
Filename D:\Frank Sinatra - The Complete Reprise Studio Recordings\CD17\22 - Emily.wav

Peak level 94.8 %
Track quality 99.9 %
Test CRC 76D9509C
Copy CRC 76D9509C
Copy OK

Track 23
Filename D:\Frank Sinatra - The Complete Reprise Studio Recordings\CD17\23 - Linda.wav

Peak level 100.0 %
Track quality 100.0 %
Test CRC 73D10380
Copy CRC 73D10380
Copy OK

Track 24
Filename D:\Frank Sinatra - The Complete Reprise Studio Recordings\CD17\24 - Sweet Lorraine.wav

Peak level 92.6 %
Track quality 100.0 %
Test CRC 1D94DE47
Copy CRC 1D94DE47
Copy OK

No errors occured

End of status report
CD#18:
394. 1. Barbara (David/Van Heusen) - 3:14
395. 2. I Had the Craziest Dream (Gordon/Warren) - 3:15
396. 3. It Had to Be You (Jones/Kahn) - 3:55
397. 4. You and Me (We Wanted It All) (Allen/Sager) - 4:10
398. 5. MacArthur Park (Webb) - 2:48
399. 6. Summer Me, Winter Me (Bergman/Bergman/Legrand) - 4:05
400. 7. That's What God Looks Like to Me (Irwin/Okun) - 2:58
401. 8. For the Good Times performed by Sinatra / Eileen Farrell - 4:43
402. 9. Love Me Tender (Matson/Presley) - 3:36
403. 10. Just the Way You Are (Joel) - 3:28
404. 11. Song Sung Blue (Diamond) - 2:45
405. 12. Isn't She Lovely? [#] (Wonder) - 2:04
406. 13. My Shining Hour (Arlen/Mercer) - 3:24
407. 14. All of You (Porter) - 1:43
408. 15. More Than You Know (Eliscu/Rose/Youmans) - 3:24
409. 16. The Song Is You (Hammerstein/Kern) - 2:41
410. 17. But Not for Me (Gershwin/Gershwin) - 3:53
411. 18. Street of Dreams (Lewis/Young) - 3:33
412. 19. They All Laughed (Gershwin/Gershwin) - 2:51
413. 20. Let's Face the Music and Dance (Berlin) - 2:52
414. 21. Theme from New York, New York (Ebb/Kander) - 3:27
415. 22. Something (Harrison) - 4:43
EAC extraction logfile from 31. July 2005, 11:51 for CD
Frank Sinatra / Complete Reprise Recordings (Disc 18)

Used drive : PLEXTOR DVDR PX-712A Adapter: 1 ID: 0
Read mode : Secure with NO C2, accurate stream, disable cache
Read offset correction : 30
Overread into Lead-In and Lead-Out : Yes

Used output format : C:\Program Files\FLAC\flac.exe (User Defined Encoder)
320 kBit/s
Additional command line options : -8 -V -T "artist=%a" -T "title=%t" -T "album=%g" -T "date=%y" -T

"tracknumber=%n" -T "genre=%m" -T "comment=EAC Flac 1.1.1 -8" %s

Other options :
Fill up missing offset samples with silence : Yes
Delete leading and trailing silent blocks : No
Installed external ASPI interface

Track 1
Filename D:\Frank Sinatra - The Complete Reprise Studio Recordings\CD18\01 - Barbara.wav

Pre-gap length 0:00:02.00

Peak level 83.1 %
Track quality 100.0 %
Test CRC 8468587A
Copy CRC 8468587A
Copy OK

Track 2
Filename D:\Frank Sinatra - The Complete Reprise Studio Recordings\CD18\02 - I Had The Craziest Dream.wav

Peak level 100.0 %
Track quality 100.0 %
Test CRC B7B815E2
Copy CRC B7B815E2
Copy OK

Track 3
Filename D:\Frank Sinatra - The Complete Reprise Studio Recordings\CD18\03 - It Had To Be You.wav

Peak level 80.0 %
Track quality 100.0 %
Test CRC 29D20554
Copy CRC 29D20554
Copy OK

Track 4
Filename D:\Frank Sinatra - The Complete Reprise Studio Recordings\CD18\04 - You And Me (We Wanted It All).wav

Peak level 100.0 %
Track quality 99.9 %
Test CRC FF94680E
Copy CRC FF94680E
Copy OK

Track 5
Filename D:\Frank Sinatra - The Complete Reprise Studio Recordings\CD18\05 - Macarthur Park.wav

Peak level 93.0 %
Track quality 100.0 %
Test CRC EF44A463
Copy CRC EF44A463
Copy OK

Track 6
Filename D:\Frank Sinatra - The Complete Reprise Studio Recordings\CD18\06 - Summer Me, Winter Me.wav

Peak level 86.9 %
Track quality 100.0 %
Test CRC EA61799C
Copy CRC EA61799C
Copy OK

Track 7
Filename D:\Frank Sinatra - The Complete Reprise Studio Recordings\CD18\07 - That's What God Looks Like To Me.wav

Peak level 79.9 %
Track quality 100.0 %
Test CRC 5F08BA67
Copy CRC 5F08BA67
Copy OK

Track 8
Filename D:\Frank Sinatra - The Complete Reprise Studio Recordings\CD18\08 - For The Good Time.wav

Peak level 83.7 %
Track quality 100.0 %
Test CRC 4746906D
Copy CRC 4746906D
Copy OK

Track 9
Filename D:\Frank Sinatra - The Complete Reprise Studio Recordings\CD18\09 - Love Me Tender.wav

Peak level 90.1 %
Track quality 100.0 %
Test CRC 6335034F
Copy CRC 6335034F
Copy OK

Track 10
Filename D:\Frank Sinatra - The Complete Reprise Studio Recordings\CD18\10 - Just The Way You Are.wav

Peak level 98.4 %
Track quality 100.0 %
Test CRC 609E5157
Copy CRC 609E5157
Copy OK

Track 11
Filename D:\Frank Sinatra - The Complete Reprise Studio Recordings\CD18\11 - Song Sung Blue.wav

Peak level 91.7 %
Track quality 99.9 %
Test CRC 7CB57E68
Copy CRC 7CB57E68
Copy OK

Track 12
Filename D:\Frank Sinatra - The Complete Reprise Studio Recordings\CD18\12 - Isn't She Lovely .wav

Peak level 91.7 %
Track quality 100.0 %
Test CRC CB0437E9
Copy CRC CB0437E9
Copy OK

Track 13
Filename D:\Frank Sinatra - The Complete Reprise Studio Recordings\CD18\13 - My Shining Hour.wav

Peak level 100.0 %
Track quality 100.0 %
Test CRC B40C0331
Copy CRC B40C0331
Copy OK

Track 14
Filename D:\Frank Sinatra - The Complete Reprise Studio Recordings\CD18\14 - All Of You.wav

Peak level 100.0 %
Track quality 100.0 %
Test CRC A3991B6E
Copy CRC A3991B6E
Copy OK

Track 15
Filename D:\Frank Sinatra - The Complete Reprise Studio Recordings\CD18\15 - More Than You Know.wav

Peak level 81.9 %
Track quality 99.9 %
Test CRC 71A017A7
Copy CRC 71A017A7
Copy OK

Track 16
Filename D:\Frank Sinatra - The Complete Reprise Studio Recordings\CD18\16 - The Song Is You.wav

Peak level 89.8 %
Track quality 100.0 %
Test CRC 5EAFF109
Copy CRC 5EAFF109
Copy OK

Track 17
Filename D:\Frank Sinatra - The Complete Reprise Studio Recordings\CD18\17 - But Not For Me.wav

Peak level 65.6 %
Track quality 100.0 %
Test CRC 7C6E6F1A
Copy CRC 7C6E6F1A
Copy OK

Track 18
Filename D:\Frank Sinatra - The Complete Reprise Studio Recordings\CD18\18 - Street Of Dreams.wav

Peak level 94.4 %
Track quality 100.0 %
Test CRC 092E774B
Copy CRC 092E774B
Copy OK

Track 19
Filename D:\Frank Sinatra - The Complete Reprise Studio Recordings\CD18\19 - They All Laughed.wav

Peak level 100.0 %
Track quality 100.0 %
Test CRC 58EBFAEB
Copy CRC 58EBFAEB
Copy OK

Track 20
Filename D:\Frank Sinatra - The Complete Reprise Studio Recordings\CD18\20 - Let's Face The Music And Dance.wav

Peak level 100.0 %
Track quality 99.9 %
Test CRC B779D30A
Copy CRC B779D30A
Copy OK

Track 21
Filename D:\Frank Sinatra - The Complete Reprise Studio Recordings\CD18\21 - Theme From New York, New York.wav

Peak level 94.8 %
Track quality 100.0 %
Test CRC 5ED64717
Copy CRC 5ED64717
Copy OK

Track 22
Filename D:\Frank Sinatra - The Complete Reprise Studio Recordings\CD18\22 - Something.wav

Peak level 84.6 %
Track quality 99.9 %
Test CRC B6119590
Copy CRC B6119590
Copy OK

No errors occured

End of status report
CD#19:
416. 1. What Time Does the Next Miracle Leave? performed by Sinatra / Diana Lee / Jerry Whitman - 10:41
417. 2. World War None! (Jenkins) - 4:36
418. 3. The Future performed by Sinatra / Beverly Jenkins - 4:10
419. 4. The Future (Continued): I've Been There (Jenkins) - 3:35
420. 5. The Future (Conclusion): Song Without... performed by Sinatra / Norman, Loulie Jean / Beverly Jenkins - 6:07
421. 6. Before the Music Ends {Finale} (Jenkins) - 10:01
422. 7. Bang Bang (My Baby Shot Me Down) (Bono) - 3:24
423. 8. Everything Happens to Me [#] (Adair/Dennis) - 4:11
424. 9. Medley: The Gal That Got Away/It Never... (Arlen/Gershwin/Hart/Rodgers) - 5:50
425. 10. Thanks for the Memory (Rainger/Robin) - 4:25
426. 11. I Loved Her (Jenkins) - 4:04
427. 12. A Long Night (McGlohon/Wilder) - 3:44
428. 13. South to a Warmer Place (McGlohon/Wilder) - 3:45
429. 14. Say Hello (Behrke/Cahn) - 2:25
430. 15. Good Thing Going (Sondheim) - 3:53
EAC extraction logfile from 31. July 2005, 12:29 for CD
Sinatra Frank / Complete Reprise Studio Recordings Disc.19

Used drive : PLEXTOR DVDR PX-712A Adapter: 1 ID: 0
Read mode : Secure with NO C2, accurate stream, disable cache
Read offset correction : 30
Overread into Lead-In and Lead-Out : Yes

Used output format : C:\Program Files\FLAC\flac.exe (User Defined Encoder)
320 kBit/s
Additional command line options : -8 -V -T "artist=%a" -T "title=%t" -T "album=%g" -T "date=%y" -T

"tracknumber=%n" -T "genre=%m" -T "comment=EAC Flac 1.1.1 -8" %s

Other options :
Fill up missing offset samples with silence : Yes
Delete leading and trailing silent blocks : No
Installed external ASPI interface

Track 1
Filename D:\Frank Sinatra - The Complete Reprise Studio Recordings\CD19\01 - What Time Does The Next Miracle Leave .wav

Pre-gap length 0:00:02.00

Peak level 77.6 %
Track quality 100.0 %
Test CRC 8797C2CD
Copy CRC 8797C2CD
Copy OK

Track 2
Filename D:\Frank Sinatra - The Complete Reprise Studio Recordings\CD19\02 - World War None!.wav

Peak level 100.0 %
Track quality 100.0 %
Test CRC 40174FCC
Copy CRC 40174FCC
Copy OK

Track 3
Filename D:\Frank Sinatra - The Complete Reprise Studio Recordings\CD19\03 - The Future.wav

Peak level 87.3 %
Track quality 100.0 %
Test CRC 74A9A5E2
Copy CRC 74A9A5E2
Copy OK

Track 4
Filename D:\Frank Sinatra - The Complete Reprise Studio Recordings\CD19\04 - The Future (Continued) I've Been There!.wav

Pre-gap length 0:00:01.35

Peak level 66.6 %
Track quality 100.0 %
Test CRC 23E7706D
Copy CRC 23E7706D
Copy OK

Track 5
Filename D:\Frank Sinatra - The Complete Reprise Studio Recordings\CD19\05 - The Future (Conclusion) Song Without

Words.wav

Peak level 90.4 %
Track quality 99.9 %
Test CRC 36048BD6
Copy CRC 36048BD6
Copy OK

Track 6
Filename D:\Frank Sinatra - The Complete Reprise Studio Recordings\CD19\06 - Finale- Before The Music Ends.wav

Pre-gap length 0:00:01.48

Peak level 100.0 %
Track quality 100.0 %
Test CRC 737A0E88
Copy CRC 737A0E88
Copy OK

Track 7
Filename D:\Frank Sinatra - The Complete Reprise Studio Recordings\CD19\07 - Bang Bang (My Baby Shot Me Down).wav

Peak level 84.0 %
Track quality 100.0 %
Test CRC 507160A3
Copy CRC 507160A3
Copy OK

Track 8
Filename D:\Frank Sinatra - The Complete Reprise Studio Recordings\CD19\08 - Everything Happens To Me.wav

Peak level 75.3 %
Track quality 100.0 %
Test CRC 042C7005
Copy CRC 042C7005
Copy OK

Track 9
Filename D:\Frank Sinatra - The Complete Reprise Studio Recordings\CD19\09 - The Gal That Got Away , It Never Entered My

Mind (Medley).wav

Peak level 94.3 %
Track quality 99.9 %
Test CRC 46101FC1
Copy CRC 46101FC1
Copy OK

Track 10
Filename D:\Frank Sinatra - The Complete Reprise Studio Recordings\CD19\10 - Thanks For The Memory.wav

Peak level 69.6 %
Track quality 99.9 %
Test CRC 0423B616
Copy CRC 0423B616
Copy OK

Track 11
Filename D:\Frank Sinatra - The Complete Reprise Studio Recordings\CD19\11 - I Loved Her.wav

Peak level 65.7 %
Track quality 100.0 %
Test CRC 0E0A4763
Copy CRC 0E0A4763
Copy OK

Track 12
Filename D:\Frank Sinatra - The Complete Reprise Studio Recordings\CD19\12 - A Long Night.wav

Peak level 68.1 %
Track quality 100.0 %
Test CRC 0B259EAD
Copy CRC 0B259EAD
Copy OK

Track 13
Filename D:\Frank Sinatra - The Complete Reprise Studio Recordings\CD19\13 - South - To A Warmer Place.wav

Peak level 74.4 %
Track quality 100.0 %
Test CRC C8558C7B
Copy CRC C8558C7B
Copy OK

Track 14
Filename D:\Frank Sinatra - The Complete Reprise Studio Recordings\CD19\14 - Say Hello.wav

Peak level 90.8 %
Track quality 100.0 %
Test CRC B5A21D8B
Copy CRC B5A21D8B
Copy OK

Track 15
Filename D:\Frank Sinatra - The Complete Reprise Studio Recordings\CD19\15 - Good Thing Going.wav

Peak level 72.9 %
Track quality 100.0 %
Test CRC 2075CCC1
Copy CRC 2075CCC1
Copy OK

No errors occured

End of status report
CD#20:
431. 1. Monday Morning Quarterback (Costa/Phillips Oland) - 4:38
432. 2. Hey Look, No Crying (Birkenhead/Styne) - 5:27
433. 3. To Love a Child performed by Sinatra / Nikki Costa - 3:21
434. 4. Love Makes Us Whatever We Want to Be [#] (Cahn/Styne) - 2:39
435. 5. Searching (Cahn/Styne) - 3:47
436. 6. Here's to the Band (Howe/Nittoli/Schroeck) - 4:11
437. 7. All the Way Home [#] (Randazzo) - 3:54
438. 8. It's Sunday performed by Sinatra / Tony Mottola - 3:36
439. 9. L.A. Is My Lady performed by Sinatra / Quincy Jones And His Orchestra - 3:13
440. 10. Until the Real Thing Comes Along performed by Sinatra / Quincy Jones And His Orchestra - 3:05
441. 11. After You've Gone performed by Sinatra / Quincy Jones And His Orchestra - 3:18
442. 12. The Best of Everything performed by Sinatra / Quincy Jones And His Orchestra - 2:48
443. 13. It's All Right With Me performed by Sinatra / Quincy Jones And His Orchestra - 2:41
444. 14. A Hundred Years from Today performed by Sinatra / Quincy Jones And His Orchestra - 3:08
445. 15. How Do You Keep the Music Playing? performed by Sinatra / Quincy Jones And His Orchestra - 3:53
446. 16. Teach Me Tonight performed by Sinatra / Quincy Jones And His Orchestra - 3:46
447. 17. If I Should Lose You performed by Sinatra / Quincy Jones And His Orchestra - 2:38
448. 18. Stormy Weather performed by Sinatra / Quincy Jones And His Orchestra - 3:41
449. 19. Mack the Knife performed by Sinatra / Quincy Jones And His Orchestra - 4:52
450. 20. The Girls I Never Kissed [#] performed by Sinatra / Jones, Quincy & Orchestra - 3:31
451. 21. Only One to a Customer [#] performed by Sinatra / Jones, Quincy & Orchestra - 2:48
452. 22. My Foolish Heart [#] performed by Sinatra / Jack Sheldon - 2:47
EAC extraction logfile from 31. July 2005, 13:05 for CD
Sinatra Frank / Complete Reprise Studio Recordings Disc.20

Used drive : PLEXTOR DVDR PX-712A Adapter: 1 ID: 0
Read mode : Secure with NO C2, accurate stream, disable cache
Read offset correction : 30
Overread into Lead-In and Lead-Out : Yes

Used output format : C:\Program Files\FLAC\flac.exe (User Defined Encoder)
320 kBit/s
Additional command line options : -8 -V -T "artist=%a" -T "title=%t" -T "album=%g" -T "date=%y" -T

"tracknumber=%n" -T "genre=%m" -T "comment=EAC Flac 1.1.1 -8" %s

Other options :
Fill up missing offset samples with silence : Yes
Delete leading and trailing silent blocks : No
Installed external ASPI interface

Track 1
Filename D:\Frank Sinatra - The Complete Reprise Studio Recordings\CD20\01 - Monday Morning Quarterback.wav

Pre-gap length 0:00:02.00

Peak level 78.8 %
Track quality 100.0 %
Test CRC 24B439EC
Copy CRC 24B439EC
Copy OK

Track 2
Filename D:\Frank Sinatra - The Complete Reprise Studio Recordings\CD20\02 - Hey Look, No Crying.wav

Peak level 78.1 %
Track quality 100.0 %
Test CRC 0274A4D8
Copy CRC 0274A4D8
Copy OK

Track 3
Filename D:\Frank Sinatra - The Complete Reprise Studio Recordings\CD20\03 - To Love A Child.wav

Peak level 84.1 %
Track quality 99.9 %
Test CRC 631E0233
Copy CRC 631E0233
Copy OK

Track 4
Filename D:\Frank Sinatra - The Complete Reprise Studio Recordings\CD20\04 - Love Makes Us Whatever We Want To Be.wav

Pre-gap length 0:00:01.00

Peak level 76.3 %
Track quality 100.0 %
Test CRC 37A6CDD6
Copy CRC 37A6CDD6
Copy OK

Track 5
Filename D:\Frank Sinatra - The Complete Reprise Studio Recordings\CD20\05 - Searching.wav

Pre-gap length 0:00:01.28

Peak level 80.1 %
Track quality 100.0 %
Test CRC 1102466B
Copy CRC 1102466B
Copy OK

Track 6
Filename D:\Frank Sinatra - The Complete Reprise Studio Recordings\CD20\06 - Here's To The Band.wav

Pre-gap length 0:00:01.06

Peak level 89.1 %
Track quality 100.0 %
Test CRC D8FD93F6
Copy CRC D8FD93F6
Copy OK

Track 7
Filename D:\Frank Sinatra - The Complete Reprise Studio Recordings\CD20\07 - All The Way Home.wav

Peak level 60.6 %
Track quality 100.0 %
Test CRC 89189CB7
Copy CRC 89189CB7
Copy OK

Track 8
Filename D:\Frank Sinatra - The Complete Reprise Studio Recordings\CD20\08 - It's Sunday.wav

Peak level 67.3 %
Track quality 100.0 %
Test CRC 48D4CACD
Copy CRC 48D4CACD
Copy OK

Track 9
Filename D:\Frank Sinatra - The Complete Reprise Studio Recordings\CD20\09 - L.A. Is My Lady.wav

Peak level 89.1 %
Track quality 100.0 %
Test CRC DD4476F6
Copy CRC DD4476F6
Copy OK

Track 10
Filename D:\Frank Sinatra - The Complete Reprise Studio Recordings\CD20\10 - Until The Real Thing Comes Along.wav

Peak level 89.1 %
Track quality 100.0 %
Test CRC 224679C4
Copy CRC 224679C4
Copy OK

Track 11
Filename D:\Frank Sinatra - The Complete Reprise Studio Recordings\CD20\11 - After You've Gone.wav

Peak level 89.1 %
Track quality 100.0 %
Test CRC 0B4C2D88
Copy CRC 0B4C2D88
Copy OK

Track 12
Filename D:\Frank Sinatra - The Complete Reprise Studio Recordings\CD20\12 - The Best Of Everything.wav

Pre-gap length 0:00:00.01

Peak level 89.1 %
Track quality 100.0 %
Test CRC 11FCABD4
Copy CRC 11FCABD4
Copy OK

Track 13
Filename D:\Frank Sinatra - The Complete Reprise Studio Recordings\CD20\13 - It's All Right With Me.wav

Peak level 89.1 %
Track quality 100.0 %
Test CRC F92DB6FE
Copy CRC F92DB6FE
Copy OK

Track 14
Filename D:\Frank Sinatra - The Complete Reprise Studio Recordings\CD20\14 - A Hundred Years From Today.wav

Peak level 88.7 %
Track quality 100.0 %
Test CRC 1A5D1286
Copy CRC 1A5D1286
Copy OK

Track 15
Filename D:\Frank Sinatra - The Complete Reprise Studio Recordings\CD20\15 - How Do You Keep The Music Playing.wav

Peak level 79.8 %
Track quality 100.0 %
Test CRC 2B9802BB
Copy CRC 2B9802BB
Copy OK

Track 16
Filename D:\Frank Sinatra - The Complete Reprise Studio Recordings\CD20\16 - Teach Me Tonight.wav

Peak level 89.1 %
Track quality 100.0 %
Test CRC 6ACF0CD2
Copy CRC 6ACF0CD2
Copy OK

Track 17
Filename D:\Frank Sinatra - The Complete Reprise Studio Recordings\CD20\17 - If I Should Lose You.wav

Peak level 89.1 %
Track quality 100.0 %
Test CRC 5C7C67B9
Copy CRC 5C7C67B9
Copy OK

Track 18
Filename D:\Frank Sinatra - The Complete Reprise Studio Recordings\CD20\18 - Stormy Weather.wav

Peak level 78.1 %
Track quality 100.0 %
Test CRC 6E634D70
Copy CRC 6E634D70
Copy OK

Track 19
Filename D:\Frank Sinatra - The Complete Reprise Studio Recordings\CD20\19 - Mack The Knife.wav

Peak level 83.8 %
Track quality 100.0 %
Test CRC AFE2D08D
Copy CRC AFE2D08D
Copy OK

Track 20
Filename D:\Frank Sinatra - The Complete Reprise Studio Recordings\CD20\20 - The Girls I Never Kissed.wav

Peak level 64.7 %
Track quality 100.0 %
Test CRC 35F48472
Copy CRC 35F48472
Copy OK

Track 21
Filename D:\Frank Sinatra - The Complete Reprise Studio Recordings\CD20\21 - Only One To A Customer.wav

Peak level 78.7 %
Track quality 100.0 %
Test CRC 145AF463
Copy CRC 145AF463
Copy OK

Track 22
Filename D:\Frank Sinatra - The Complete Reprise Studio Recordings\CD20\22 - My Foolish Heart.wav

Peak level 91.2 %
Track quality 100.0 %
Test CRC D0923C34
Copy CRC D0923C34
Copy OK

No errors occured

End of status report


Трекер:  [ 25-Мар-2011 10:35 ]

  

Скачать .torrent

Размер .torrent файла 39 KB


Размер: 3.94 GB
Хэш (hash) релиза: c5b775246f6f2607fc9e191b6ca00434b7e59deb

Торренты, похожие на Frank Sinatra - The Complete Reprise Studio Recordings скачать торрент

Форум Название Автор Размер S L Добавлен
Jazz, Blues (lossless) ·· (Jazz) Frank Sinatra - The Complete Reprise Studio Recordings (20CD Box) Part 1 (Disks 1-10) - 1995, FLAC (tracks), lossless L 43476931974.05 GB 0 0 1301038270

10:31

25-Мар-11

Еще никто не оставлял запись к записи скачать торрент Frank Sinatra - The Complete Reprise Studio Recordings . Будь первым!

!Обратная связь