Скачать через торрент музыку Frank Sinatra - The Complete Reprise Studio Recordings бесплатно без регистрации torrent

Если у вас наблюдаются проблемы со скриншотами, переходом по ссылками, скачиванием торрентов - проблемы в блокировщике рекламы AdBlock. #хорошегоДня!


Статистика раздачи
Размер:  4.05 GB   |    Зарегистрирован:  6 лет 6 месяцев   |    .torrent скачан:  65 раз   |   
Раздают:  1  
   
Загрузка...
 
Автор Сообщение

L


Frank Sinatra - The Complete Reprise Studio Recordings (20CD Box)
Part I - Disks 1-10
Страна: USA
Жанр: Jazz
Год выпуска: 1995
Формат: FLAC (tracks)
Битрейт аудио: lossless
Продолжительность: 10 CD
Frank Sinatra - The Complete Reprise Studio Recordings (20CD Box) Part 2
Трэклисты и логи:

CD#1:
1. 1. Ring-A-Ding Ding (Cahn/VanHeusen) - 2:46
2. 2. Let's Fall in Love (Arlen/Koehler) - 2:12
3. 3. In the Still of the Night (Porter) - 3:27
4. 4. A Foggy Day (Gershwin/Gershwin) - 2:18
5. 5. Let's Face the Music and Dance (Berlin) - 2:59
6. 6. You'd Be So Easy to Love (Porter) - 2:24
7. 7. A Fine Romance (Fields/Kern) - 2:12
8. 8. The Coffee Song (They've Got an Awful Lot... (Hilliard/Miles) - 2:52
9. 9. Be Careful, It's My Heart (Berlin) - 2:04
10. 10. I've Got My Love to Keep Me Warm (Berlin) - 2:53
11. 11. Zing! Went the Strings of My Heart (Hanley) - 2:49
12. 12. You and the Night and the Music (Dietz/Schwartz) - 2:37
13. 13. When I Take My Sugar to Tea (Connor/Fain/Kahal) - 2:06
14. 14. The Last Dance (Cahn/Van Heusen) - 2:47
15. 15. The Second Time Around (Cahn/Van Heusen) - 3:01
16. 16. Tina (Cahn/VanHeusen) - 2:56
17. 17. In the Blue of Evening (Adair/DArtega) - 4:04
18. 18. I'll Be Seeing You (Fain/Kahal) - 2:50
19. 19. I'm Getting Sentimental Over You (Bassman/Washington) - 3:43
20. 20. Imagination (Burke/Van Heusen) - 3:05
21. 21. Take Me (Bloom/David) - 2:20
22. 22. Without a Song (Eliscu/Rose/Youmans) - 3:40
23. 23. Polka Dots and Moonbeams (Burke/VanHeusen) - 3:44
24. 24. Daybreak (Adamson/Grofe) - 2:44
25. 25. The One I Love (Belongs to Somebody Else) (Jones/Kahn) - 2:47
EAC extraction logfile from 29. July 2005, 23:13 for CD
Frank Sinatra / The Complete Reprise Studio Recordings Disc 1

Used drive : PLEXTOR DVDR PX-712A Adapter: 1 ID: 0
Read mode : Secure with NO C2, accurate stream, disable cache
Read offset correction : 30
Overread into Lead-In and Lead-Out : Yes

Used output format : C:\Program Files\FLAC\flac.exe (User Defined Encoder)
320 kBit/s
Additional command line options : -8 -V -T "artist=%a" -T "title=%t" -T "album=%g" -T "date=%y" -T "tracknumber=%n" -T "genre=%m" -T "comment=EAC Flac 1.1.1 -8" %s

Other options :
Fill up missing offset samples with silence : Yes
Delete leading and trailing silent blocks : No
Installed external ASPI interface

Track 1
Filename D:\Frank Sinatra - The Complete Reprise Studio Recordings\CD1\01 - Ring - A - Ding Ding.wav

Pre-gap length 0:00:02.00

Peak level 90.1 %
Track quality 100.0 %
Test CRC CC0EEC3A
Copy CRC CC0EEC3A
Copy OK

Track 2
Filename D:\Frank Sinatra - The Complete Reprise Studio Recordings\CD1\02 - Let's Fall In Love.wav

Pre-gap length 0:00:01.20

Peak level 93.4 %
Track quality 100.0 %
Test CRC B539D451
Copy CRC B539D451
Copy OK

Track 3
Filename D:\Frank Sinatra - The Complete Reprise Studio Recordings\CD1\03 - In The Still Of The Night.wav

Pre-gap length 0:00:01.30

Peak level 94.7 %
Track quality 100.0 %
Test CRC 2C90DC4A
Copy CRC 2C90DC4A
Copy OK

Track 4
Filename D:\Frank Sinatra - The Complete Reprise Studio Recordings\CD1\04 - A Foggy Day.wav

Pre-gap length 0:00:01.47

Peak level 77.2 %
Track quality 100.0 %
Test CRC 429CC6E2
Copy CRC 429CC6E2
Copy OK

Track 5
Filename D:\Frank Sinatra - The Complete Reprise Studio Recordings\CD1\05 - Let's Face The Music And Dance.wav

Pre-gap length 0:00:01.33

Peak level 95.7 %
Track quality 100.0 %
Test CRC A6E7486E
Copy CRC A6E7486E
Copy OK

Track 6
Filename D:\Frank Sinatra - The Complete Reprise Studio Recordings\CD1\06 - You'd Be So Easy To Love.wav

Pre-gap length 0:00:00.72

Peak level 89.3 %
Track quality 100.0 %
Test CRC 3BCE6B66
Copy CRC 3BCE6B66
Copy OK

Track 7
Filename D:\Frank Sinatra - The Complete Reprise Studio Recordings\CD1\07 - A Fine Romance.wav

Pre-gap length 0:00:00.63

Peak level 93.1 %
Track quality 100.0 %
Test CRC 612D48FB
Copy CRC 612D48FB
Copy OK

Track 8
Filename D:\Frank Sinatra - The Complete Reprise Studio Recordings\CD1\08 - The Coffee Song.wav

Pre-gap length 0:00:01.27

Peak level 87.6 %
Track quality 100.0 %
Test CRC 282EACCB
Copy CRC 282EACCB
Copy OK

Track 9
Filename D:\Frank Sinatra - The Complete Reprise Studio Recordings\CD1\09 - Be Careful, It's My Heart.wav

Pre-gap length 0:00:01.20

Peak level 89.0 %
Track quality 100.0 %
Test CRC F5B5E5CD
Copy CRC F5B5E5CD
Copy OK

Track 10
Filename D:\Frank Sinatra - The Complete Reprise Studio Recordings\CD1\10 - I've Got My Love To Keep Me Warm.wav

Pre-gap length 0:00:00.69

Peak level 88.1 %
Track quality 100.0 %
Test CRC A66EF5A9
Copy CRC A66EF5A9
Copy OK

Track 11
Filename D:\Frank Sinatra - The Complete Reprise Studio Recordings\CD1\11 - Zing Went The Strings Of My Heart.wav

Pre-gap length 0:00:01.23

Peak level 86.5 %
Track quality 100.0 %
Test CRC DEC1EC11
Copy CRC DEC1EC11
Copy OK

Track 12
Filename D:\Frank Sinatra - The Complete Reprise Studio Recordings\CD1\12 - You And The Night And The Music.wav

Pre-gap length 0:00:00.73

Peak level 94.2 %
Track quality 100.0 %
Test CRC F3572E2A
Copy CRC F3572E2A
Copy OK

Track 13
Filename D:\Frank Sinatra - The Complete Reprise Studio Recordings\CD1\13 - When I Take My Sugar To Tea.wav

Pre-gap length 0:00:01.33

Peak level 71.7 %
Track quality 100.0 %
Test CRC 326C2AC0
Copy CRC 326C2AC0
Copy OK

Track 14
Filename D:\Frank Sinatra - The Complete Reprise Studio Recordings\CD1\14 - The Last Dance.wav

Pre-gap length 0:00:00.73

Peak level 73.6 %
Track quality 100.0 %
Test CRC 20619CD3
Copy CRC 20619CD3
Copy OK

Track 15
Filename D:\Frank Sinatra - The Complete Reprise Studio Recordings\CD1\15 - The Second Time Around.wav

Pre-gap length 0:00:01.38

Peak level 55.4 %
Track quality 100.0 %
Test CRC 710736B3
Copy CRC 710736B3
Copy OK

Track 16
Filename D:\Frank Sinatra - The Complete Reprise Studio Recordings\CD1\16 - Tina.wav

Pre-gap length 0:00:01.50

Peak level 55.9 %
Track quality 100.0 %
Test CRC 7D2FAC4B
Copy CRC 7D2FAC4B
Copy OK

Track 17
Filename D:\Frank Sinatra - The Complete Reprise Studio Recordings\CD1\17 - In The Blue Of The Evening.wav

Pre-gap length 0:00:01.05

Peak level 74.1 %
Track quality 100.0 %
Test CRC 7128F982
Copy CRC 7128F982
Copy OK

Track 18
Filename D:\Frank Sinatra - The Complete Reprise Studio Recordings\CD1\18 - I'll Be Seeing You.wav

Pre-gap length 0:00:01.05

Peak level 92.1 %
Track quality 100.0 %
Test CRC 513258EC
Copy CRC 513258EC
Copy OK

Track 19
Filename D:\Frank Sinatra - The Complete Reprise Studio Recordings\CD1\19 - I'm Getting Sentimental Over You.wav

Pre-gap length 0:00:00.67

Peak level 59.6 %
Track quality 100.0 %
Test CRC 45EFB729
Copy CRC 45EFB729
Copy OK

Track 20
Filename D:\Frank Sinatra - The Complete Reprise Studio Recordings\CD1\20 - Imagination.wav

Pre-gap length 0:00:01.13

Peak level 94.3 %
Track quality 100.0 %
Test CRC 002D73B5
Copy CRC 002D73B5
Copy OK

Track 21
Filename D:\Frank Sinatra - The Complete Reprise Studio Recordings\CD1\21 - Take Me.wav

Pre-gap length 0:00:01.03

Peak level 88.2 %
Track quality 100.0 %
Test CRC 830BC4BC
Copy CRC 830BC4BC
Copy OK

Track 22
Filename D:\Frank Sinatra - The Complete Reprise Studio Recordings\CD1\22 - Without A Song.wav

Pre-gap length 0:00:01.30

Peak level 85.4 %
Track quality 100.0 %
Test CRC 1BDD720A
Copy CRC 1BDD720A
Copy OK

Track 23
Filename D:\Frank Sinatra - The Complete Reprise Studio Recordings\CD1\23 - Polka Dots And Moonbeams.wav

Pre-gap length 0:00:01.60

Peak level 94.0 %
Track quality 100.0 %
Test CRC ED68B197
Copy CRC ED68B197
Copy OK

Track 24
Filename D:\Frank Sinatra - The Complete Reprise Studio Recordings\CD1\24 - Daybreak.wav

Pre-gap length 0:00:01.25

Peak level 87.4 %
Track quality 100.0 %
Test CRC 4E059025
Copy CRC 4E059025
Copy OK

Track 25
Filename D:\Frank Sinatra - The Complete Reprise Studio Recordings\CD1\25 - The One I Love Belongs To Somebody Else.wav

Pre-gap length 0:00:00.68

Peak level 94.0 %
Track quality 100.0 %
Test CRC 7E9D8B44
Copy CRC 7E9D8B44
Copy OK

No errors occured

End of status report
CD#2:
26. 1. There Are Such Things (Adams/Baer/Meyer) - 3:13
27. 2. It's Always You (Burke/VanHeusen) - 2:48
28. 3. It Started All Over Again (Carey/Fischer) - 2:31
29. 4. East of the Sun (And West of the Moon) (Bowman) - 3:23
30. 5. The Curse of an Aching Heart (Fink/Piantadosi) - 2:06
31. 6. Love Walked In (Gershwin/Gershwin) - 2:20
32. 7. Please Don't Talk About Me When I'm Gone (Clare/Stept) - 2:57
33. 8. Have You Met Miss Jones? (Hart/Rodgers) - 2:33
34. 9. Don't Be That Way (Goodman/Parish/Sampson) - 2:42
35. 10. I Never Knew (Fio Rito/Kahn) - 2:15
36. 11. Falling in Love With Love (Hart/Rodgers) - 1:51
37. 12. It's a Wonderful World (Adamson/Savitt/Watson) - 2:12
38. 13. Don't Cry Joe (Let Her Go, Let Her Go, Let (Marsala) - 3:07
39. 14. You're Nobody 'Til Somebody Loves You (Cavanaugh/Morgan/Stock) - 4:11
40. 15. Moonlight on the Ganges (Ewing/Wallace) - 3:22
41. 16. Granada (Dodd/Lara) - 3:40
42. 17. As You Desire Me (Wrubel) - 2:52
43. 18. Stardust (Carmichael/Parish) - 2:48
44. 19. Yesterdays (Harbach/Kern) - 3:45
45. 20. I Hadn't Anyone Till You (Noble) - 3:44
46. 21. It Might as Well Be Spring (Hammerstein/Rodgers) - 3:16
47. 22. Prisoner of Love (Columbo/Gaskill/Robin) - 3:51
48. 23. That's All (Brandt/Haymes) - 3:21
49. 24. Don't Take Your Love From Me (Nemo) - 4:04
EAC extraction logfile from 30. July 2005, 11:32 for CD
Frank Sinatra / The Complete Reprise Studio Recordings Disc 2

Used drive : PLEXTOR DVDR PX-712A Adapter: 1 ID: 0
Read mode : Secure with NO C2, accurate stream, disable cache
Read offset correction : 30
Overread into Lead-In and Lead-Out : Yes

Used output format : C:\Program Files\FLAC\flac.exe (User Defined Encoder)
320 kBit/s
Additional command line options : -8 -V -T "artist=%a" -T "title=%t" -T "album=%g" -T "date=%y" -T "tracknumber=%n" -T "genre=%m" -T "comment=EAC Flac 1.1.1 -8" %s

Other options :
Fill up missing offset samples with silence : Yes
Delete leading and trailing silent blocks : No
Installed external ASPI interface

Track 1
Filename D:\Frank Sinatra - The Complete Reprise Studio Recordings\CD2\01 - There Are Such Things.wav

Pre-gap length 0:00:02.00

Peak level 100.0 %
Track quality 100.0 %
Test CRC 1B8E9FE0
Copy CRC 1B8E9FE0
Copy OK

Track 2
Filename D:\Frank Sinatra - The Complete Reprise Studio Recordings\CD2\02 - It's Always You.wav

Peak level 94.5 %
Track quality 100.0 %
Test CRC 3063AAC6
Copy CRC 3063AAC6
Copy OK

Track 3
Filename D:\Frank Sinatra - The Complete Reprise Studio Recordings\CD2\03 - It Started All Over Again.wav

Peak level 100.0 %
Track quality 100.0 %
Test CRC AC4DE473
Copy CRC AC4DE473
Copy OK

Track 4
Filename D:\Frank Sinatra - The Complete Reprise Studio Recordings\CD2\04 - East Of The Sun (And West Of The Moon).wav

Peak level 100.0 %
Track quality 100.0 %
Test CRC 76BA0BE5
Copy CRC 76BA0BE5
Copy OK

Track 5
Filename D:\Frank Sinatra - The Complete Reprise Studio Recordings\CD2\05 - The Curse Of An Aching Heart.wav

Peak level 84.6 %
Track quality 100.0 %
Test CRC 8EB31182
Copy CRC 8EB31182
Copy OK

Track 6
Filename D:\Frank Sinatra - The Complete Reprise Studio Recordings\CD2\06 - Love Walked In.wav

Peak level 78.3 %
Track quality 100.0 %
Test CRC 7C65FDCC
Copy CRC 7C65FDCC
Copy OK

Track 7
Filename D:\Frank Sinatra - The Complete Reprise Studio Recordings\CD2\07 - Please Don't Talk About Me When I'm Gone.wav

Peak level 77.5 %
Track quality 100.0 %
Test CRC A40AEFE6
Copy CRC A40AEFE6
Copy OK

Track 8
Filename D:\Frank Sinatra - The Complete Reprise Studio Recordings\CD2\08 - Have You Met Miss Jones .wav

Peak level 80.4 %
Track quality 100.0 %
Test CRC BE803B9E
Copy CRC BE803B9E
Copy OK

Track 9
Filename D:\Frank Sinatra - The Complete Reprise Studio Recordings\CD2\09 - Don't Be That Way.wav

Peak level 95.0 %
Track quality 99.9 %
Test CRC B38E1984
Copy CRC B38E1984
Copy OK

Track 10
Filename D:\Frank Sinatra - The Complete Reprise Studio Recordings\CD2\10 - I Never Knew.wav

Peak level 80.3 %
Track quality 100.0 %
Test CRC 2973F38E
Copy CRC 2973F38E
Copy OK

Track 11
Filename D:\Frank Sinatra - The Complete Reprise Studio Recordings\CD2\11 - Falling In Love With Love.wav

Peak level 79.1 %
Track quality 100.0 %
Test CRC 417A68E5
Copy CRC 417A68E5
Copy OK

Track 12
Filename D:\Frank Sinatra - The Complete Reprise Studio Recordings\CD2\12 - It's A Wonderful World.wav

Peak level 69.1 %
Track quality 100.0 %
Test CRC 57898813
Copy CRC 57898813
Copy OK

Track 13
Filename D:\Frank Sinatra - The Complete Reprise Studio Recordings\CD2\13 - Don't Cry Joe.wav

Peak level 91.6 %
Track quality 100.0 %
Test CRC 98DDD93D
Copy CRC 98DDD93D
Copy OK

Track 14
Filename D:\Frank Sinatra - The Complete Reprise Studio Recordings\CD2\14 - You're Nobody 'Til Somebody Loves You.wav

Peak level 95.6 %
Track quality 100.0 %
Test CRC 6D988173
Copy CRC 6D988173
Copy OK

Track 15
Filename D:\Frank Sinatra - The Complete Reprise Studio Recordings\CD2\15 - Moonlight On The Ganges.wav

Peak level 89.3 %
Track quality 99.9 %
Test CRC AEFDFA58
Copy CRC AEFDFA58
Copy OK

Track 16
Filename D:\Frank Sinatra - The Complete Reprise Studio Recordings\CD2\16 - Granada.wav

Pre-gap length 0:00:01.63

Peak level 100.0 %
Track quality 100.0 %
Test CRC FD0A153E
Copy CRC FD0A153E
Copy OK

Track 17
Filename D:\Frank Sinatra - The Complete Reprise Studio Recordings\CD2\17 - As You Desire Me.wav

Peak level 76.1 %
Track quality 100.0 %
Test CRC 3E1B83F0
Copy CRC 3E1B83F0
Copy OK

Track 18
Filename D:\Frank Sinatra - The Complete Reprise Studio Recordings\CD2\18 - Stardust.wav

Peak level 90.9 %
Track quality 100.0 %
Test CRC 6CE44517
Copy CRC 6CE44517
Copy OK

Track 19
Filename D:\Frank Sinatra - The Complete Reprise Studio Recordings\CD2\19 - Yesterdays.wav

Peak level 91.5 %
Track quality 100.0 %
Test CRC 68E29CD9
Copy CRC 68E29CD9
Copy OK

Track 20
Filename D:\Frank Sinatra - The Complete Reprise Studio Recordings\CD2\20 - I Hadn't Anyone Till You.wav

Peak level 83.7 %
Track quality 100.0 %
Test CRC 9754B864
Copy CRC 9754B864
Copy OK

Track 21
Filename D:\Frank Sinatra - The Complete Reprise Studio Recordings\CD2\21 - It Might As Well Be Spring.wav

Peak level 79.4 %
Track quality 100.0 %
Test CRC A5112417
Copy CRC A5112417
Copy OK

Track 22
Filename D:\Frank Sinatra - The Complete Reprise Studio Recordings\CD2\22 - Prisoner Of Love.wav

Peak level 87.1 %
Track quality 99.9 %
Test CRC 1CA6E2A5
Copy CRC 1CA6E2A5
Copy OK

Track 23
Filename D:\Frank Sinatra - The Complete Reprise Studio Recordings\CD2\23 - That's All.wav

Peak level 73.0 %
Track quality 100.0 %
Test CRC 05C4732E
Copy CRC 05C4732E
Copy OK

Track 24
Filename D:\Frank Sinatra - The Complete Reprise Studio Recordings\CD2\24 - Don't Take Your Love From Me.wav

Peak level 93.3 %
Track quality 100.0 %
Test CRC D458E5EE
Copy CRC D458E5EE
Copy OK

No errors occured

End of status report
CD#3:
50. 1. Misty (Burke/Garner) - 2:41
51. 2. Come Rain or Come Shine (Arlen/Mercer) - 4:07
52. 3. Night and Day (Porter) - 3:38
53. 4. All or Nothing at All (Altman/Lawrence) - 3:44
54. 5. Pocketful of Miracles (Cahn/Van Heusen) - 2:39
55. 6. Name It and It's Yours (Cahn/Van Heusen) - 3:14
56. 7. The Song Is Ended (Berlin) - 3:26
57. 8. All Alone (Berlin) - 2:42
58. 9. Charmaine (Pollack/Rapee) - 3:18
59. 10. When I Lost You (Berlin) - 3:44
60. 11. Remember (Berlin) - 3:25
61. 12. Together (Brown/DeSylva/Henderson) - 3:21
62. 13. The Girl Next Door (Blane/Martin) - 3:18
63. 14. Indiscreet (Cahn/Van Heusen) - 3:53
64. 15. What'll I Do? (Berlin) - 3:16
65. 16. Oh, How I Miss You Tonight (Burke/Davis/Fisher) - 3:22
66. 17. Are You Lonesome Tonight? (Handman/Turk) - 3:31
67. 18. Come Waltz With Me (Cahn/Van Heusen) - 2:54
68. 19. Everybody's Twistin' (Bloom/Koehler) - 2:31
69. 20. Nothing But the Best (Rotella) - 3:02
70. 21. The Boys' Night Out [#] (Cahn/VanHeusen) - 2:48
EAC extraction logfile from 30. July 2005, 12:50 for CD
Sinatra Frank / Complete Reprise Studio Recordings Disc.3

Used drive : PLEXTOR DVDR PX-712A Adapter: 1 ID: 0
Read mode : Secure with NO C2, accurate stream, disable cache
Read offset correction : 30
Overread into Lead-In and Lead-Out : Yes

Used output format : C:\Program Files\FLAC\flac.exe (User Defined Encoder)
320 kBit/s
Additional command line options : -8 -V -T "artist=%a" -T "title=%t" -T "album=%g" -T "date=%y" -T "tracknumber=%n" -T "genre=%m" -T "comment=EAC Flac 1.1.1 -8" %s

Other options :
Fill up missing offset samples with silence : Yes
Delete leading and trailing silent blocks : No
Installed external ASPI interface

Track 1
Filename D:\Frank Sinatra - The Complete Reprise Studio Recordings\CD3\01 - Misty.wav

Pre-gap length 0:00:02.00

Peak level 65.9 %
Track quality 100.0 %
Test CRC 4EA446F7
Copy CRC 4EA446F7
Copy OK

Track 2
Filename D:\Frank Sinatra - The Complete Reprise Studio Recordings\CD3\02 - Come Rain Or Come Shine.wav

Peak level 94.2 %
Track quality 100.0 %
Test CRC F6EE5B17
Copy CRC F6EE5B17
Copy OK

Track 3
Filename D:\Frank Sinatra - The Complete Reprise Studio Recordings\CD3\03 - Night And Day.wav

Peak level 100.0 %
Track quality 100.0 %
Test CRC 80C42344
Copy CRC 80C42344
Copy OK

Track 4
Filename D:\Frank Sinatra - The Complete Reprise Studio Recordings\CD3\04 - All Or Nothing At All.wav

Pre-gap length 0:00:01.05

Peak level 96.4 %
Track quality 100.0 %
Test CRC 8CDF8EF8
Copy CRC 8CDF8EF8
Copy OK

Track 5
Filename D:\Frank Sinatra - The Complete Reprise Studio Recordings\CD3\05 - Pocketful Of Miracles.wav

Peak level 100.0 %
Track quality 100.0 %
Test CRC D67E74C7
Copy CRC D67E74C7
Copy OK

Track 6
Filename D:\Frank Sinatra - The Complete Reprise Studio Recordings\CD3\06 - Name It And It's Yours.wav

Peak level 82.1 %
Track quality 100.0 %
Test CRC F1F7E790
Copy CRC F1F7E790
Copy OK

Track 7
Filename D:\Frank Sinatra - The Complete Reprise Studio Recordings\CD3\07 - The Song Is Ended.wav

Pre-gap length 0:00:01.30

Peak level 92.0 %
Track quality 100.0 %
Test CRC 80490E02
Copy CRC 80490E02
Copy OK

Track 8
Filename D:\Frank Sinatra - The Complete Reprise Studio Recordings\CD3\08 - All Allone.wav

Peak level 98.8 %
Track quality 100.0 %
Test CRC 42BAC187
Copy CRC 42BAC187
Copy OK

Track 9
Filename D:\Frank Sinatra - The Complete Reprise Studio Recordings\CD3\09 - Charmaine.wav

Peak level 78.0 %
Track quality 99.9 %
Test CRC E99D5220
Copy CRC E99D5220
Copy OK

Track 10
Filename D:\Frank Sinatra - The Complete Reprise Studio Recordings\CD3\10 - When I Lost You.wav

Pre-gap length 0:00:01.13

Peak level 82.9 %
Track quality 100.0 %
Test CRC 4E0BA886
Copy CRC 4E0BA886
Copy OK

Track 11
Filename D:\Frank Sinatra - The Complete Reprise Studio Recordings\CD3\11 - Remember.wav

Pre-gap length 0:00:01.02

Peak level 98.8 %
Track quality 100.0 %
Test CRC 2A05B295
Copy CRC 2A05B295
Copy OK

Track 12
Filename D:\Frank Sinatra - The Complete Reprise Studio Recordings\CD3\12 - Together.wav

Pre-gap length 0:00:01.05

Peak level 88.4 %
Track quality 100.0 %
Test CRC CD8E73B0
Copy CRC CD8E73B0
Copy OK

Track 13
Filename D:\Frank Sinatra - The Complete Reprise Studio Recordings\CD3\13 - The Girl Next Door.wav

Peak level 86.8 %
Track quality 100.0 %
Test CRC B3158ABB
Copy CRC B3158ABB
Copy OK

Track 14
Filename D:\Frank Sinatra - The Complete Reprise Studio Recordings\CD3\14 - Indiscreet.wav

Peak level 80.9 %
Track quality 100.0 %
Test CRC D7AF32E4
Copy CRC D7AF32E4
Copy OK

Track 15
Filename D:\Frank Sinatra - The Complete Reprise Studio Recordings\CD3\15 - What'll I Do .wav

Peak level 86.4 %
Track quality 100.0 %
Test CRC 8B6109D0
Copy CRC 8B6109D0
Copy OK

Track 16
Filename D:\Frank Sinatra - The Complete Reprise Studio Recordings\CD3\16 - Oh, How I Miss You Tonight.wav

Peak level 76.7 %
Track quality 100.0 %
Test CRC E7399721
Copy CRC E7399721
Copy OK

Track 17
Filename D:\Frank Sinatra - The Complete Reprise Studio Recordings\CD3\17 - Are You Lonesome Tonight .wav

Peak level 90.3 %
Track quality 100.0 %
Test CRC 820AC488
Copy CRC 820AC488
Copy OK

Track 18
Filename D:\Frank Sinatra - The Complete Reprise Studio Recordings\CD3\18 - Come Waltz With Me.wav

Pre-gap length 0:00:01.05

Peak level 82.4 %
Track quality 99.9 %
Test CRC E61440A4
Copy CRC E61440A4
Copy OK

Track 19
Filename D:\Frank Sinatra - The Complete Reprise Studio Recordings\CD3\19 - Everybody's Twistin'.wav

Pre-gap length 0:00:01.02

Peak level 94.4 %
Track quality 100.0 %
Test CRC F05E63B3
Copy CRC F05E63B3
Copy OK

Track 20
Filename D:\Frank Sinatra - The Complete Reprise Studio Recordings\CD3\20 - Nothing But The Best.wav

Pre-gap length 0:00:01.03

Peak level 98.7 %
Track quality 100.0 %
Test CRC F6F1E0C2
Copy CRC F6F1E0C2
Copy OK

Track 21
Filename D:\Frank Sinatra - The Complete Reprise Studio Recordings\CD3\21 - The Boys' Night Out.wav

Pre-gap length 0:00:01.47

Peak level 93.3 %
Track quality 100.0 %
Test CRC D360D3DE
Copy CRC D360D3DE
Copy OK

No errors occured

End of status report
CD#4:
71. 1. I'm Beginning to See the Light (Ellington/George/Hodges/James) - 2:34
72. 2. I Get a Kick Out of You (Porter) - 3:15
73. 3. Ain't She Sweet (Ager/Yellen) - 2:07
74. 4. I Love You (Archer/Thompson) - 2:17
75. 5. They Can't Take That Away from Me (Gershwin/Gershwin) - 2:41
76. 6. Love Is Just Around the Corner (Gensler/Robin) - 2:28
77. 7. At Long Last Love (Porter) - 2:14
78. 8. Serenade in Blue (Gordon/Warren) - 2:59
79. 9. Goody Goody (Malneck/Mercer) - 1:47
80. 10. Don'cha Go 'Way Mad (Jacquet/Mundy/Stillman) - 3:13
81. 11. Tangerine (Mercer/Schertzinger) - 2:04
82. 12. Pick Yourself Up (Fields/Kern) - 2:33
83. 13. If I Had You (Campbell/Connelly/Shapiro) - 4:04
84. 14. The Very Thought of You (Noble) - 3:32
85. 15. I'll Follow My Secret Heart (Coward) - 3:17
86. 16. A Garden in the Rain (Dyrenforth/Gibbons) - 3:23
87. 17. London by Night (Coates) - 3:20
88. 18. The Gypsy (Reid) - 3:20
89. 19. Roses of Picardy (Weatherly/Wood) - 3:00
90. 20. A Nightingale Sang in Berkeley Square (Maschwitz/Sherwin) - 3:53
91. 21. We'll Meet Again (Charles/Parker) - 3:43
92. 22. Now Is the Hour (Kaihan/Scott/Stewart) - 2:49
93. 23. We'll Gather Lilacs in the Spring (Novello) - 3:12
94. 24. The Look of Love (Cahn/Van Heusen) - 2:44
95. 25. I Left My Heart in San Francisco (Cory/Cross) - 2:54
EAC extraction logfile from 30. July 2005, 13:29 for CD
Frank Sinatra / The Complete Reprise Studio Recordings Disc 4

Used drive : PLEXTOR DVDR PX-712A Adapter: 1 ID: 0
Read mode : Secure with NO C2, accurate stream, disable cache
Read offset correction : 30
Overread into Lead-In and Lead-Out : Yes

Used output format : C:\Program Files\FLAC\flac.exe (User Defined Encoder)
320 kBit/s
Additional command line options : -8 -V -T "artist=%a" -T "title=%t" -T "album=%g" -T "date=%y" -T "tracknumber=%n" -T "genre=%m" -T "comment=EAC Flac 1.1.1 -8" %s

Other options :
Fill up missing offset samples with silence : Yes
Delete leading and trailing silent blocks : No
Installed external ASPI interface

Track 1
Filename D:\Frank Sinatra - The Complete Reprise Studio Recordings\CD4\01 - I'm Beginining To See The Light.wav

Pre-gap length 0:00:02.00

Peak level 81.9 %
Track quality 100.0 %
Test CRC A5E273AD
Copy CRC A5E273AD
Copy OK

Track 2
Filename D:\Frank Sinatra - The Complete Reprise Studio Recordings\CD4\02 - I Get A Kick Out Of You.wav

Peak level 98.8 %
Track quality 100.0 %
Test CRC E7513C28
Copy CRC E7513C28
Copy OK

Track 3
Filename D:\Frank Sinatra - The Complete Reprise Studio Recordings\CD4\03 - Ain't She Sweet .wav

Peak level 79.4 %
Track quality 100.0 %
Test CRC B3C21690
Copy CRC B3C21690
Copy OK

Track 4
Filename D:\Frank Sinatra - The Complete Reprise Studio Recordings\CD4\04 - I Love You.wav

Peak level 87.4 %
Track quality 100.0 %
Test CRC BD5E7DB8
Copy CRC BD5E7DB8
Copy OK

Track 5
Filename D:\Frank Sinatra - The Complete Reprise Studio Recordings\CD4\05 - They Can't Take That Away From Me.wav

Peak level 90.3 %
Track quality 100.0 %
Test CRC C4ABE6AD
Copy CRC C4ABE6AD
Copy OK

Track 6
Filename D:\Frank Sinatra - The Complete Reprise Studio Recordings\CD4\06 - Love Is Just Around The Corner.wav

Peak level 98.8 %
Track quality 100.0 %
Test CRC 91DF5109
Copy CRC 91DF5109
Copy OK

Track 7
Filename D:\Frank Sinatra - The Complete Reprise Studio Recordings\CD4\07 - At Long Last Love.wav

Peak level 92.6 %
Track quality 100.0 %
Test CRC 8797C003
Copy CRC 8797C003
Copy OK

Track 8
Filename D:\Frank Sinatra - The Complete Reprise Studio Recordings\CD4\08 - Serenade In Blue.wav

Peak level 98.8 %
Track quality 100.0 %
Test CRC 77AC52C0
Copy CRC 77AC52C0
Copy OK

Track 9
Filename D:\Frank Sinatra - The Complete Reprise Studio Recordings\CD4\09 - Goody Goody.wav

Peak level 88.8 %
Track quality 99.9 %
Test CRC 8FB5F49F
Copy CRC 8FB5F49F
Copy OK

Track 10
Filename D:\Frank Sinatra - The Complete Reprise Studio Recordings\CD4\10 - Don'Cha Go 'Way Mad.wav

Peak level 98.8 %
Track quality 100.0 %
Test CRC 039287E3
Copy CRC 039287E3
Copy OK

Track 11
Filename D:\Frank Sinatra - The Complete Reprise Studio Recordings\CD4\11 - Tangerine.wav

Peak level 92.7 %
Track quality 99.9 %
Test CRC C39453FE
Copy CRC C39453FE
Copy OK

Track 12
Filename D:\Frank Sinatra - The Complete Reprise Studio Recordings\CD4\12 - Pick Yourself Up.wav

Peak level 98.6 %
Track quality 100.0 %
Test CRC 42CBA865
Copy CRC 42CBA865
Copy OK

Track 13
Filename D:\Frank Sinatra - The Complete Reprise Studio Recordings\CD4\13 - If I Had You.wav

Peak level 96.4 %
Track quality 100.0 %
Test CRC 41F5A62A
Copy CRC 41F5A62A
Copy OK

Track 14
Filename D:\Frank Sinatra - The Complete Reprise Studio Recordings\CD4\14 - The Very Thought Of You.wav

Peak level 100.0 %
Track quality 100.0 %
Test CRC 2DE5D4EA
Copy CRC 2DE5D4EA
Copy OK

Track 15
Filename D:\Frank Sinatra - The Complete Reprise Studio Recordings\CD4\15 - I'll Follow My Secret Heart.wav

Peak level 98.9 %
Track quality 100.0 %
Test CRC D6E4F0F8
Copy CRC D6E4F0F8
Copy OK

Track 16
Filename D:\Frank Sinatra - The Complete Reprise Studio Recordings\CD4\16 - A Garden In The Rain.wav

Pre-gap length 0:00:01.05

Peak level 98.8 %
Track quality 100.0 %
Test CRC 2E47421B
Copy CRC 2E47421B
Copy OK

Track 17
Filename D:\Frank Sinatra - The Complete Reprise Studio Recordings\CD4\17 - London By Night.wav

Peak level 86.7 %
Track quality 99.9 %
Test CRC 96CC73B2
Copy CRC 96CC73B2
Copy OK

Track 18
Filename D:\Frank Sinatra - The Complete Reprise Studio Recordings\CD4\18 - The Gypsy.wav

Pre-gap length 0:00:02.60

Peak level 92.7 %
Track quality 100.0 %
Test CRC 67B53A18
Copy CRC 67B53A18
Copy OK

Track 19
Filename D:\Frank Sinatra - The Complete Reprise Studio Recordings\CD4\19 - Roses Of Picardy.wav

Pre-gap length 0:00:01.17

Peak level 97.8 %
Track quality 100.0 %
Test CRC 82F0E508
Copy CRC 82F0E508
Copy OK

Track 20
Filename D:\Frank Sinatra - The Complete Reprise Studio Recordings\CD4\20 - A Nightingale Sang In Berkeley Square.wav

Peak level 87.9 %
Track quality 100.0 %
Test CRC 2C9E1A3A
Copy CRC 2C9E1A3A
Copy OK

Track 21
Filename D:\Frank Sinatra - The Complete Reprise Studio Recordings\CD4\21 - We'll Meet Again.wav

Pre-gap length 0:00:01.25

Peak level 75.4 %
Track quality 100.0 %
Test CRC 1FD31676
Copy CRC 1FD31676
Copy OK

Track 22
Filename D:\Frank Sinatra - The Complete Reprise Studio Recordings\CD4\22 - Now Is The Hour.wav

Peak level 100.0 %
Track quality 100.0 %
Test CRC 0CC57C68
Copy CRC 0CC57C68
Copy OK

Track 23
Filename D:\Frank Sinatra - The Complete Reprise Studio Recordings\CD4\23 - We'll Gather Lilacs In The Spring.wav

Peak level 87.3 %
Track quality 100.0 %
Test CRC 6B6408B9
Copy CRC 6B6408B9
Copy OK

Track 24
Filename D:\Frank Sinatra - The Complete Reprise Studio Recordings\CD4\24 - The Look Of Love.wav

Peak level 95.7 %
Track quality 99.9 %
Test CRC BE3619AE
Copy CRC BE3619AE
Copy OK

Track 25
Filename D:\Frank Sinatra - The Complete Reprise Studio Recordings\CD4\25 - I Left My Heart In San Francisco.wav

Peak level 91.3 %
Track quality 100.0 %
Test CRC 01987D2C
Copy CRC 01987D2C
Copy OK

No errors occured

End of status report
CD#5:
96. 1. Nice Work If You Can Get It performed by Sinatra / Basie, Count Orchestra - 2:36
97. 2. Please Be Kind performed by Sinatra / Basie, Count Orchestra - 2:42
98. 3. I Won't Dance performed by Sinatra / Basie, Count Orchestra - 4:08
99. 4. Learnin' the Blues performed by Sinatra / Basie, Count Orchestra - 4:25
100. 5. I'm Gonna Sit Right Down (And Write Myself... performed by Sinatra / Basie, Count Orchestra - 2:34
101. 6. I Only Have Eyes for You performed by Sinatra / Basie, Count Orchestra - 3:29
102. 7. My Kind of Girl performed by Sinatra / Basie, Count Orchestra - 4:36
103. 8. Pennies from Heaven performed by Sinatra / Basie, Count Orchestra - 3:28
104. 9. (Love Is) The Tender Trap performed by Sinatra / Basie, Count Orchestra - 2:34
105. 10. Looking at the World Thru Rose Colored... performed by Sinatra / Basie, Count Orchestra - 2:30
106. 11. Me and My Shadow performed by Sinatra / Davis, Sammy Jr. - 3:06
107. 12. Come Blow Your Horn (Cahn/Van Heusen) - 3:08
108. 13. Call Me Irresponsible (Cahn/VanHeusen) - 2:56
109. 14. Lost in the Stars (Anderson/Weill) - 4:07
110. 15. My Heart Stood Still (Hart/Rodgers) - 3:03
111. 16. Ol' Man River (Hammerstein/Kern) - 4:25
112. 17. This Nearly Was Mine (Hammerstein/Rodgers) - 2:45
113. 18. You'll Never Walk Alone (Hammerstein/Rodgers) - 3:07
114. 19. I Have Dreamed (Hammerstein/Rodgers) - 2:58
115. 20. Bewitched, Bothered and Bewildered (Hart/Rodgers) - 2:59
116. 21. California (Cahn/Van Heusen) - 3:36
117. 22. America the Beautiful (Bates/Ward) - 2:21
EAC extraction logfile from 30. July 2005, 14:05 for CD
Sinatra Frank / Complete Reprise Studio Recordings Disc.5

Used drive : PLEXTOR DVDR PX-712A Adapter: 1 ID: 0
Read mode : Secure with NO C2, accurate stream, disable cache
Read offset correction : 30
Overread into Lead-In and Lead-Out : Yes

Used output format : C:\Program Files\FLAC\flac.exe (User Defined Encoder)
320 kBit/s
Additional command line options : -8 -V -T "artist=%a" -T "title=%t" -T "album=%g" -T "date=%y" -T "tracknumber=%n" -T "genre=%m" -T "comment=EAC Flac 1.1.1 -8" %s

Other options :
Fill up missing offset samples with silence : Yes
Delete leading and trailing silent blocks : No
Installed external ASPI interface

Track 1
Filename D:\Frank Sinatra - The Complete Reprise Studio Recordings\CD5\01 - Nice Work If You can Get It.wav

Pre-gap length 0:00:02.00

Peak level 98.8 %
Track quality 100.0 %
Test CRC 4D6FBEF2
Copy CRC 4D6FBEF2
Copy OK

Track 2
Filename D:\Frank Sinatra - The Complete Reprise Studio Recordings\CD5\02 - Please Be Kind.wav

Peak level 98.8 %
Track quality 100.0 %
Test CRC 2B12462D
Copy CRC 2B12462D
Copy OK

Track 3
Filename D:\Frank Sinatra - The Complete Reprise Studio Recordings\CD5\03 - I Won't Dance.wav

Peak level 98.8 %
Track quality 100.0 %
Test CRC 7CF0FC9C
Copy CRC 7CF0FC9C
Copy OK

Track 4
Filename D:\Frank Sinatra - The Complete Reprise Studio Recordings\CD5\04 - Learnin' The Blues.wav

Peak level 98.8 %
Track quality 100.0 %
Test CRC 4CBABE80
Copy CRC 4CBABE80
Copy OK

Track 5
Filename D:\Frank Sinatra - The Complete Reprise Studio Recordings\CD5\05 - I'm Gonna Sit Right Down And Write Myself A Letter.wav

Pre-gap length 0:00:01.00

Peak level 98.8 %
Track quality 100.0 %
Test CRC 22D4579E
Copy CRC 22D4579E
Copy OK

Track 6
Filename D:\Frank Sinatra - The Complete Reprise Studio Recordings\CD5\06 - I Only Have Eyes For You.wav

Peak level 96.5 %
Track quality 100.0 %
Test CRC 5BFFC722
Copy CRC 5BFFC722
Copy OK

Track 7
Filename D:\Frank Sinatra - The Complete Reprise Studio Recordings\CD5\07 - My Kind Of Girl.wav

Peak level 93.3 %
Track quality 100.0 %
Test CRC 9934B201
Copy CRC 9934B201
Copy OK

Track 8
Filename D:\Frank Sinatra - The Complete Reprise Studio Recordings\CD5\08 - Pennies From Heaven.wav

Peak level 95.1 %
Track quality 100.0 %
Test CRC E6C1E02F
Copy CRC E6C1E02F
Copy OK

Track 9
Filename D:\Frank Sinatra - The Complete Reprise Studio Recordings\CD5\09 - (Love Is) The Tender Trap.wav

Peak level 83.9 %
Track quality 100.0 %
Test CRC 2C37FA00
Copy CRC 2C37FA00
Copy OK

Track 10
Filename D:\Frank Sinatra - The Complete Reprise Studio Recordings\CD5\10 - Looking At The World Thru Rose Colored Glasses.wav

Peak level 98.8 %
Track quality 100.0 %
Test CRC 75C80805
Copy CRC 75C80805
Copy OK

Track 11
Filename D:\Frank Sinatra - The Complete Reprise Studio Recordings\CD5\11 - Me And My Shadow.wav

Peak level 71.6 %
Track quality 99.9 %
Test CRC C6640564
Copy CRC C6640564
Copy OK

Track 12
Filename D:\Frank Sinatra - The Complete Reprise Studio Recordings\CD5\12 - Come Blow Your Horn.wav

Peak level 93.3 %
Track quality 100.0 %
Test CRC AE9A663E
Copy CRC AE9A663E
Copy OK

Track 13
Filename D:\Frank Sinatra - The Complete Reprise Studio Recordings\CD5\13 - Call Me Irresponsible.wav

Peak level 70.4 %
Track quality 99.9 %
Test CRC 9EA33A9C
Copy CRC 9EA33A9C
Copy OK

Track 14
Filename D:\Frank Sinatra - The Complete Reprise Studio Recordings\CD5\14 - Lost In The Stars.wav

Pre-gap length 0:00:01.00

Peak level 72.8 %
Track quality 100.0 %
Test CRC 5BBF3067
Copy CRC 5BBF3067
Copy OK

Track 15
Filename D:\Frank Sinatra - The Complete Reprise Studio Recordings\CD5\15 - My Heart Stood Still.wav

Peak level 96.7 %
Track quality 100.0 %
Test CRC 5FBEA809
Copy CRC 5FBEA809
Copy OK

Track 16
Filename D:\Frank Sinatra - The Complete Reprise Studio Recordings\CD5\16 - Ol' Man River.wav

Peak level 89.1 %
Track quality 99.9 %
Test CRC DB904A18
Copy CRC DB904A18
Copy OK

Track 17
Filename D:\Frank Sinatra - The Complete Reprise Studio Recordings\CD5\17 - This Nearly Was Mine.wav

Pre-gap length 0:00:01.20

Peak level 73.5 %
Track quality 100.0 %
Test CRC 76650B80
Copy CRC 76650B80
Copy OK

Track 18
Filename D:\Frank Sinatra - The Complete Reprise Studio Recordings\CD5\18 - You'll Never Walk Alone.wav

Peak level 79.5 %
Track quality 100.0 %
Test CRC F1947CED
Copy CRC F1947CED
Copy OK

Track 19
Filename D:\Frank Sinatra - The Complete Reprise Studio Recordings\CD5\19 - I Have Dreamed.wav

Peak level 96.8 %
Track quality 100.0 %
Test CRC AD138BD7
Copy CRC AD138BD7
Copy OK

Track 20
Filename D:\Frank Sinatra - The Complete Reprise Studio Recordings\CD5\20 - Bewitched.wav

Peak level 85.9 %
Track quality 100.0 %
Test CRC 7A6C7289
Copy CRC 7A6C7289
Copy OK

Track 21
Filename D:\Frank Sinatra - The Complete Reprise Studio Recordings\CD5\21 - California.wav

Peak level 76.5 %
Track quality 100.0 %
Test CRC 953A5437
Copy CRC 953A5437
Copy OK

Track 22
Filename D:\Frank Sinatra - The Complete Reprise Studio Recordings\CD5\22 - America The Beautiful.wav

Peak level 66.3 %
Track quality 100.0 %
Test CRC 3102D322
Copy CRC 3102D322
Copy OK

No errors occured

End of status report
CD#6:
118. 1. Soliloquy (Hammerstein/Rodgers) - 8:06
119. 2. You Brought a New Kind of Love to Me (Fain/Kahal/Norman) - 2:38
120. 3. In the Wee Small Hours of the Morning (Hilliard/Mann) - 2:44
121. 4. Nancy (With the Laughing Face) (Silvers/VanHeusen) - 3:38
122. 5. Young at Heart (Leigh/Richards) - 2:54
123. 6. The Second Time Around (Cahn/Van Heusen) - 3:04
124. 7. All the Way (Cahn/VanHeusen) - 3:29
125. 8. Witchcraft (Coleman/Leigh) - 2:38
126. 9. How Little It Matters How Little We Know (Leigh/Springer) - 2:20
127. 10. Put Your Dreams Away (For Another Day) (Lowe/Mann/Weiss) - 3:12
128. 11. I've Got You Under My Skin (Porter) - 3:31
129. 12. Oh! What It Seemed to Be (Benjamin/Carle/Weiss) - 3:27
130. 13. We Open in Venice performed by Sinatra / Dean Martin / Davis, Sammy Jr. - 2:11
131. 14. Old Devil Moon (Harburg/Lane) - 2:57
132. 15. When I'm Not Near the Girl I Love (Harburg/Lane) - 3:25
133. 16. Guys and Dolls performed by Sinatra / Dean Martin - 2:49
134. 17. I've Never Been in Love Before (Loesser) - 2:56
135. 18. So in Love (Reprise) performed by Sinatra / Keely Smith - 2:54
136. 19. Twin Soliloquies performed by Sinatra / Keely Smith - 1:38
137. 20. Some Enchanted Evening (Hammerstein/Rodgers) - 3:29
138. 21. Some Enchanted Evening (Reprise) performed by Sinatra / Rosemary Clooney - 3:21
EAC extraction logfile from 30. July 2005, 14:40 for CD
Frank Sinatra / The Complete Reprise Studio Recordings Disc 6

Used drive : PLEXTOR DVDR PX-712A Adapter: 1 ID: 0
Read mode : Secure with NO C2, accurate stream, disable cache
Read offset correction : 30
Overread into Lead-In and Lead-Out : Yes

Used output format : C:\Program Files\FLAC\flac.exe (User Defined Encoder)
320 kBit/s
Additional command line options : -8 -V -T "artist=%a" -T "title=%t" -T "album=%g" -T "date=%y" -T "tracknumber=%n" -T "genre=%m" -T "comment=EAC Flac 1.1.1 -8" %s

Other options :
Fill up missing offset samples with silence : Yes
Delete leading and trailing silent blocks : No
Installed external ASPI interface

Track 1
Filename D:\Frank Sinatra - The Complete Reprise Studio Recordings\CD6\01 - Soliloquy.wav

Pre-gap length 0:00:02.00

Peak level 89.4 %
Track quality 100.0 %
Test CRC 96E29DBD
Copy CRC 96E29DBD
Copy OK

Track 2
Filename D:\Frank Sinatra - The Complete Reprise Studio Recordings\CD6\02 - You Brought A New Kind Of Love To Me.wav

Peak level 87.3 %
Track quality 99.9 %
Test CRC 182648D3
Copy CRC 182648D3
Copy OK

Track 3
Filename D:\Frank Sinatra - The Complete Reprise Studio Recordings\CD6\03 - In The Wee Small Hours Of The Morning.wav

Peak level 45.7 %
Track quality 99.9 %
Test CRC 3DEB64CF
Copy CRC 3DEB64CF
Copy OK

Track 4
Filename D:\Frank Sinatra - The Complete Reprise Studio Recordings\CD6\04 - Nancy.wav

Peak level 94.3 %
Track quality 100.0 %
Test CRC E0FFEC13
Copy CRC E0FFEC13
Copy OK

Track 5
Filename D:\Frank Sinatra - The Complete Reprise Studio Recordings\CD6\05 - Young At Heart.wav

Peak level 45.5 %
Track quality 100.0 %
Test CRC E0FAE403
Copy CRC E0FAE403
Copy OK

Track 6
Filename D:\Frank Sinatra - The Complete Reprise Studio Recordings\CD6\06 - The Second Time Around.wav

Peak level 59.4 %
Track quality 100.0 %
Test CRC 266CEBB9
Copy CRC 266CEBB9
Copy OK

Track 7
Filename D:\Frank Sinatra - The Complete Reprise Studio Recordings\CD6\07 - All The Way.wav

Peak level 63.0 %
Track quality 100.0 %
Test CRC FCFDD20F
Copy CRC FCFDD20F
Copy OK

Track 8
Filename D:\Frank Sinatra - The Complete Reprise Studio Recordings\CD6\08 - Witchcraft.wav

Peak level 76.5 %
Track quality 100.0 %
Test CRC 4816FD08
Copy CRC 4816FD08
Copy OK

Track 9
Filename D:\Frank Sinatra - The Complete Reprise Studio Recordings\CD6\09 - How Little It Matters How Little We Know.wav

Peak level 67.0 %
Track quality 100.0 %
Test CRC A929E743
Copy CRC A929E743
Copy OK

Track 10
Filename D:\Frank Sinatra - The Complete Reprise Studio Recordings\CD6\10 - Put Your Dreams Away.wav

Pre-gap length 0:00:01.15

Peak level 67.8 %
Track quality 99.9 %
Test CRC 520BBC38
Copy CRC 520BBC38
Copy OK

Track 11
Filename D:\Frank Sinatra - The Complete Reprise Studio Recordings\CD6\11 - I've Got You Under My Skin.wav

Peak level 98.8 %
Track quality 100.0 %
Test CRC D44B7C61
Copy CRC D44B7C61
Copy OK

Track 12
Filename D:\Frank Sinatra - The Complete Reprise Studio Recordings\CD6\12 - Oh! What It Seemed To Be.wav

Peak level 99.4 %
Track quality 100.0 %
Test CRC 213EF031
Copy CRC 213EF031
Copy OK

Track 13
Filename D:\Frank Sinatra - The Complete Reprise Studio Recordings\CD6\13 - We Open In Venice.wav

Peak level 74.0 %
Track quality 100.0 %
Test CRC 4410D337
Copy CRC 4410D337
Copy OK

Track 14
Filename D:\Frank Sinatra - The Complete Reprise Studio Recordings\CD6\14 - Old Devil Moon.wav

Peak level 88.1 %
Track quality 100.0 %
Test CRC B86D7918
Copy CRC B86D7918
Copy OK

Track 15
Filename D:\Frank Sinatra - The Complete Reprise Studio Recordings\CD6\15 - When I'm Not Near The Girl I Love.wav

Peak level 89.0 %
Track quality 100.0 %
Test CRC 17446D2B
Copy CRC 17446D2B
Copy OK

Track 16
Filename D:\Frank Sinatra - The Complete Reprise Studio Recordings\CD6\16 - Guys And Dolls.wav

Peak level 78.6 %
Track quality 100.0 %
Test CRC 7A383BF3
Copy CRC 7A383BF3
Copy OK

Track 17
Filename D:\Frank Sinatra - The Complete Reprise Studio Recordings\CD6\17 - I've Never Been In Love Before.wav

Peak level 87.2 %
Track quality 100.0 %
Test CRC A82A2FA7
Copy CRC A82A2FA7
Copy OK

Track 18
Filename D:\Frank Sinatra - The Complete Reprise Studio Recordings\CD6\18 - So In Love (Reprise).wav

Peak level 68.4 %
Track quality 100.0 %
Test CRC 12DEACA6
Copy CRC 12DEACA6
Copy OK

Track 19
Filename D:\Frank Sinatra - The Complete Reprise Studio Recordings\CD6\19 - Twin Soliloquies (Wonder How It Fells).wav

Pre-gap length 0:00:01.10

Peak level 42.7 %
Track quality 99.8 %
Test CRC 4181E765
Copy CRC 4181E765
Copy OK

Track 20
Filename D:\Frank Sinatra - The Complete Reprise Studio Recordings\CD6\20 - Some Enchanted Evening.wav

Peak level 67.6 %
Track quality 100.0 %
Test CRC FA115ED2
Copy CRC FA115ED2
Copy OK

Track 21
Filename D:\Frank Sinatra - The Complete Reprise Studio Recordings\CD6\21 - Some Enchanted Evening (Reprise).wav

Pre-gap length 0:00:01.05

Peak level 70.7 %
Track quality 100.0 %
Test CRC 1587061A
Copy CRC 1587061A
Copy OK

No errors occured

End of status report
CD#7:
139. 1. Luck Be a Lady (Loesser) - 5:13
140. 2. Fugue for Tinhorns performed by Sinatra / Bing Crosby / Dean Martin - 1:30
141. 3. The Oldest Established (Permanent Floating... performed by Sinatra / Bing Crosby / Dean Martin - 2:31
142. 4. Here's to the Losers (Segal/Wells) - 3:04
143. 5. Love Isn't Just for the Young (Knee) - 2:57
144. 6. Have Yourself a Merry Little Christmas (Blane/Martin) - 3:54
145. 7. Talk to Me Baby (Dolan/Mercer) - 2:58
146. 8. Stay With Me (Main Theme from the... (Leigh/Moross) - 3:04
147. 9. Early American performed by Sinatra / Waring, Fred & His Pennsylvanians - 3:34
148. 10. The House I Live In performed by Sinatra / Waring, Fred & His Pennsylvanians - 3:39
149. 11. You're a Lucky Fellow, Mr. Smith performed by Sinatra / Waring, Fred & His Pennsylvanians - 3:46
150. 12. The Way You Look Tonight (Fields/Kern) - 3:22
151. 13. Three Coins in the Fountain (Cahn/Styne) - 3:46
152. 14. Swinging on a Star (Burke/VanHeusen) - 2:53
153. 15. The Continental (Conrad/Magidson) - 3:14
154. 16. In the Cool, Cool, Cool of the Evening (Carmichael/Mercer) - 1:51
155. 17. It Might as Well Be Spring (Hammerstein/Rodgers) - 3:26
156. 18. Secret Love (Fain/Webster) - 3:54
157. 19. Moon River (Mancini/Mercer) - 3:20
158. 20. Days of Wine and Roses (Mancini/Mercer) - 2:16
159. 21. Love Is a Many-Splendored Thing (Fain/Ringwald/Webster) - 3:22
160. 22. Let Us Break Bread Together performed by Sinatra / Bing Crosby - 3:39
161. 23. You Never Had It So Good performed by Sinatra / Bing Crosby - 3:01
EAC extraction logfile from 30. July 2005, 15:18 for CD
Frank Sinatra / Complete Reprise - Disc 07

Used drive : PLEXTOR DVDR PX-712A Adapter: 1 ID: 0
Read mode : Secure with NO C2, accurate stream, disable cache
Read offset correction : 30
Overread into Lead-In and Lead-Out : Yes

Used output format : C:\Program Files\FLAC\flac.exe (User Defined Encoder)
320 kBit/s
Additional command line options : -8 -V -T "artist=%a" -T "title=%t" -T "album=%g" -T "date=%y" -T "tracknumber=%n" -T "genre=%m" -T "comment=EAC Flac 1.1.1 -8" %s

Other options :
Fill up missing offset samples with silence : Yes
Delete leading and trailing silent blocks : No
Installed external ASPI interface

Track 1
Filename D:\Frank Sinatra - The Complete Reprise Studio Recordings\CD7\01 - Luck Be A Lady.wav

Pre-gap length 0:00:02.00

Peak level 99.1 %
Track quality 100.0 %
Test CRC D6ED4E39
Copy CRC D6ED4E39
Copy OK

Track 2
Filename D:\Frank Sinatra - The Complete Reprise Studio Recordings\CD7\02 - Fugue For Tinhorns.wav

Peak level 91.3 %
Track quality 100.0 %
Test CRC 63E9C9ED
Copy CRC 63E9C9ED
Copy OK

Track 3
Filename D:\Frank Sinatra - The Complete Reprise Studio Recordings\CD7\03 - The Oldest Established (Permanent Floating Crap Game In New York).wav

Peak level 100.0 %
Track quality 100.0 %
Test CRC 884BE5C1
Copy CRC 884BE5C1
Copy OK

Track 4
Filename D:\Frank Sinatra - The Complete Reprise Studio Recordings\CD7\04 - Here's To The Losers.wav

Peak level 92.8 %
Track quality 100.0 %
Test CRC 57913424
Copy CRC 57913424
Copy OK

Track 5
Filename D:\Frank Sinatra - The Complete Reprise Studio Recordings\CD7\05 - Love Isn't Just For The Young.wav

Peak level 78.1 %
Track quality 100.0 %
Test CRC 5D707006
Copy CRC 5D707006
Copy OK

Track 6
Filename D:\Frank Sinatra - The Complete Reprise Studio Recordings\CD7\06 - Have Yourself A Merry Little Cristimas.wav

Peak level 78.4 %
Track quality 99.9 %
Test CRC 04AE16EB
Copy CRC 04AE16EB
Copy OK

Track 7
Filename D:\Frank Sinatra - The Complete Reprise Studio Recordings\CD7\07 - Talk To Me Baby.wav

Peak level 77.5 %
Track quality 100.0 %
Test CRC 99B6D300
Copy CRC 99B6D300
Copy OK

Track 8
Filename D:\Frank Sinatra - The Complete Reprise Studio Recordings\CD7\08 - Stay With Me (Main Theme From The Cardinal).wav

Peak level 83.1 %
Track quality 100.0 %
Test CRC 74020470
Copy CRC 74020470
Copy OK

Track 9
Filename D:\Frank Sinatra - The Complete Reprise Studio Recordings\CD7\09 - Early American.wav

Peak level 87.6 %
Track quality 100.0 %
Test CRC 1C4E75AD
Copy CRC 1C4E75AD
Copy OK

Track 10
Filename D:\Frank Sinatra - The Complete Reprise Studio Recordings\CD7\10 - The House I Live In.wav

Peak level 85.8 %
Track quality 100.0 %
Test CRC FFF66963
Copy CRC FFF66963
Copy OK

Track 11
Filename D:\Frank Sinatra - The Complete Reprise Studio Recordings\CD7\11 - You Are A Lucky Fellow, Mr. Smith.wav

Peak level 88.4 %
Track quality 100.0 %
Test CRC CDEDBD12
Copy CRC CDEDBD12
Copy OK

Track 12
Filename D:\Frank Sinatra - The Complete Reprise Studio Recordings\CD7\12 - The Way You Look Tonight.wav

Peak level 100.0 %
Track quality 99.9 %
Test CRC 1DAD17D1
Copy CRC 1DAD17D1
Copy OK

Track 13
Filename D:\Frank Sinatra - The Complete Reprise Studio Recordings\CD7\13 - Three Coins In The Fountain.wav

Peak level 100.0 %
Track quality 100.0 %
Test CRC D135E514
Copy CRC D135E514
Copy OK

Track 14
Filename D:\Frank Sinatra - The Complete Reprise Studio Recordings\CD7\14 - Swinging On A Star.wav

Pre-gap length 0:00:01.32

Peak level 99.3 %
Track quality 100.0 %
Test CRC 9D86BE44
Copy CRC 9D86BE44
Copy OK

Track 15
Filename D:\Frank Sinatra - The Complete Reprise Studio Recordings\CD7\15 - The Continental.wav

Peak level 98.4 %
Track quality 100.0 %
Test CRC 3F335423
Copy CRC 3F335423
Copy OK

Track 16
Filename D:\Frank Sinatra - The Complete Reprise Studio Recordings\CD7\16 - In The Cool, Cool, Cool Of The Evening.wav

Peak level 97.2 %
Track quality 100.0 %
Test CRC 3AEEA9D6
Copy CRC 3AEEA9D6
Copy OK

Track 17
Filename D:\Frank Sinatra - The Complete Reprise Studio Recordings\CD7\17 - It Might As Well Be Spring.wav

Peak level 91.8 %
Track quality 100.0 %
Test CRC E6DE6D25
Copy CRC E6DE6D25
Copy OK

Track 18
Filename D:\Frank Sinatra - The Complete Reprise Studio Recordings\CD7\18 - Secret Love.wav

Peak level 82.0 %
Track quality 100.0 %
Test CRC 24877567
Copy CRC 24877567
Copy OK

Track 19
Filename D:\Frank Sinatra - The Complete Reprise Studio Recordings\CD7\19 - Moon River.wav

Peak level 55.2 %
Track quality 100.0 %
Test CRC B400B3AA
Copy CRC B400B3AA
Copy OK

Track 20
Filename D:\Frank Sinatra - The Complete Reprise Studio Recordings\CD7\20 - Days Of Wine And Roses.wav

Peak level 100.0 %
Track quality 100.0 %
Test CRC 9829B88D
Copy CRC 9829B88D
Copy OK

Track 21
Filename D:\Frank Sinatra - The Complete Reprise Studio Recordings\CD7\21 - Love Is A Many-Splendored Thing.wav

Peak level 100.0 %
Track quality 100.0 %
Test CRC 058F43D3
Copy CRC 058F43D3
Copy OK

Track 22
Filename D:\Frank Sinatra - The Complete Reprise Studio Recordings\CD7\22 - Let Us Break Bread Together.wav

Pre-gap length 0:00:01.07

Peak level 82.1 %
Track quality 100.0 %
Test CRC C6A12B62
Copy CRC C6A12B62
Copy OK

Track 23
Filename D:\Frank Sinatra - The Complete Reprise Studio Recordings\CD7\23 - You Never Had It So Good.wav

Peak level 100.0 %
Track quality 100.0 %
Test CRC DE027692
Copy CRC DE027692
Copy OK

No errors occured

End of status report
CD#8:
162. 1. I Can't Believe I'm Losing You (Costa/Zeller) - 2:45
163. 2. My Kind of Town (Cahn/VanHeusen) - 3:09
164. 3. I Like to Lead When I Dance (Cahn/Van Heusen) - 4:07
165. 4. Style performed by Sinatra / Bing Crosby / Dean Martin - 4:28
166. 5. Mister Booze performed by Sinatra / Bing Crosby / Dean Martin - 5:01
167. 6. Don't Be a Do-Badder (Finale) performed by Sinatra / Bing Crosby / Dean Martin - 1:16
168. 7. The Best Is Yet to Come performed by Sinatra / Basie, Count Orchestra - 2:54
169. 8. I Wanna Be Around performed by Sinatra / Basie, Count Orchestra - 2:20
170. 9. I Believe in You performed by Sinatra / Basie, Count Orchestra - 2:21
171. 10. Fly Me to the Moon performed by Sinatra / Basie, Count Orchestra - 2:30
172. 11. Hello, Dolly! performed by Sinatra / Basie, Count Orchestra - 2:45
173. 12. The Good Life performed by Sinatra / Basie, Count Orchestra - 2:27
174. 13. I Wish You Love performed by Sinatra / Basie, Count Orchestra - 2:56
175. 14. I Can't Stop Loving You performed by Sinatra / Basie, Count Orchestra - 2:58
176. 15. More (Theme from Mondo Cane) performed by Sinatra / Basie, Count Orchestra - 3:04
177. 16. Wives and Lovers performed by Sinatra / Basie, Count Orchestra - 2:48
178. 17. An Old-Fashioned Christmas performed by Sinatra / Fred Waring And His Pennslyvanians - 3:45
179. 18. I Heard the Bells on Christmas Day performed by Sinatra / Fred Waring And His Pennslyvanians - 2:36
180. 19. The Little Drummer Boy performed by Sinatra / Fred Waring And His Pennslyvanians - 3:03
181. 20. Go Tell It on the Mountain performed by Sinatra / Fred Waring And His Pennslyvanians - 3:23
182. 21. We Wish You the Merriest performed by Sinatra / Fred Waring And His Pennslyvanians - 2:14
183. 22. Softly, As I Leave You (Calabrese/DeVita/Shaper) - 2:52
184. 23. Then Suddenly Love (Alfred/Vance) - 2:16
185. 24. Since Marie Has Left Paree [#] (Glaser/Solomon) - 1:57
186. 25. Available (Cahn/Marks/Wynn) - 2:47
EAC extraction logfile from 30. July 2005, 18:40 for CD
Frank Sinatra / Complete Reprise - Disc 08

Used drive : PLEXTOR DVDR PX-712A Adapter: 1 ID: 0
Read mode : Secure with NO C2, accurate stream, disable cache
Read offset correction : 30
Overread into Lead-In and Lead-Out : Yes

Used output format : C:\Program Files\FLAC\flac.exe (User Defined Encoder)
320 kBit/s
Additional command line options : -8 -V -T "artist=%a" -T "title=%t" -T "album=%g" -T "date=%y" -T "tracknumber=%n" -T "genre=%m" -T "comment=EAC Flac 1.1.1 -8" %s

Other options :
Fill up missing offset samples with silence : Yes
Delete leading and trailing silent blocks : No
Installed external ASPI interface

Track 1
Filename D:\Frank Sinatra - The Complete Reprise Studio Recordings\CD8\01 - I Can't Believe I'm Losing You.wav

Pre-gap length 0:00:02.00

Peak level 72.8 %
Track quality 100.0 %
Test CRC 520FEFD8
Copy CRC 520FEFD8
Copy OK

Track 2
Filename D:\Frank Sinatra - The Complete Reprise Studio Recordings\CD8\02 - My Kind Of Town.wav

Pre-gap length 0:00:00.35

Peak level 87.3 %
Track quality 100.0 %
Test CRC 9F9B5B4D
Copy CRC 9F9B5B4D
Copy OK

Track 3
Filename D:\Frank Sinatra - The Complete Reprise Studio Recordings\CD8\03 - I Like To Lead When I Dance.wav

Pre-gap length 0:00:00.45

Peak level 88.9 %
Track quality 100.0 %
Test CRC 6BBE6AD4
Copy CRC 6BBE6AD4
Copy OK

Track 4
Filename D:\Frank Sinatra - The Complete Reprise Studio Recordings\CD8\04 - Style.wav

Pre-gap length 0:00:00.65

Peak level 89.0 %
Track quality 100.0 %
Test CRC 0FEC7471
Copy CRC 0FEC7471
Copy OK

Track 5
Filename D:\Frank Sinatra - The Complete Reprise Studio Recordings\CD8\05 - Mister Booze.wav

Pre-gap length 0:00:00.40

Peak level 83.5 %
Track quality 100.0 %
Test CRC 246EF255
Copy CRC 246EF255
Copy OK

Track 6
Filename D:\Frank Sinatra - The Complete Reprise Studio Recordings\CD8\06 - Don't Be A Do-Badder (Finale).wav

Pre-gap length 0:00:01.05

Peak level 75.1 %
Track quality 100.0 %
Test CRC FCCBD297
Copy CRC FCCBD297
Copy OK

Track 7
Filename D:\Frank Sinatra - The Complete Reprise Studio Recordings\CD8\07 - The Best Is Yet To Come.wav

Pre-gap length 0:00:00.52

Peak level 99.6 %
Track quality 99.9 %
Test CRC DA1D936E
Copy CRC DA1D936E
Copy OK

Track 8
Filename D:\Frank Sinatra - The Complete Reprise Studio Recordings\CD8\08 - I Wanna Be Around.wav

Pre-gap length 0:00:00.67

Peak level 99.0 %
Track quality 100.0 %
Test CRC 2B867737
Copy CRC 2B867737
Copy OK

Track 9
Filename D:\Frank Sinatra - The Complete Reprise Studio Recordings\CD8\09 - I Believe In You.wav

Pre-gap length 0:00:00.45

Peak level 98.7 %
Track quality 100.0 %
Test CRC 39296475
Copy CRC 39296475
Copy OK

Track 10
Filename D:\Frank Sinatra - The Complete Reprise Studio Recordings\CD8\10 - Flay Me To The Moon (In Other Words).wav

Pre-gap length 0:00:01.07

Peak level 100.0 %
Track quality 99.9 %
Test CRC A1EA4A29
Copy CRC A1EA4A29
Copy OK

Track 11
Filename D:\Frank Sinatra - The Complete Reprise Studio Recordings\CD8\11 - Hello, Dolly!.wav

Pre-gap length 0:00:00.72

Peak level 100.0 %
Track quality 100.0 %
Test CRC 669D7D0D
Copy CRC 669D7D0D
Copy OK

Track 12
Filename D:\Frank Sinatra - The Complete Reprise Studio Recordings\CD8\12 - The Good Life.wav

Pre-gap length 0:00:00.55

Peak level 86.5 %
Track quality 100.0 %
Test CRC 67C20EBC
Copy CRC 67C20EBC
Copy OK

Track 13
Filename D:\Frank Sinatra - The Complete Reprise Studio Recordings\CD8\13 - I Wish You Love.wav

Pre-gap length 0:00:00.55

Peak level 83.1 %
Track quality 100.0 %
Test CRC 2625DCF6
Copy CRC 2625DCF6
Copy OK

Track 14
Filename D:\Frank Sinatra - The Complete Reprise Studio Recordings\CD8\14 - I Can't Stop Loving You.wav

Pre-gap length 0:00:01.20

Peak level 96.7 %
Track quality 100.0 %
Test CRC E94D17F1
Copy CRC E94D17F1
Copy OK

Track 15
Filename D:\Frank Sinatra - The Complete Reprise Studio Recordings\CD8\15 - More (Theme From Mondo Cane).wav

Pre-gap length 0:00:00.60

Peak level 99.4 %
Track quality 100.0 %
Test CRC 5A8227F1
Copy CRC 5A8227F1
Copy OK

Track 16
Filename D:\Frank Sinatra - The Complete Reprise Studio Recordings\CD8\16 - Wives And Lovers.wav

Pre-gap length 0:00:00.20

Peak level 92.4 %
Track quality 100.0 %
Test CRC 2FC3AC83
Copy CRC 2FC3AC83
Copy OK

Track 17
Filename D:\Frank Sinatra - The Complete Reprise Studio Recordings\CD8\17 - An Old-Fashioned Christmas.wav

Pre-gap length 0:00:00.60

Peak level 81.4 %
Track quality 100.0 %
Test CRC D9C6688F
Copy CRC D9C6688F
Copy OK

Track 18
Filename D:\Frank Sinatra - The Complete Reprise Studio Recordings\CD8\18 - I Heard The Bells On Christmas Day.wav

Pre-gap length 0:00:00.53

Peak level 77.7 %
Track quality 100.0 %
Test CRC 948547FC
Copy CRC 948547FC
Copy OK

Track 19
Filename D:\Frank Sinatra - The Complete Reprise Studio Recordings\CD8\19 - The Little Drummer Boy.wav

Pre-gap length 0:00:01.10

Peak level 86.8 %
Track quality 100.0 %
Test CRC D0EB6E76
Copy CRC D0EB6E76
Copy OK

Track 20
Filename D:\Frank Sinatra - The Complete Reprise Studio Recordings\CD8\20 - Go Tell It On The Mountain.wav

Pre-gap length 0:00:01.13

Peak level 87.7 %
Track quality 100.0 %
Test CRC F94FF77D
Copy CRC F94FF77D
Copy OK

Track 21
Filename D:\Frank Sinatra - The Complete Reprise Studio Recordings\CD8\21 - We Wish You The Merriest.wav

Pre-gap length 0:00:01.07

Peak level 76.2 %
Track quality 100.0 %
Test CRC 539EC541
Copy CRC 539EC541
Copy OK

Track 22
Filename D:\Frank Sinatra - The Complete Reprise Studio Recordings\CD8\22 - Softly, As I Leave You.wav

Pre-gap length 0:00:00.50

Peak level 100.0 %
Track quality 100.0 %
Test CRC 663EC918
Copy CRC 663EC918
Copy OK

Track 23
Filename D:\Frank Sinatra - The Complete Reprise Studio Recordings\CD8\23 - Then Suddenly Love.wav

Pre-gap length 0:00:01.02

Peak level 80.5 %
Track quality 100.0 %
Test CRC DDC086B8
Copy CRC DDC086B8
Copy OK

Track 24
Filename D:\Frank Sinatra - The Complete Reprise Studio Recordings\CD8\24 - Since Marie Has Left Paree.wav

Pre-gap length 0:00:00.55

Peak level 89.1 %
Track quality 100.0 %
Test CRC 996DB250
Copy CRC 996DB250
Copy OK

Track 25
Filename D:\Frank Sinatra - The Complete Reprise Studio Recordings\CD8\25 - Available.wav

Pre-gap length 0:00:01.48

Peak level 79.5 %
Track quality 100.0 %
Test CRC AAFDA2B6
Copy CRC AAFDA2B6
Copy OK

No errors occured

End of status report
CD#9:
187. 1. Pass Me By (Coleman/Leigh) - 2:25
188. 2. Emily (Mandel/Mercer) - 3:00
189. 3. Dear Heart (Evans/Livingston/Mancini) - 2:43
190. 4. Somewhere in Your Heart (Faith/Keltner) - 2:29
191. 5. Any Time at All (Knight) - 2:22
192. 6. Don't Wait Too Long (Skylar) - 3:07
193. 7. September Song (Anderson/Weill) - 3:31
194. 8. Last Night When We Were Young (Arlen/Harburg) - 3:35
195. 9. Hello, Young Lovers (Hammerstein/Rodgers) - 3:44
196. 10. I See It Now (Engrick/Wilder) - 2:50
197. 11. When the Wind Was Green (Stinson) - 3:22
198. 12. Once upon a Time (Adams/Strouse) - 3:29
199. 13. How Old Am I? (Gordon/Jenkins) - 3:35
200. 14. It Was a Very Good Year (Drake) - 4:27
201. 15. The Man in the Looking Glass (Howard) - 3:26
202. 16. This Is All I Ask (Jenkins) - 3:04
203. 17. It Gets Lonely Early (Cahn/VanHeusen) - 3:20
204. 18. The September of My Years (Cahn/VanHeusen) - 3:14
205. 19. Tell Her (You Love Her Each Day) (Ward/Watkins) - 2:42
206. 20. When Somebody Loves You (Cahn/Van Heusen) - 1:54
207. 21. Forget Domani (Newell/Ortolani) - 2:36
208. 22. Ev'rybody Has the Right to Be Wrong! (At... (Cahn/Van Heusen) - 2:07
209. 23. I'll Only Miss Her When I Think of Her performed by Sinatra / Laurindo Almeida - 2:52
210. 24. Golden Moment (Jacobson/Roberts) - 2:57
EAC extraction logfile from 30. July 2005, 19:16 for CD
Frank Sinatra / The Complete Reprise Studio Recordings Disc 9

Used drive : PLEXTOR DVDR PX-712A Adapter: 1 ID: 0
Read mode : Secure with NO C2, accurate stream, disable cache
Read offset correction : 30
Overread into Lead-In and Lead-Out : Yes

Used output format : C:\Program Files\FLAC\flac.exe (User Defined Encoder)
320 kBit/s
Additional command line options : -8 -V -T "artist=%a" -T "title=%t" -T "album=%g" -T "date=%y" -T "tracknumber=%n" -T "genre=%m" -T "comment=EAC Flac 1.1.1 -8" %s

Other options :
Fill up missing offset samples with silence : Yes
Delete leading and trailing silent blocks : No
Installed external ASPI interface

Track 1
Filename D:\Frank Sinatra - The Complete Reprise Studio Recordings\CD9\01 - Pass Me By.wav

Pre-gap length 0:00:02.00

Peak level 89.4 %
Track quality 99.9 %
Test CRC 4E07F0F4
Copy CRC 4E07F0F4
Copy OK

Track 2
Filename D:\Frank Sinatra - The Complete Reprise Studio Recordings\CD9\02 - Emily.wav

Pre-gap length 0:00:00.62

Peak level 64.2 %
Track quality 100.0 %
Test CRC F202FF2B
Copy CRC F202FF2B
Copy OK

Track 3
Filename D:\Frank Sinatra - The Complete Reprise Studio Recordings\CD9\03 - Dear Heart.wav

Pre-gap length 0:00:01.15

Peak level 82.7 %
Track quality 100.0 %
Test CRC 2BA24777
Copy CRC 2BA24777
Copy OK

Track 4
Filename D:\Frank Sinatra - The Complete Reprise Studio Recordings\CD9\04 - Somewhere In Your Heart.wav

Pre-gap length 0:00:01.17

Peak level 94.6 %
Track quality 100.0 %
Test CRC EE57E36F
Copy CRC EE57E36F
Copy OK

Track 5
Filename D:\Frank Sinatra - The Complete Reprise Studio Recordings\CD9\05 - Any Time At All.wav

Pre-gap length 0:00:00.50

Peak level 98.3 %
Track quality 100.0 %
Test CRC D34F21B7
Copy CRC D34F21B7
Copy OK

Track 6
Filename D:\Frank Sinatra - The Complete Reprise Studio Recordings\CD9\06 - Don't Wait Too Long.wav

Pre-gap length 0:00:01.30

Peak level 54.4 %
Track quality 100.0 %
Test CRC 5277A6A9
Copy CRC 5277A6A9
Copy OK

Track 7
Filename D:\Frank Sinatra - The Complete Reprise Studio Recordings\CD9\07 - September Song.wav

Pre-gap length 0:00:00.70

Peak level 84.2 %
Track quality 100.0 %
Test CRC 93DD5708
Copy CRC 93DD5708
Copy OK

Track 8
Filename D:\Frank Sinatra - The Complete Reprise Studio Recordings\CD9\08 - Last Night When We Were Young.wav

Pre-gap length 0:00:00.65

Peak level 73.7 %
Track quality 100.0 %
Test CRC 9C6EADBA
Copy CRC 9C6EADBA
Copy OK

Track 9
Filename D:\Frank Sinatra - The Complete Reprise Studio Recordings\CD9\09 - Hello, Young Lovers.wav

Pre-gap length 0:00:01.00

Peak level 60.3 %
Track quality 100.0 %
Test CRC 429C466A
Copy CRC 429C466A
Copy OK

Track 10
Filename D:\Frank Sinatra - The Complete Reprise Studio Recordings\CD9\10 - I See It Now.wav

Pre-gap length 0:00:01.05

Peak level 52.5 %
Track quality 100.0 %
Test CRC B4A99A46
Copy CRC B4A99A46
Copy OK

Track 11
Filename D:\Frank Sinatra - The Complete Reprise Studio Recordings\CD9\11 - When The Wind Was Green.wav

Pre-gap length 0:00:00.62

Peak level 60.9 %
Track quality 99.9 %
Test CRC 635CFDE6
Copy CRC 635CFDE6
Copy OK

Track 12
Filename D:\Frank Sinatra - The Complete Reprise Studio Recordings\CD9\12 - Once Upon A Time.wav

Pre-gap length 0:00:00.70

Peak level 64.3 %
Track quality 99.9 %
Test CRC 02BDA519
Copy CRC 02BDA519
Copy OK

Track 13
Filename D:\Frank Sinatra - The Complete Reprise Studio Recordings\CD9\13 - How Old Am I .wav

Pre-gap length 0:00:01.00

Peak level 85.4 %
Track quality 99.9 %
Test CRC 31903E43
Copy CRC 31903E43
Copy OK

Track 14
Filename D:\Frank Sinatra - The Complete Reprise Studio Recordings\CD9\14 - It Was A Very Good Year.wav

Pre-gap length 0:00:00.67

Peak level 62.8 %
Track quality 99.9 %
Test CRC A98B0B05
Copy CRC A98B0B05
Copy OK

Track 15
Filename D:\Frank Sinatra - The Complete Reprise Studio Recordings\CD9\15 - The Man In The Looking Glass.wav

Pre-gap length 0:00:00.65

Peak level 68.5 %
Track quality 99.9 %
Test CRC DE03B2CB
Copy CRC DE03B2CB
Copy OK

Track 16
Filename D:\Frank Sinatra - The Complete Reprise Studio Recordings\CD9\16 - This Is All I Ask.wav

Pre-gap length 0:00:00.28

Peak level 61.6 %
Track quality 100.0 %
Test CRC 1D52C17C
Copy CRC 1D52C17C
Copy OK

Track 17
Filename D:\Frank Sinatra - The Complete Reprise Studio Recordings\CD9\17 - It Gets Lonely Early.wav

Pre-gap length 0:00:00.60

Peak level 75.8 %
Track quality 100.0 %
Test CRC 63C8EAD5
Copy CRC 63C8EAD5
Copy OK

Track 18
Filename D:\Frank Sinatra - The Complete Reprise Studio Recordings\CD9\18 - The September Of My Years.wav

Pre-gap length 0:00:00.55

Peak level 59.7 %
Track quality 100.0 %
Test CRC E475C77E
Copy CRC E475C77E
Copy OK

Track 19
Filename D:\Frank Sinatra - The Complete Reprise Studio Recordings\CD9\19 - Tell Her (You Love Her Each Day).wav

Pre-gap length 0:00:00.57

Peak level 89.1 %
Track quality 100.0 %
Test CRC C9850277
Copy CRC C9850277
Copy OK

Track 20
Filename D:\Frank Sinatra - The Complete Reprise Studio Recordings\CD9\20 - When Somebody Loves You.wav

Pre-gap length 0:00:00.58

Peak level 79.4 %
Track quality 100.0 %
Test CRC B9C9154C
Copy CRC B9C9154C
Copy OK

Track 21
Filename D:\Frank Sinatra - The Complete Reprise Studio Recordings\CD9\21 - Forget Domani.wav

Pre-gap length 0:00:00.55

Peak level 79.3 %
Track quality 100.0 %
Test CRC 27217924
Copy CRC 27217924
Copy OK

Track 22
Filename D:\Frank Sinatra - The Complete Reprise Studio Recordings\CD9\22 - Ev'rybody Has The Right To Be Wrong! (At Least Once).wav

Pre-gap length 0:00:00.45

Peak level 100.0 %
Track quality 100.0 %
Test CRC 29D2E47A
Copy CRC 29D2E47A
Copy OK

Track 23
Filename D:\Frank Sinatra - The Complete Reprise Studio Recordings\CD9\23 - I'll Only Miss Her When I Think Of Her.wav

Pre-gap length 0:00:00.57

Peak level 81.3 %
Track quality 100.0 %
Test CRC ACCD5370
Copy CRC ACCD5370
Copy OK

Track 24
Filename D:\Frank Sinatra - The Complete Reprise Studio Recordings\CD9\24 - Golden Moment.wav

Pre-gap length 0:00:00.73

Peak level 81.1 %
Track quality 99.9 %
Test CRC 85F106CE
Copy CRC 85F106CE
Copy OK

No errors occured

End of status report
CD#10:
211. 1. Come Fly With Me (Cahn/VanHeusen) - 3:11
212. 2. I'll Never Smile Again (Lowe) - 2:14
213. 3. Moment to Moment (Mancini/Mercer) - 2:57
214. 4. Love and Marriage (Cahn/VanHeusen) - 2:12
215. 5. Moon Song (Coslow/Johnston) - 3:04
216. 6. Moon Love (David/Davis/Kostelanetz) - 4:16
217. 7. The Moon Got in My Eyes (Burke/Johnston) - 2:53
218. 8. Moonlight Serenade (Miller/Parish) - 3:28
219. 9. Reaching for the Moon (Berlin) - 3:06
220. 10. I Wished on the Moon (Parker/Rainger) - 2:54
221. 11. Moonlight Becomes You (Burke/Van Heusen) - 2:47
222. 12. Moonlight Mood (Adamson/DeRose) - 3:09
223. 13. Oh, You Crazy Moon (Burke/Van Heusen) - 3:13
224. 14. The Moon Was Yellow (And the Night Was... (Ahlert/Leslie) - 3:10
225. 15. Strangers in the Night (Kaempfert/Singleton/Snyder) - 2:36
226. 16. My Baby Just Cares for Me (Donaldson/Kahn) - 2:32
227. 17. Yes Sir, That's My Baby (Donaldson/Kahn) - 2:09
228. 18. You're Driving Me Crazy! (Donaldson) - 2:16
229. 19. The Most Beautiful Girl in the World (Hart/Rodgers) - 2:25
230. 20. Summer Wind (Bradtke/Mayer/Mercer) - 2:55
231. 21. All or Nothing at All (Altman/Lawrence) - 3:59
232. 22. Call Me (Hatch) - 2:46
233. 23. On a Clear Day (You Can See Forever) (Lane/Lerner) - 3:19
234. 24. Downtown (Hatch) - 2:10
EAC extraction logfile from 30. July 2005, 20:28 for CD
Sinatra Frank / Complete Reprise Studio Recordings Disc.10

Used drive : PLEXTOR DVDR PX-712A Adapter: 1 ID: 0
Read mode : Secure with NO C2, accurate stream, disable cache
Read offset correction : 30
Overread into Lead-In and Lead-Out : Yes

Used output format : C:\Program Files\FLAC\flac.exe (User Defined Encoder)
320 kBit/s
Additional command line options : -8 -V -T "artist=%a" -T "title=%t" -T "album=%g" -T "date=%y" -T "tracknumber=%n" -T "genre=%m" -T "comment=EAC Flac 1.1.1 -8" %s

Other options :
Fill up missing offset samples with silence : Yes
Delete leading and trailing silent blocks : No
Installed external ASPI interface

Track 1
Filename D:\Frank Sinatra - The Complete Reprise Studio Recordings\CD10\01 - Come Fly With Me.wav

Pre-gap length 0:00:02.00

Peak level 100.0 %
Track quality 99.9 %
Test CRC F2CBA6B3
Copy CRC F2CBA6B3
Copy OK

Track 2
Filename D:\Frank Sinatra - The Complete Reprise Studio Recordings\CD10\02 - I'll Never Smile Again.wav

Peak level 80.4 %
Track quality 100.0 %
Test CRC 9CC29724
Copy CRC 9CC29724
Copy OK

Track 3
Filename D:\Frank Sinatra - The Complete Reprise Studio Recordings\CD10\03 - Moment To Moment.wav

Peak level 99.3 %
Track quality 99.9 %
Test CRC B6CCBDED
Copy CRC B6CCBDED
Copy OK

Track 4
Filename D:\Frank Sinatra - The Complete Reprise Studio Recordings\CD10\04 - Love And Marriage.wav

Peak level 82.9 %
Track quality 100.0 %
Test CRC 565E5CBB
Copy CRC 565E5CBB
Copy OK

Track 5
Filename D:\Frank Sinatra - The Complete Reprise Studio Recordings\CD10\05 - Moon Song.wav

Peak level 96.9 %
Track quality 100.0 %
Test CRC 1E35D3A4
Copy CRC 1E35D3A4
Copy OK

Track 6
Filename D:\Frank Sinatra - The Complete Reprise Studio Recordings\CD10\06 - Moon Love.wav

Peak level 98.3 %
Track quality 100.0 %
Test CRC 9712E260
Copy CRC 9712E260
Copy OK

Track 7
Filename D:\Frank Sinatra - The Complete Reprise Studio Recordings\CD10\07 - The Moon Got In My Eyes.wav

Peak level 90.9 %
Track quality 99.9 %
Test CRC B8338324
Copy CRC B8338324
Copy OK

Track 8
Filename D:\Frank Sinatra - The Complete Reprise Studio Recordings\CD10\08 - Moonlight Serenade.wav

Peak level 88.3 %
Track quality 100.0 %
Test CRC A5659625
Copy CRC A5659625
Copy OK

Track 9
Filename D:\Frank Sinatra - The Complete Reprise Studio Recordings\CD10\09 - Reaching For The Moon.wav

Peak level 93.8 %
Track quality 100.0 %
Test CRC EE778BC5
Copy CRC EE778BC5
Copy OK

Track 10
Filename D:\Frank Sinatra - The Complete Reprise Studio Recordings\CD10\10 - I Wished On The Moon.wav

Peak level 96.8 %
Track quality 100.0 %
Test CRC 502F2339
Copy CRC 502F2339
Copy OK

Track 11
Filename D:\Frank Sinatra - The Complete Reprise Studio Recordings\CD10\11 - Moonlight Becomes You.wav

Peak level 97.5 %
Track quality 100.0 %
Test CRC DFCA161B
Copy CRC DFCA161B
Copy OK

Track 12
Filename D:\Frank Sinatra - The Complete Reprise Studio Recordings\CD10\12 - Moonlight Mood.wav

Peak level 94.3 %
Track quality 99.9 %
Test CRC D07C59CA
Copy CRC D07C59CA
Copy OK

Track 13
Filename D:\Frank Sinatra - The Complete Reprise Studio Recordings\CD10\13 - Oh, You Crazy Moon.wav

Peak level 89.1 %
Track quality 100.0 %
Test CRC 1C5806E7
Copy CRC 1C5806E7
Copy OK

Track 14
Filename D:\Frank Sinatra - The Complete Reprise Studio Recordings\CD10\14 - The Moon Was Yellow (And The Night Was Young).wav

Peak level 97.2 %
Track quality 100.0 %
Test CRC 30898A7A
Copy CRC 30898A7A
Copy OK

Track 15
Filename D:\Frank Sinatra - The Complete Reprise Studio Recordings\CD10\15 - Strangers In The Night.wav

Peak level 100.0 %
Track quality 100.0 %
Test CRC E4A93101
Copy CRC E4A93101
Copy OK

Track 16
Filename D:\Frank Sinatra - The Complete Reprise Studio Recordings\CD10\16 - My Baby Just Cares For Me.wav

Peak level 100.0 %
Track quality 100.0 %
Test CRC 8D6A99FE
Copy CRC 8D6A99FE
Copy OK

Track 17
Filename D:\Frank Sinatra - The Complete Reprise Studio Recordings\CD10\17 - Yes Sir, That's My Baby.wav

Peak level 99.5 %
Track quality 100.0 %
Test CRC 62CDAE36
Copy CRC 62CDAE36
Copy OK

Track 18
Filename D:\Frank Sinatra - The Complete Reprise Studio Recordings\CD10\18 - You're Driving Me Crazy!.wav

Peak level 95.0 %
Track quality 100.0 %
Test CRC DC9CC9AB
Copy CRC DC9CC9AB
Copy OK

Track 19
Filename D:\Frank Sinatra - The Complete Reprise Studio Recordings\CD10\19 - The Most Beautiful Girl In The World.wav

Peak level 90.7 %
Track quality 100.0 %
Test CRC 15200CC7
Copy CRC 15200CC7
Copy OK

Track 20
Filename D:\Frank Sinatra - The Complete Reprise Studio Recordings\CD10\20 - Summer Wind.wav

Peak level 95.8 %
Track quality 100.0 %
Test CRC E68CFC52
Copy CRC E68CFC52
Copy OK

Track 21
Filename D:\Frank Sinatra - The Complete Reprise Studio Recordings\CD10\21 - All Or Nothing At All.wav

Peak level 100.0 %
Track quality 100.0 %
Test CRC DAAE9561
Copy CRC DAAE9561
Copy OK

Track 22
Filename D:\Frank Sinatra - The Complete Reprise Studio Recordings\CD10\22 - Call Me.wav

Pre-gap length 0:00:01.04

Peak level 87.8 %
Track quality 100.0 %
Test CRC B833BBDB
Copy CRC B833BBDB
Copy OK

Track 23
Filename D:\Frank Sinatra - The Complete Reprise Studio Recordings\CD10\23 - On A Clear Day (You Can See Forever).wav

Peak level 99.1 %
Track quality 100.0 %
Test CRC 5CFEE592
Copy CRC 5CFEE592
Copy OK

Track 24
Filename D:\Frank Sinatra - The Complete Reprise Studio Recordings\CD10\24 - Downtown.wav

Peak level 99.6 %
Track quality 100.0 %
Test CRC 1703EC2E
Copy CRC 1703EC2E
Copy OK

No errors occured

End of status report


Трекер:  [ 25-Мар-2011 10:31 ]

  

Скачать .torrent

Размер .torrent файла 42 KB


Размер: 4.05 GB
Хэш (hash) релиза: a64bb8e85bd61cb8e81f042a96d2acaa22d96233

Торренты, похожие на Frank Sinatra - The Complete Reprise Studio Recordings скачать торрент

Форум Название Автор Размер S L Добавлен
Jazz, Blues (lossless) ·· (Jazz) Frank Sinatra - The Complete Reprise Studio Recordings (20CD Box) Part 2 (Disks 11-20) - 1995, FLAC (tracks), lossless L 42293509853.94 GB 0 0 1301038550

10:35

25-Мар-11

Еще никто не оставлял запись к записи скачать торрент Frank Sinatra - The Complete Reprise Studio Recordings . Будь первым!

!Обратная связь