Скачать через торрент Новая Милашка Хани Shin Cutey Honey бесплатно Аниме Все серии на русском torrent

Если у вас наблюдаются проблемы со скриншотами, переходом по ссылками, скачиванием торрентов - проблемы в блокировщике рекламы AdBlock. #хорошегоДня!


Статистика раздачи
Размер:  7.85 GB   |    Зарегистрирован:  3 года   |    .torrent скачан:  42 раза   |   
Раздают:  1  
   
Загрузка...
 
Автор Сообщение

Galfimbul

avatar Galfimbul



Год выпуска: 1994
Страна: Япония
Жанр: махо-сёдзё, комедия, этти
Продолжительность: ОВА, 8 эп. по 30 мин.
Выпуск: c 21.04.1994 по 21.11.1995
Перевод:
<ol class="post-ul">
русские субтитры от Ramzes-III & Дмитрий (полные/вспомогательные)
</ol>
Озвучка:
<ol class="post-ul">
одноголосая (жен.) от Е. Лурье
</ol>
Режиссер: Нагаока Ясутика
Студия: Toei Animation
Описание:
Косплей Сити в опасности, появился злодей по имени Долмек. Командуя армией монстров, он планирует уничтожить всё. Только один человек может остановить его: милашка Хани. После пробуждения Хани Кисараги становится мульти-трансформируюшимся андроидом Милашкой Хани. Однако, Хани неожиданно сталкивается со старым врагом из прошлого: Panther Zora.

Аниме имеет немало фансервиса в старых добрых традициях Нагая Го, то бишь это угарная и дикая пошлятина, и я не преувеличиваю. Даже перебор некоторый с пошлятиной. Тащем то в Милашке Хани стебутся другие работы Нагая Го, так что не удивляйтесь наличию занятных пилотируемых роботов и демонов в духе Девилмена, ну и куча других пародий и отсылок. Итак, немало экшена и юмора и даже сюжет, и все это приправлено дикой пошлятиной.

Продержитесь первые 2 серии, а потом вам понравится.
© gekksal, World Art
Информационные ссылки: AniDB || World Art || MAL
Качество: BDRip
Энкод: Winter - RG Pantheon
Тип видео: без хардсаба, без линковки
Формат: mkv
Видео: x264 (Hi10p), 960x720, ~5700 Kbps, 23.976 fps
Аудио JAP: Vorbis, 48000Hz, ~256 Kbps, 2ch
Аудио RUS: AC3, 48000Hz, ~192 Kbps, 2ch (внешними файлами)
01. An angel descends
02. The sweet trap of the Jewel Princess
03. A singing voice is the devil's temptation
04. The death of Honey?! Battle for the sacred skyship!
05. Challenge! The fangs of the evil sky monster
06. The evil of revenge
07. Prison is the nest of evil
08. Temptation shines like gold
[url]...4766187[/url] - 720p
Общее
Уникальный идентификатор : 184737679444760917704129509154455614315 (0x8AFB2ED090463496B5E13E68A89CF36B)
Полное имя : Z:\Anime\720p\New Cutey Honey [BD] [720p]\[Winter] Shin Cutey Honey 1 [BDrip 1280x720 x264 Vorbis].mkv
Формат : Matroska
Версия формата : Version 2
Размер файла : 1,06 Гбайт
Продолжительность : 25 м.
Режим общего битрейта : Переменный
Общий поток : 5971 Кбит/сек
Дата кодирования : UTC 2013-12-18 17:00:58
Программа кодирования : mkvmerge v2.9.8 ('C'est le bon') built on Aug 13 2009 12:49:06
Библиотека кодирования : libebml v0.7.7 + libmatroska v0.8.1

Видео
Идентификатор : 1
Формат : AVC
Формат/Информация : Advanced Video Codec
Профиль формата : High 10@L4.1
Параметр CABAC формата : Да
Параметр ReFrames формата : 9 кадров
Идентификатор кодека : V_MPEG4/ISO/AVC
Продолжительность : 25 м.
Битрейт : 5596 Кбит/сек
Ширина : 960 пикселей
Высота : 720 пикселей
Соотношение сторон : 4:3
Режим частоты кадров : Постоянный
Частота кадров : 23,976 кадра/сек
Цветовое пространство : YUV
Субдискретизация насыщенности : 4:2:0
Битовая глубина : 10 бит
Тип развёртки : Прогрессивная
Бит/(Пиксели*Кадры) : 0.338
Размер потока : 1015 Мбайт (94%)
Библиотека кодирования : x264 core 132 r2309 3b1f1f7
Настройки программы : cabac=1 / ref=9 / deblock=1:-2:-2 / analyse=0x3:0x133 / me=umh / subme=9 / psy=1 / psy_rd=0.90:0.00 / mixed_ref=1 / me_range=24 / chroma_me=1 / trellis=2 / 8x8dct=1 / cqm=0 / deadzone=21,11 / fast_pskip=1 / chroma_qp_offset=-2 / threads=6 / lookahead_threads=1 / sliced_threads=0 / nr=0 / decimate=0 / interlaced=0 / bluray_compat=0 / constrained_intra=0 / bframes=8 / b_pyramid=2 / b_adapt=2 / b_bias=0 / direct=1 / weightb=1 / open_gop=0 / weightp=2 / keyint=250 / keyint_min=23 / scenecut=40 / intra_refresh=0 / rc=crf / mbtree=0 / crf=18.2 / qcomp=0.70 / qpmin=9 / qpmax=40 / qpstep=4 / ip_ratio=1.40 / pb_ratio=1.30 / aq=1:0.90
Default : Нет
Forced : Нет

Аудио
Идентификатор : 2
Формат : Vorbis
Параметр Floor формата : 1
Идентификатор кодека : A_VORBIS
Продолжительность : 25 м.
Вид битрейта : Переменный
Битрейт : 256 Кбит/сек
Каналы : 2 канала
Частота : 48,0 КГц
Метод сжатия : С потерями
Размер потока : 46,4 Мбайт (4%)
Библиотека кодирования : libVorbis (Schaufenugget) (20101101 (Schaufenugget))
Язык : Japanese
Default : Да
Forced : Нет


<ol class="post-ul">
Выбор видео, перевода, озвучки, а также типа сборки материала осуществляется релизером и не подлежит обсуждению. Если вы считаете, что раздаваемый материал противоречит правилам раздела "Аниме" rutracker.org, сообщите об этом одному из модераторов раздела.

В случае появления нового материала или же лучшего по качеству материала релизер оставляет за собой право обновить раздачу. В этом случае вам необходимо ознакомиться с изменениями (добавлениями) и перекачать торрент.

Данный релиз предназначен для просмотра на ПК. Воспроизведение на иных проигрывателях не гарантируется. Для просмотра рекомендуется Media Player Classic с установленным пакетом кодеков K-Lite.

Данный релиз содержит 10-битное видео (Hi10p). Для корректного воспроизведения обязательно используйте кодеки, поддерживающие 10-битное видео.
Обсудить частные случаи проблем с воспроизведением и получить дополнительную информацию можно [url=...3682344]здесь[/url].

Данный релиз предназначен для просмотра с внешними субтитрами и внешними звуковыми дорожками.
<ol class="post-ul">
Для просмотра с внешней звуковой дорожкой нужно:
перекинуть файлы .mka из папки "RUS Sound [<автор(ы) озвучки>]" в одну папку с видео и переключить звуковую дорожку в плеере при просмотре. Как это сделать в разных плеерах подробно описано [url=...2403326]здесь[/url].
Для просмотра с субтитрами нужно:
перекинуть файлы .ass из папки "RUS Subtitles [<автор(ы) перевода>]" в одну папку с видео - плеер подгрузит их автоматически при открытии видео.
</ol>

Если у вас возникли проблемы с просмотром, не связанные с описанным выше, сообщите о них автору раздачи посредством сообщения в теме или ЛС Aglenn.
</ol>


Трекер:  [ 14-Сен-2014 19:00 ]

  

Скачать .torrent

Размер .torrent файла 42 KB


Размер: 7.85 GB
Хэш (hash) релиза: 3cf8724ed6bcd73c3f696a13eacc1b68094ec580
Подписка на обновления:

Торренты, похожие на Новая Милашка Хани Shin Cutey Honey скачать торрент

Форум Название Автор Размер S L Добавлен
Аниме | Rips ·· Новая Милашка Хани / Shin Cutey Honey / New Cutey Honey [OVA] [1-8 из 8] [JAP+SUB] [1994 г., махо-сёдзё, приключения, комедия, этти, DVDRip] L 28915504702.69 GB 0 0 1319957006

09:43

30-Окт-11

Аниме | HD Rips ·· Новая Милашка Хани / Shin Cutey Honey / New Cutey Hone [OVA] [8 из 8] [Без хардсаба] [JAP, RUS(ext), SUB] [1994 г., махо-сёдзё, комедия, этти, BDRemux] [1080p] Galfimbul 6885174490164.12 GB 0 0 1411225244

18:00

20-Сен-14

Еще никто не оставлял запись к записи скачать торрент Новая Милашка Хани Shin Cutey Honey . Будь первым!

!Обратная связь