Скачать через торрент музыку Tania Maria and Frankfurt Radio Bigband - Its Only Love - 2010, FLAC бесплатно без регистрации torrent

Если у вас наблюдаются проблемы со скриншотами, переходом по ссылками, скачиванием торрентов - проблемы в блокировщике рекламы AdBlock. #хорошегоДня!


Статистика раздачи
Размер:  422 MB   |    Зарегистрирован:  6 лет 6 месяцев   |    .torrent скачан:  55 раз   |   
Раздают:  1  
   
Загрузка...
 
Автор Сообщение

L


Tania Maria and Frankfurt Radio Bigband / It's Only Love


Жанр: Jazz/Vocal Jazz/Gospel
Год издания диска: 2010
Издатель (лейбл): BHM
Аудио кодек: FLAC (*.flac)
Тип рипа: tracks+.cue
Битрейт аудио: lossless
Продолжительность: 59:01
Источник (релизер): VoshinGO
Наличие сканов в содержимом раздачи: да

Треклист:
1. Confusion 3:42
2. It's Only Love 6:39
3. Chuleta 5:22
4. It's All In My Hands 5:06
5. Tranquility 8:36
6. Come With You 5:52
7. Valeu 6:11
8. Dear Dee Vee 7:03
9. Eruption 10:37
 
REM GENRE JazzREM DATE 2010REM DISCID 6F0DE109REM COMMENT "ExactAudioCopy v0.99pb5"PERFORMER "Tania Maria & Frankfurt Radio Bigband"TITLE "It's Only Love"FILE "01. Tania Maria & Frankfurt Radio Bigband – Confusion.wav" WAVE TRACK 01 AUDIO TITLE "Confusion" PERFORMER "Tania Maria & Frankfurt Radio Bigband" INDEX 01 00:00:00FILE "02. Tania Maria & Frankfurt Radio Bigband – It's Only Love.wav" WAVE TRACK 02 AUDIO TITLE "It's Only Love" PERFORMER "Tania Maria & Frankfurt Radio Bigband" INDEX 01 00:00:00FILE "03. Tania Maria & Frankfurt Radio Bigband – Chuleta.wav" WAVE TRACK 03 AUDIO TITLE "Chuleta" PERFORMER "Tania Maria & Frankfurt Radio Bigband" INDEX 01 00:00:00FILE "04. Tania Maria & Frankfurt Radio Bigband – It's All In My Hands.wav" WAVE TRACK 04 AUDIO TITLE "It's All In My Hands" PERFORMER "Tania Maria & Frankfurt Radio Bigband" INDEX 01 00:00:00FILE "05. Tania Maria & Frankfurt Radio Bigband – Tranquility.wav" WAVE TRACK 05 AUDIO TITLE "Tranquility" PERFORMER "Tania Maria & Frankfurt Radio Bigband" INDEX 01 00:00:00FILE "06. Tania Maria & Frankfurt Radio Bigband – Come With You.wav" WAVE TRACK 06 AUDIO TITLE "Come With You" PERFORMER "Tania Maria & Frankfurt Radio Bigband" INDEX 01 00:00:00FILE "07. Tania Maria & Frankfurt Radio Bigband – Valeu.wav" WAVE TRACK 07 AUDIO TITLE "Valeu" PERFORMER "Tania Maria & Frankfurt Radio Bigband" INDEX 01 00:00:00FILE "08. Tania Maria & Frankfurt Radio Bigband – Dear Dee Vee.wav" WAVE TRACK 08 AUDIO TITLE "Dear Dee Vee" PERFORMER "Tania Maria & Frankfurt Radio Bigband" INDEX 01 00:00:00FILE "09. Tania Maria & Frankfurt Radio Bigband – Eruption.wav" WAVE TRACK 09 AUDIO TITLE "Eruption" PERFORMER "Tania Maria & Frankfurt Radio Bigband" INDEX 01 00:00:00
 
Exact Audio Copy V0.99 prebeta 5 from 4. May 2009

EAC extraction logfile from 25. March 2011, 10:39

Tania Maria & Frankfurt Radio Bigband / It's Only Love

Used drive : TSSTcorpCDDVDW SH-S222A Adapter: 0 ID: 0

Read mode : SecureUtilize accurate stream : YesDefeat audio cache : YesMake use of C2 pointers : No

Read offset correction : 6Overread into Lead-In and Lead-Out : NoFill up missing offset samples with silence : YesDelete leading and trailing silent blocks : NoNull samples used in CRC calculations : YesUsed interface : Installed external ASPI interfaceGap handling : Appended to previous track

Used output format : User Defined EncoderSelected bitrate : 128 kBit/sQuality : HighAdd ID3 tag : NoCommand line compressor : C:\Program Files (x86)\Exact Audio Copy\Flac\flac.exeAdditional command line options : -8 -V -T "ARTIST=%a" -T "TITLE=%t" -T "ALBUM=%g" -T "DATE=%y" -T "TRACKNUMBER=%n" -T "GENRE=%m" -T "COMMENT=EAC FLAC -8" %s

TOC of the extracted CD

Track | Start | Length | Start sector | End sector --------------------------------------------------------- 1 | 0:00.00 | 3:42.67 | 0 | 16716 2 | 3:42.67 | 6:39.34 | 16717 | 46675 3 | 10:22.26 | 5:22.48 | 46676 | 70873 4 | 15:44.74 | 5:06.35 | 70874 | 93858 5 | 20:51.34 | 8:36.42 | 93859 | 132600 6 | 29:28.01 | 5:52.14 | 132601 | 159014 7 | 35:20.15 | 6:11.28 | 159015 | 186867 8 | 41:31.43 | 7:03.43 | 186868 | 218635 9 | 48:35.11 | 10:38.02 | 218636 | 266487

Track 1

Filename G:\Музыка\Раздачи\Новая папка\01. Tania Maria & Frankfurt Radio Bigband – Confusion.wav

Pre-gap length 0:00:02.00

Peak level 98.0 % Track quality 100.0 % Test CRC 60F8D47D Copy CRC 60F8D47D Cannot be verified as accurate (confidence 2) [221698E2], AccurateRip returned [168EF838] Copy OK

Track 2

Filename G:\Музыка\Раздачи\Новая папка\02. Tania Maria & Frankfurt Radio Bigband – It's Only Love.wav

Peak level 98.0 % Track quality 99.9 % Test CRC 1CBCE0F5 Copy CRC 1CBCE0F5 Cannot be verified as accurate (confidence 2) [8BACAA97], AccurateRip returned [22ECC919] Copy OK

Track 3

Filename G:\Музыка\Раздачи\Новая папка\03. Tania Maria & Frankfurt Radio Bigband – Chuleta.wav

Peak level 98.0 % Track quality 100.0 % Test CRC CEF80DE7 Copy CRC CEF80DE7 Cannot be verified as accurate (confidence 2) [7D04471A], AccurateRip returned [8E1812B4] Copy OK

Track 4

Filename G:\Музыка\Раздачи\Новая папка\04. Tania Maria & Frankfurt Radio Bigband – It's All In My Hands.wav

Peak level 98.0 % Track quality 100.0 % Test CRC DA36BC5F Copy CRC DA36BC5F Cannot be verified as accurate (confidence 2) [9D64FC5C], AccurateRip returned [35282FD4] Copy OK

Track 5

Filename G:\Музыка\Раздачи\Новая папка\05. Tania Maria & Frankfurt Radio Bigband – Tranquility.wav

Peak level 98.0 % Track quality 100.0 % Test CRC 1B122263 Copy CRC 1B122263 Cannot be verified as accurate (confidence 2) [F74439D1], AccurateRip returned [C9904636] Copy OK

Track 6

Filename G:\Музыка\Раздачи\Новая папка\06. Tania Maria & Frankfurt Radio Bigband – Come With You.wav

Peak level 98.0 % Track quality 100.0 % Test CRC 3D6A8310 Copy CRC 3D6A8310 Cannot be verified as accurate (confidence 2) [FA2CC93B], AccurateRip returned [B4B77C81] Copy OK

Track 7

Filename G:\Музыка\Раздачи\Новая папка\07. Tania Maria & Frankfurt Radio Bigband – Valeu.wav

Peak level 98.0 % Track quality 100.0 % Test CRC ACE6CE76 Copy CRC ACE6CE76 Cannot be verified as accurate (confidence 2) [5FCF06C4], AccurateRip returned [E7CF572A] Copy OK

Track 8

Filename G:\Музыка\Раздачи\Новая папка\08. Tania Maria & Frankfurt Radio Bigband – Dear Dee Vee.wav

Peak level 98.0 % Track quality 100.0 % Test CRC 10BF4196 Copy CRC 10BF4196 Cannot be verified as accurate (confidence 2) [246EBD24], AccurateRip returned [4A58D50D] Copy OK

Track 9

Filename G:\Музыка\Раздачи\Новая папка\09. Tania Maria & Frankfurt Radio Bigband – Eruption.wav

Peak level 98.0 % Track quality 100.0 % Test CRC BA0DE16E Copy CRC BA0DE16E Cannot be verified as accurate (confidence 2) [429103F2], AccurateRip returned [777411C1] Copy OK

No tracks could be verified as accurateYou may have a different pressing from the one(s) in the database

No errors occurred

End of status report


Трекер:  [ 25-Мар-2011 10:15 ]

  

Скачать .torrent

Размер .torrent файла 18 KB


Размер: 422 MB
Хэш (hash) релиза: aaf433223fca378314c78b1acf696e0ffe949f0a

Еще никто не оставлял запись к записи скачать торрент Tania Maria and Frankfurt Radio Bigband - Its Only Love - 2010, FLAC . Будь первым!

!Обратная связь