Скачать через торрент Недолговечный мир Short Peace бесплатно Аниме Все серии на русском torrent

Если у вас наблюдаются проблемы со скриншотами, переходом по ссылками, скачиванием торрентов - проблемы в блокировщике рекламы AdBlock. #хорошегоДня!


Статистика раздачи
Размер:  6.66 GB   |    Зарегистрирован:  3 года   |    .torrent скачан:  29 раз   |   
Раздают:  1  
   
Загрузка...
 
Автор Сообщение

Galfimbul

avatar Galfimbul


Недолговечный мир / Short Peace Movie
[Otomo Katsuhiro's Omnibus Project]


Страна: Япония
Год выпуска: 2012 г., 2013 г.
Жанр: мистика, историческое, драма, приключения, киберпанк
Тип: Movie
Продолжительность: 1 час 08 минут (4 фильма в "слитном" варианте)
Режиссёры: Morita Shuhei, Otomo Katsuhiro, Andou Hiroaki, Katoki Hajime
Студия: Sunrise
(а также Bandai Visual, Dentsu Inc., Lantis, Namco Bandai Games, Shochiku Co. Ltd)

Описание: Выпущенная в 2013 году антология четырёх короткометражных анимационных фильмов. Второй полнометражный сборник Кацухиро Отомо (предыдущим был вышедший в 1995 году "Memories").
Состоит из:
1. Tsukumo - режиссёр Морита Сюхэй
2. Hi no Youjin - режиссёр Отомо Кацухиро
3. Gambo - режиссёр Андо Хироаки
4. Buki yo Saraba - режиссёр Катоки Хадзимэ

Качество: BDRip
Тип релиза: без хардсаба
Формат видео: MKV
Совместимость с бытовыми плеерами: нет

Перевод: русские субтитры от qx aka Night & kuzmich, внешним файлом.
Формат: ASS/SRT. *Скачать шрифты для .ass
Авторский перевод.

Озвучка: встроенная, одноголосая от Persona99 (сэмпл)
Озвучено специально для данного релиза.

Технические данные:
Автор рипа: AdzsC@WiKi
Видео: H264/AVC, 1920x1080, 12500 Kbps, 23.976 fps, 8 bit.
Аудио 1: AAC stereo 256 kbps VBR. Язык: русский (дорожка встроенная)
Аудио 2: AC3 256 kbps CBR. Язык: русский (дорожка встроенная)
Аудио 3: DTS 5.1 @ 1509 Kbps. Язык: японский.

Отличия от других раздач:
[url]...4707071[/url] - 1080р, озвучка
[url]...4789915[/url] - 1080р, другая озвучка
General
Unique ID : 185286883356200307665332251521433280142 (0x8B64F4A87AAF28A588AF17068BC11E8E)
Complete name : Short Peace Movie [1080p,RUS(int),JAP].mkv
Format : Matroska
Format version : Version 4 / Version 2
File size : 6.66 GiB
Duration : 1h 8mn
Overall bit rate : 13.9 Mbps
Encoded date : UTC 2014-09-12 08:58:11
Writing application : mkvmerge v6.6.0 ('The Edge Of The In Between') built on Dec 1 2013 17:55:00
Writing library : libebml v1.3.0 + libmatroska v1.4.1

Video
ID : 1
Format : AVC
Format/Info : Advanced Video Codec
Format profile : High@L4.1
Format settings, CABAC : Yes
Format settings, ReFrames : 4 frames
Codec ID : V_MPEG4/ISO/AVC
Duration : 1h 8mn
Nominal bit rate : 12.5 Mbps
Width : 1 920 pixels
Height : 1 080 pixels
Display aspect ratio : 16:9
Frame rate mode : Constant
Frame rate : 23.976 fps
Color space : YUV
Chroma subsampling : 4:2:0
Bit depth : 8 bits
Scan type : Progressive
Bits/(Pixel*Frame) : 0.251
Writing library : x264 core 136 r2348+704+51 d1baef6 tMod [8-bit@all X86_64]
Encoding settings : cabac=1 / ref=4 / deblock=1:-3:-3 / analyse=0x3:0x133 / me=umh / subme=11 / psy=1 / fade_compensate=0.00 / psy_rd=0.60:0.05 / mixed_ref=1 / me_range=64 / chroma_me=1 / trellis=2 / 8x8dct=1 / cqm=0 / deadzone=21,11 / fast_pskip=0 / chroma_qp_offset=-3 / threads=12 / lookahead_threads=2 / sliced_threads=0 / nr=0 / decimate=0 / interlaced=0 / bluray_compat=0 / constrained_intra=0 / fgo=0 / bframes=8 / b_pyramid=2 / b_adapt=2 / b_bias=0 / direct=3 / weightb=1 / open_gop=0 / weightp=2 / keyint=250 / keyint_min=23 / scenecut=40 / intra_refresh=0 / rc_lookahead=120 / rc=2pass / mbtree=0 / bitrate=12500 / ratetol=1.0 / qcomp=0.75 / qpmin=0:0:0 / qpmax=69:69:69 / qpstep=4 / cplxblur=20.0 / qblur=0.5 / vbv_maxrate=50000 / vbv_bufsize=50000 / nal_hrd=none / ip_ratio=1.40 / pb_ratio=1.30 / aq=1:0.85 / aq-sensitivity=10.00 / aq-factor=1.00:1.00:1.00 / aq2=0 / aq3=0
Default : Yes
Forced : No
Matrix coefficients : BT.709

Audio #1
ID : 2
Format : AAC
Format/Info : Advanced Audio Codec
Format profile : LC
Codec ID : A_AAC
Duration : 1h 8mn
Channel(s) : 2 channels
Channel positions : Front: L R
Sampling rate : 48.0 KHz
Compression mode : Lossy
Delay relative to video : 9ms
Title : AAC (Persona99)
Language : Russian
Default : Yes
Forced : No

Audio #2
ID : 3
Format : AC-3
Format/Info : Audio Coding 3
Mode extension : CM (complete main)
Format settings, Endianness : Big
Codec ID : A_AC3
Duration : 1h 8mn
Bit rate mode : Constant
Bit rate : 256 Kbps
Channel(s) : 2 channels
Channel positions : Front: L R
Sampling rate : 48.0 KHz
Bit depth : 16 bits
Compression mode : Lossy
Stream size : 126 MiB (2%)
Title : AC3 (Persona99)
Language : Russian
Default : No
Forced : No

Audio #3
ID : 4
Format : DTS
Format/Info : Digital Theater Systems
Mode : 16
Format settings, Endianness : Big
Codec ID : A_DTS
Duration : 1h 8mn
Bit rate mode : Constant
Bit rate : 1 509 Kbps
Channel(s) : 6 channels
Channel positions : Front: L C R, Side: L R, LFE
Sampling rate : 48.0 KHz
Bit depth : 24 bits
Compression mode : Lossy
Stream size : 741 MiB (11%)
Title : japanese original
Language : Japanese
Default : No
Forced : No

Menu #1
00:00:00.000 : en:オープニング
00:03:39.594 : en:九十九
00:17:10.029 : en:火要鎮
00:29:13.085 : en:GAMBO
00:40:42.774 : en:武器よさらば

Menu #2
00:00:00.054 : en:00:00:00.054
"Hi no Youjin":
- В этом эпизоде разговор идёт на старояпонском диалекте.
- Японские пожарные и их татуировки (кратко):
http://fire-truck.ru/encyclopedia/istoriya-pozharov-i-pozharnogo-dela-v-yaponii-period-edo-1600-1868-godyi.html
- Причина, по которой отец Мацукичи был против увлечения сына, проста: их семья была мелкими аристократами,
а обычные японские пожарные в то время были выходцами из самых простых слоёв японского общества и считались низкой кастой.
- Великий пожар Мэйрэки в Эдо (нынешний Токио) начался 2 марта 1657 года (3 года эры Мэйрэки по японскому летосчислению)
и продолжался 19 дней. В огне погибло более 100 000 человек и 60-70% города.

"Buki yo Saraba":
- Имена героев обыгрываются с названиями алкогольных напитков.
- Имя "Джанки" обыгрываеся с "янки".

*****************************************************

На RuTracker.org также доступна нарезка видео из отдельного (пятого) игрового сегмента Short Peace - Ranko Tsukigime's Longest Day.
-> [url]...4680846[/url]


Трекер:  [ 12-Сен-2014 13:00 ]

  

Скачать .torrent

Размер .torrent файла 34 KB


Размер: 6.66 GB
Хэш (hash) релиза: ea21650488f20a6d66c3029c5f1085f62f9d1ef1
Подписка на обновления:

Еще никто не оставлял запись к записи скачать торрент Недолговечный мир Short Peace . Будь первым!

!Обратная связь