Скачать через торрент Буквоежка Book Girl бесплатно Аниме Все серии на русском torrent

Если у вас наблюдаются проблемы со скриншотами, переходом по ссылками, скачиванием торрентов - проблемы в блокировщике рекламы AdBlock. #хорошегоДня!


Статистика раздачи
Размер:  4.14 GB   |    Зарегистрирован:  3 года   |    .torrent скачан:  41 раз   |   
Раздают:  1  
   
Загрузка...
 
Автор Сообщение

Galfimbul

avatar Galfimbul


Буквоежка / Book Girl / Bungaku shôjo

Страна: Япония
Год выпуска: 2010 г.
Жанр: аниме, мультфильм, фэнтези, комедия
Тип: Movie
Продолжительность: 01:41:55
Режиссер: Шунсуке Тада
Студия: Production I.G.

Описание: Главный герой — Коноха Иноуэ — выглядит обычным старшеклассником. Его школьная жизнь могла бы показаться совершенно неинтересной, если бы не хранимый им секрет — он хотел стать писателем — автором женских романтических бестселлеров. Однако после одного неприятного эпизода, произошедшего два года назад, он поклялся себе никогда больше не писать. Все меняется, когда он переходит в новую школу. Президент литературного кружка Токо Амано буквально вынуждает его вступить в клуб. Токо питается книгами, поэтому теперь каждый день после занятий Коноха пишет для нее новую литературную пищу.

Автор рипа: CRiSC!
Релиз:

Качество: BDRip (Book Girl (2010) Blu-ray 1080p AVC DTS-HD 5.1 / HDCLUB)
Тип релиза: Без хардсаба
Формат видео: MKV
Наличие линковки: Нет
Видео: AVC, 1280x720 (16:9), 23.976 fps, 4 034 Kbps, 0.183 bit/pixel
Аудио 1: 48 kHz, DTS, 3/2 (L,C,R,l,r) + LFE ch, 1509 kbps Язык Русский (в составе контейнера) Дублированый [Reanimedia] Сэмпл
Аудио 2: 48 kHz, AC3, 3/0 (L,C,R) ch, ~640.00 kbps avg Язык Японский
Субтитры: Русские (надписи / полные) [Reanimedia]
GeneralUnique ID : 189364579454255450969057539083471458934 (0x8E764A990A9180C59FDCF5E154C89276)Complete name : D:\Видео\Аниме 2\Буквоежка.BDRip.mkvFormat : MatroskaFormat version : Version 2File size : 4.14 GiBDuration : 1h 41mnOverall bit rate : 5 822 KbpsMovie name : Bungaku shôjo (2010) - Release for HDCLUBEncoded date : UTC 2014-05-31 20:01:30Writing application : mkvmerge v5.7.0 ('The Whirlwind') built on Jul 8 2012 20:08:51Writing library : libebml v1.2.3 + libmatroska v1.3.0

VideoID : 1Format : AVCFormat/Info : Advanced Video CodecFormat profile : High@L4.1Format settings, CABAC : YesFormat settings, ReFrames : 9 framesCodec ID : V_MPEG4/ISO/AVCDuration : 1h 41mnBit rate : 4 034 KbpsWidth : 1 280 pixelsHeight : 720 pixelsDisplay aspect ratio : 16:9Frame rate : 23.976 fpsColor space : YUVChroma subsampling : 4:2:0Bit depth : 8 bitsScan type : ProgressiveBits/(Pixel*Frame) : 0.183Stream size : 2.79 GiB (67%)Writing library : x264 core 125 r2200 999b753Encoding settings : cabac=1 / ref=9 / deblock=1:-3:-3 / analyse=0x3:0x133 / me=umh / subme=11 / psy=1 / psy_rd=1.00:0.00 / mixed_ref=1 / me_range=64 / chroma_me=1 / trellis=2 / 8x8dct=1 / cqm=0 / deadzone=21,11 / fast_pskip=0 / chroma_qp_offset=-2 / threads=12 / lookahead_threads=2 / sliced_threads=0 / nr=0 / decimate=1 / interlaced=0 / bluray_compat=0 / constrained_intra=0 / bframes=9 / b_pyramid=2 / b_adapt=2 / b_bias=0 / direct=3 / weightb=1 / open_gop=0 / weightp=2 / keyint=250 / keyint_min=24 / scenecut=40 / intra_refresh=0 / rc_lookahead=40 / rc=2pass / mbtree=0 / bitrate=4034 / ratetol=1.0 / qcomp=0.60 / qpmin=0 / qpmax=69 / qpstep=4 / cplxblur=20.0 / qblur=0.5 / vbv_maxrate=50000 / vbv_bufsize=62500 / nal_hrd=none / ip_ratio=1.40 / pb_ratio=1.40 / aq=1:0.70Language : JapaneseDefault : YesForced : No

Audio #1ID : 2Format : DTSFormat/Info : Digital Theater SystemsCodec ID : A_DTSDuration : 1h 41mnBit rate mode : ConstantBit rate : 1 152 KbpsChannel(s) : 6 channelsChannel positions : Front: L C R, Side: L R, LFESampling rate : 48.0 KHzBit depth : 24 bitsCompression mode : LossyStream size : 840 MiB (20%)Title : |Дубляж, Blu-Ray|Language : RussianDefault : YesForced : No

Audio #2ID : 3Format : AC-3Format/Info : Audio Coding 3Mode extension : CM (complete main)Codec ID : A_AC3Duration : 1h 41mnBit rate mode : ConstantBit rate : 640 KbpsChannel(s) : 3 channelsChannel positions : Front: L C RSampling rate : 48.0 KHzBit depth : 16 bitsCompression mode : LossyStream size : 467 MiB (11%)Language : JapaneseDefault : NoForced : No

Text #1ID : 4Format : UTF-8Codec ID : S_TEXT/UTF8Codec ID/Info : UTF-8 Plain TextTitle : ForcedLanguage : RussianDefault : YesForced : No

Text #2ID : 5Format : UTF-8Codec ID : S_TEXT/UTF8Codec ID/Info : UTF-8 Plain TextTitle : FullLanguage : RussianDefault : NoForced : No

Menu00:00:00.000 : :00:00:00.00000:00:41.041 : :00:00:41.04100:04:25.849 : :00:04:25.84900:05:51.142 : :00:05:51.14200:11:24.976 : :00:11:24.97600:15:15.581 : :00:15:15.58100:20:08.249 : :00:20:08.24900:26:41.809 : :00:26:41.80900:37:30.707 : :00:37:30.70700:46:25.574 : :00:46:25.57400:55:55.310 : :00:55:55.31001:06:49.631 : :01:06:49.63101:10:41.612 : :01:10:41.61201:14:24.251 : :01:14:24.25101:24:00.702 : :01:24:00.70201:28:04.404 : :01:28:04.40401:34:13.898 : :01:34:13.89801:36:48.302 : :01:36:48.30201:40:14.383 : :01:40:14.38301:41:36.090 : :01:41:36.090


Трекер:  [ 10-Сен-2014 12:30 ]

  

Скачать .torrent

Размер .torrent файла 21 KB


Размер: 4.14 GB
Хэш (hash) релиза: ebd074e31479c1f2f1e80840b00daa64cb7ddf7b
Подписка на обновления:

Еще никто не оставлял запись к записи скачать торрент Буквоежка Book Girl . Будь первым!

!Обратная связь