Скачать через торрент M3: Чёрная сталь M3: Sono Kuroki Hagane бесплатно Аниме Все серии на русском torrent

Если у вас наблюдаются проблемы со скриншотами, переходом по ссылками, скачиванием торрентов - проблемы в блокировщике рекламы AdBlock. #хорошегоДня!


Статистика раздачи
Размер:  5.29 GB   |    Зарегистрирован:  3 года   |    .torrent скачан:  23 раза   |   
Раздают:  1  
   
Загрузка...
 
Автор Сообщение

Galfimbul

avatar Galfimbul


M3: Чёрная сталь / M3: Sono Kuroki Hagane
Страна: Япония
Год выпуска: 2014 г.
Жанр: Приключения, фантастика
Тип: TV
Продолжительность: 12 эп. по 25 мин
Перевод на русский: YakuSub Studio
Перевод: Aero
Оформление: Helge
Переводчик/Перевод песен: Nika_Elrik

Режиссер: Сато Дзюнъити

Студия:

Описание: На Земле появились области Темной Реальности — безжизненные места, всегда погруженные в тьму. Из этих мест пришли монстры представляющие собой металлические кристаллы слившиеся с трупами людей. Чтобы уничтожить такого монстра нужно использовать специального боевого робота, который особым колом нанесет удар в ядро монстра. Каждый такой кол стоит двадцать миллионов иен. Постепенно Темная Реальность разрастается и если ничего не сделать, места для человечества не останется. Сюжет повествует о группе школьников тренирующихся для сражения с созданиями Темной Реальности.

Равка: Leopard-Raws
Качество: HDTVRip
Хардсаб: Отсутствует
Формат видео: mkv
Видео: AVC, 8 bits, 1280x720, 1514 kbps, 23.976 fps, (16:9)
Аудио:
1. JP - AAC, 192 kbps, 48.0 Hz, 2 ch
01. Звёздная ночь
02. В объятьях жнеца
03. Шрам прошлого
04. Опасно, не смешивать!
05. Бесполезный
06. Ужас, переходящий в смерть
07. Команда одиночества
08. Безумное Nзапретное царство
09. Глубокое сердце стали
10. Твоя песня
11. Алый плач жестокости
12. То, что объединяет двух людей
13. Рык зверя
14. Звуки сожаления
15. Пустое сердце серой зари
16. Наше обещание
17. Свет Мрака
18. Правда Йомидзимы
19. Чёрный закат
Общее
Полное имя : D:\[Leopard-Raws]\[Leopard-Raws] M3 - Sono Kuroki Hagane\[Leopard-Raws] M3 - Sono Kuroki Hagane - 01 RAW (MX 1280x720 x264 AAC).mp4
Формат : MPEG-4
Профиль формата : Base Media
Идентификатор кодека : isom
Размер файла : 300 Мбайт
Продолжительность : 24 м.
Режим общего битрейта : Переменный
Общий поток : 1709 Кбит/сек
Дата кодирования : UTC 2014-04-22 03:56:07
Дата пометки : UTC 2014-04-22 03:56:07

Видео
Идентификатор : 1
Формат : AVC
Формат/Информация : Advanced Video Codec
Профиль формата : High@L4.1
Параметр CABAC формата : Да
Параметр ReFrames формата : 4 кадра
Идентификатор кодека : avc1
Идентификатор кодека/Информация : Advanced Video Coding
Продолжительность : 24 м.
Битрейт : 1514 Кбит/сек
Максимальный битрейт : 12,8 Мбит/сек
Ширина : 1280 пикселей
Высота : 720 пикселей
Соотношение сторон : 16:9
Режим частоты кадров : Постоянный
Частота кадров : 23,976 кадра/сек
Цветовое пространство : YUV
Субдискретизация насыщенности : 4:2:0
Битовая глубина : 8 бит
Тип развёртки : Прогрессивная
Бит/(Пиксели*Кадры) : 0.069
Размер потока : 265 Мбайт (89%)
Заголовок : 264:fps=23.976@GPAC0.5.1-DEV-rev4283
Библиотека кодирования : x264 core 129 r2245+729M 1a52e03
Настройки программы : cabac=1 / ref=4 / deblock=1:1:-1 / analyse=0x3:0x113 / me=umh / subme=9 / psy=1 / fade_compensate=0.00 / psy_rd=1.00:0.00 / mixed_ref=1 / me_range=24 / chroma_me=1 / trellis=2 / 8x8dct=1 / cqm=0 / deadzone=21,11 / fast_pskip=1 / chroma_qp_offset=-2 / threads=8 / lookahead_threads=1 / sliced_threads=0 / nr=0 / decimate=1 / interlaced=0 / bluray_compat=0 / constrained_intra=0 / fgo=0 / bframes=9 / b_pyramid=2 / b_adapt=2 / b_bias=0 / direct=1 / weightb=1 / open_gop=0 / weightp=2 / keyint=240 / keyint_min=24 / scenecut=40 / intra_refresh=0 / rc=crf / mbtree=0 / crf=18.5 / qcomp=0.72 / qpmin=0 / qpmax=69 / qpstep=4 / ip_ratio=1.40 / pb_ratio=1.30 / aq=1:0.85
Дата кодирования : UTC 2014-04-22 03:56:07
Дата пометки : UTC 2014-04-22 03:56:09
Основные цвета : BT.709
Характеристики трансфера : BT.709
Коэффициенты матрицы : BT.709

Аудио
Идентификатор : 2
Формат : AAC
Формат/Информация : Advanced Audio Codec
Профиль формата : LC
Идентификатор кодека : 40
Продолжительность : 24 м.
Вид битрейта : Переменный
Битрейт : 192 Кбит/сек
Максимальный битрейт : 229 Кбит/сек
Каналы : 2 канала
Расположение каналов : Front: L R
Частота : 48,0 КГц
Метод сжатия : С потерями
Размер потока : 33,6 Мбайт (11%)
Язык : Japanese
Дата кодирования : UTC 2014-04-21 17:44:49
Дата пометки : UTC 2014-04-22 03:56:09


Добавлена 19я серия

Трекер:  [ 07-Сен-2014 18:30 ]

  

Скачать .torrent

Размер .torrent файла 18 KB


Размер: 5.29 GB
Хэш (hash) релиза: 7fccefe099bb9252d8d8d8110b5b0deb15c1ae64
Подписка на обновления:

Еще никто не оставлял запись к записи скачать торрент M3: Чёрная сталь M3: Sono Kuroki Hagane . Будь первым!

!Обратная связь