Скачать порно через торрент [WetAndPissy.com] Lolipop UnionPeer.org бесплатно онлайн HD качество

Скачать новое порно 2015, 2014 новинки через торрент UnionPeer.org

Порно торрент бесплатно ЮнионПир.орг

Если у вас наблюдаются проблемы со скриншотами, переходом по ссылками, скачиванием торрентов - проблемы в блокировщике рекламы AdBlock. #хорошегоДня!


Статистика раздачи
Размер:  229 MB   |    Зарегистрирован:  2 года 11 месяцев   |    .torrent скачан:  202 раза   |   
Раздают:  1  
   
Загрузка...
 
Автор Сообщение

Galfimbul

avatar Galfimbul


Lolipop - Pee Ocean

Имя актрисы: Lolipop
Подсайт и сайт:Wetandpissy.com
Год производства: 21.08.2014 г.
Жанр: Pissing, Toy Play, Legal Teen, Masturbation, Degustation,Cheers, Close pink, Crazy, Diving, Pussy wash, Rinse job, Squirt, Teen, Wet panties, Wet toy
Продолжительность: 00:30:56
Описание:
A lot has changed since we featured Lollypop two years earlier. She''s developed into a very attractive young woman,
leaving her younger looks for a fuller and more physically fit body. Her sexier appearance isn''t the only thing that has changed
for the better - she''s also more daring and outgoing. She chooses one of our favorite poses, pulling her legs towards her body and her feet up to pee.
She spurts and sprays, launching her stream up into the air, well above her feet and past her head.
It only takes a little more than twenty seconds for Lollypop to leave us unable to blink, drenching the right half of her body.
There''s another great moment where she dips her crotch into a champagne glass, pulling out right before filling it up. Before letting her go,
we get a good look at her beautiful eyes and she gestures a kiss at us.

Доп. информация:
http://www.wetandpissy.com/updates/video-pee-ocean/?nats= [url=...1880737] 1080p [/url] [url=...1883554] 720p [/url] [url=...1883557] 480p [/url]
Тип HD видео: 360p
Формат видео: MPEG-4
Видео: MPEG4 Video (H264) 640x360 25.00fps 903Kbps
Аудио: AAC 48000Hz stereo 125Kbps
Формат : MPEG-4
Профиль формата : Base Media
Идентификатор кодека : isom
Размер файла : 229 Мбайт
Продолжительность : 30 м.
Режим общего битрейта : Переменный
Общий поток : 1034 Кбит/сек
Программа кодирования : Lavf54.63.104

Видео
Идентификатор : 1
Формат : AVC
Формат/Информация : Advanced Video Codec
Профиль формата : High@L3.2
Параметр CABAC формата : Да
Параметр ReFrames формата : 4 кадра
Идентификатор кодека : avc1
Идентификатор кодека/Информация : Advanced Video Coding
Продолжительность : 30 м.
Битрейт : 903 Кбит/сек
Ширина : 640 пикселей
Высота : 360 пикселей
Соотношение сторон : 16:9
Режим частоты кадров : Постоянный
Частота кадров : 25,000 кадров/сек
Цветовое пространство : YUV
Субдискретизация насыщенности : 4:2:0
Битовая глубина : 8 бит
Тип развёртки : Прогрессивная
Бит/(Пиксели*Кадры) : 0.157
Размер потока : 200 Мбайт (87%)
Библиотека кодирования : x264 core 130 r2274 c832fe9
Настройки программы : cabac=1 / ref=3 / deblock=1:-1:-1 / analyse=0x3:0x133 / me=umh / subme=9 / psy=1 / psy_rd=1.00:0.00 / mixed_ref=1 / me_range=16 / chroma_me=1 / trellis=2 / 8x8dct=1 / cqm=0 / deadzone=21,11 / fast_pskip=1 / chroma_qp_offset=-2 / threads=12 / lookahead_threads=1 / sliced_threads=0 / nr=0 / decimate=1 / interlaced=0 / bluray_compat=0 / constrained_intra=0 / bframes=3 / b_pyramid=2 / b_adapt=2 / b_bias=0 / direct=3 / weightb=1 / open_gop=0 / weightp=2 / keyint=250 / keyint_min=25 / scenecut=40 / intra_refresh=0 / rc_lookahead=60 / rc=crf / mbtree=1 / crf=19.0 / qcomp=0.60 / qpmin=0 / qpmax=69 / qpstep=4 / vbv_maxrate=900 / vbv_bufsize=25000 / crf_max=0.0 / nal_hrd=none / ip_ratio=1.40 / aq=1:1.00
Язык : English

Аудио
Идентификатор : 2
Формат : AAC
Формат/Информация : Advanced Audio Codec
Профиль формата : LC
Идентификатор кодека : 40
Продолжительность : 30 м.
Вид битрейта : Переменный
Битрейт : 125 Кбит/сек
Максимальный битрейт : 900 Кбит/сек
Каналы : 2 канала
Расположение каналов : Front: L R
Частота : 48,0 КГц
Метод сжатия : С потерями
Размер потока : 27,7 Мбайт (12%)
Язык : English


Трекер:  [ 28-Авг-2014 18:00 ]

  

Скачать .torrent

Размер .torrent файла 36 KB


Размер: 229 MB
Хэш (hash) релиза: 32ac4194f10c23247dd87661d9e76188a65dbaec

Еще никто не оставлял запись к записи скачать торрент [WetAndPissy.com] Lolipop . Будь первым!

!Обратная связь