Скачать порно через торрент [WetAndPuffy.com] Kristall Pink UnionPeer.org бесплатно онлайн HD качество

Скачать новое порно 2015, 2014 новинки через торрент UnionPeer.org

Порно торрент бесплатно ЮнионПир.орг

Если у вас наблюдаются проблемы со скриншотами, переходом по ссылками, скачиванием торрентов - проблемы в блокировщике рекламы AdBlock. #хорошегоДня!


Статистика раздачи
Размер:  232 MB   |    Зарегистрирован:  3 года 2 месяца   |    .torrent скачан:  350 раз   |   
Раздают:  1  
   
Загрузка...
 
Автор Сообщение

Galfimbul

avatar Galfimbul


Kristall Pink

Имя актрисы: Kristall Rush
Подсайт и сайт:WetAndPuffy.com
Год производства: 25.08.2014 г.
Жанр: Dildo, Pussy Pump, Wet Fingers, Toys, Babes, Pussy, Close Up
Продолжительность: 00:27:06
Описание:
Kristall loves to tease and looks a vision in her nude coloured cut out dress.
She teases the camera before stripping down to her panties and once they are removed, she really pulls down on her low hanging pussy lips.
This sexy brunette shows off her long legs and petite frame by oiling up her soft skin and teasing her trimmed pussy.
Kristall uses a pussy pump to make her twat nice and swollen before toying a pink sex toy. She even uses both at the same time!

Доп. информация:
http://www.wetandpuffy.com/videos/kristall-pink/ [url=...1882225] 1080p [/url] [url=...1882229] 720p [/url] [url=] 360p [/url]
Тип HD видео: 480p
Формат видео: MPEG-4
Видео: MPEG4 Video (H264) 854x480 25.00fps 1066Kbps
Аудио: AAC 48000Hz stereo 125Kbps
Формат : MPEG-4
Профиль формата : Base Media
Идентификатор кодека : isom
Размер файла : 232 Мбайт
Продолжительность : 27 м.
Режим общего битрейта : Переменный
Общий поток : 1197 Кбит/сек
Программа кодирования : Lavf54.63.104

Видео
Идентификатор : 1
Формат : AVC
Формат/Информация : Advanced Video Codec
Профиль формата : High@L3.2
Параметр CABAC формата : Да
Параметр ReFrames формата : 4 кадра
Идентификатор кодека : avc1
Идентификатор кодека/Информация : Advanced Video Coding
Продолжительность : 27 м.
Битрейт : 1066 Кбит/сек
Ширина : 854 пикселя
Высота : 480 пикселей
Соотношение сторон : 16:9
Соотношение сторон в оригинале : 16:9
Режим частоты кадров : Постоянный
Частота кадров : 25,000 кадров/сек
Цветовое пространство : YUV
Субдискретизация насыщенности : 4:2:0
Битовая глубина : 8 бит
Тип развёртки : Прогрессивная
Бит/(Пиксели*Кадры) : 0.104
Размер потока : 207 Мбайт (89%)
Библиотека кодирования : x264 core 130 r2274 c832fe9
Настройки программы : cabac=1 / ref=3 / deblock=1:-1:-1 / analyse=0x3:0x133 / me=umh / subme=9 / psy=1 / psy_rd=1.00:0.00 / mixed_ref=1 / me_range=16 / chroma_me=1 / trellis=2 / 8x8dct=1 / cqm=0 / deadzone=21,11 / fast_pskip=1 / chroma_qp_offset=-2 / threads=12 / lookahead_threads=1 / sliced_threads=0 / nr=0 / decimate=1 / interlaced=0 / bluray_compat=0 / constrained_intra=0 / bframes=3 / b_pyramid=2 / b_adapt=2 / b_bias=0 / direct=3 / weightb=1 / open_gop=0 / weightp=2 / keyint=250 / keyint_min=25 / scenecut=40 / intra_refresh=0 / rc_lookahead=60 / rc=crf / mbtree=1 / crf=19.0 / qcomp=0.60 / qpmin=0 / qpmax=69 / qpstep=4 / vbv_maxrate=1600 / vbv_bufsize=25000 / crf_max=0.0 / nal_hrd=none / ip_ratio=1.40 / aq=1:1.00
Язык : English

Аудио
Идентификатор : 2
Формат : AAC
Формат/Информация : Advanced Audio Codec
Профиль формата : LC
Идентификатор кодека : 40
Продолжительность : 27 м.
Вид битрейта : Переменный
Битрейт : 125 Кбит/сек
Максимальный битрейт : 1600 Кбит/сек
Каналы : 2 канала
Расположение каналов : Front: L R
Частота : 48,0 КГц
Метод сжатия : С потерями
Размер потока : 24,3 Мбайт (10%)
Язык : English


Трекер:  [ 28-Авг-2014 12:30 ]

  

Скачать .torrent

Размер .torrent файла 37 KB


Размер: 232 MB
Хэш (hash) релиза: 16d5d77fe73e6cff85de016fcdc12fa99b7e4646

Торренты, похожие на [WetAndPuffy.com] Kristall Pink скачать торрент

Форум Название Автор Размер S L Добавлен
Сайтрипы 2014 ·· [WetAndPuffy.com] Kristall Pink ( Kristall Rush/ 25.08.2014) [2014 г., Dildo, Pussy Pump, Wet Fingers, Toys, Babes, Pussy, Close Up, 360p] Galfimbul 157415459150 MB 0 0 1409220400

13:06

28-Авг-14

Сайтрипы 2014 ·· [WetAndPuffy.com] Kristall Rush (Kristall Pink / 25.08.2014) [2014 г., Dildo, Pussy Pump, Wet Fingers, Toys, Babes, Pussy, Close Up, 720p] Galfimbul 411498736392 MB 0 0 1408946567

09:02

25-Авг-14

Сайтрипы 2014 ·· [WetAndPuffy.com] Kristall Rush – Kristall Pink (25.08.2014)[2014, Solo, 1080p] Galfimbul 16513625581.54 GB 0 0 1408944748

08:32

25-Авг-14

Еще никто не оставлял запись к записи скачать торрент [WetAndPuffy.com] Kristall Pink . Будь первым!

!Обратная связь