Скачать порно через торрент [Wetandpissy.com] NEW!!!Busty Gabriela UnionPeer.org бесплатно онлайн HD качество

Скачать новое порно 2015, 2014 новинки через торрент UnionPeer.org

Порно торрент бесплатно ЮнионПир.орг

Если у вас наблюдаются проблемы со скриншотами, переходом по ссылками, скачиванием торрентов - проблемы в блокировщике рекламы AdBlock. #хорошегоДня!


Статистика раздачи
Размер:  191 MB   |    Зарегистрирован:  2 года 11 месяцев   |    .torrent скачан:  148 раз   |   
Раздают:  1  
   
Загрузка...
 
Автор Сообщение

Galfimbul

avatar Galfimbul


Busty Gabriela

Имя актрисы: Gabriela Daniels
Подсайт и сайт:Wetandpissy.com
Год производства: 28.08.2014 г.
Жанр: Anal, Babe, Close pink, Degustation, Diving, Pussy wash, Squirt, Wet toy
Продолжительность: 00:28:31
Описание:
Gabriela is a curvy teen and loves to play with her pussy.
She went down a treat when she appeared on Wet and Puffy so we talked her into coming back and filming a scene for Wet and Pissy.
She started to strip from her white lingerie immediately and used her fingers to rub her twat. Laying down,
Gabriela pissed all over her pretty face and long brunette hair before lapping it up from the puddle on the chair. Stripping completely naked,
this gorgeous teen rubs her big tits against her warm golden juices. Inserting a speculum,
Gabriela stretches her pissy pussy apart while releasing another massive stream of pee.
She is so turned on by piss play that she fucks a vibrator in both her pussy and her ass before releasing one final piss!

Доп. информация:
http://www.wetandpissy.com/updates/video-busty-gabriela/?nats= [url=...1883496] 1080p [/url] [url=...1883499] 720p [/url] [url=...1883502] 480p [/url]
Тип HD видео: 360p
Формат видео: MPEG-4
Видео: MPEG4 Video (H264) 640x360 25.00fps 803Kbps
Аудио: AAC 48000Hz stereo 125Kbps
Формат : MPEG-4
Профиль формата : Base Media
Идентификатор кодека : isom
Размер файла : 191 Мбайт
Продолжительность : 28 м.
Режим общего битрейта : Переменный
Общий поток : 934 Кбит/сек
Программа кодирования : Lavf54.63.104

Видео
Идентификатор : 1
Формат : AVC
Формат/Информация : Advanced Video Codec
Профиль формата : High@L3.2
Параметр CABAC формата : Да
Параметр ReFrames формата : 4 кадра
Идентификатор кодека : avc1
Идентификатор кодека/Информация : Advanced Video Coding
Продолжительность : 28 м.
Битрейт : 803 Кбит/сек
Ширина : 640 пикселей
Высота : 360 пикселей
Соотношение сторон : 16:9
Режим частоты кадров : Постоянный
Частота кадров : 25,000 кадров/сек
Цветовое пространство : YUV
Субдискретизация насыщенности : 4:2:0
Битовая глубина : 8 бит
Тип развёртки : Прогрессивная
Бит/(Пиксели*Кадры) : 0.139
Размер потока : 164 Мбайт (86%)
Библиотека кодирования : x264 core 130 r2274 c832fe9
Настройки программы : cabac=1 / ref=3 / deblock=1:-1:-1 / analyse=0x3:0x133 / me=umh / subme=9 / psy=1 / psy_rd=1.00:0.00 / mixed_ref=1 / me_range=16 / chroma_me=1 / trellis=2 / 8x8dct=1 / cqm=0 / deadzone=21,11 / fast_pskip=1 / chroma_qp_offset=-2 / threads=12 / lookahead_threads=1 / sliced_threads=0 / nr=0 / decimate=1 / interlaced=0 / bluray_compat=0 / constrained_intra=0 / bframes=3 / b_pyramid=2 / b_adapt=2 / b_bias=0 / direct=3 / weightb=1 / open_gop=0 / weightp=2 / keyint=250 / keyint_min=25 / scenecut=40 / intra_refresh=0 / rc_lookahead=60 / rc=crf / mbtree=1 / crf=19.0 / qcomp=0.60 / qpmin=0 / qpmax=69 / qpstep=4 / vbv_maxrate=800 / vbv_bufsize=25000 / crf_max=0.0 / nal_hrd=none / ip_ratio=1.40 / aq=1:1.00
Язык : English

Аудио
Идентификатор : 2
Формат : AAC
Формат/Информация : Advanced Audio Codec
Профиль формата : LC
Идентификатор кодека : 40
Продолжительность : 28 м.
Вид битрейта : Переменный
Битрейт : 125 Кбит/сек
Максимальный битрейт : 800 Кбит/сек
Каналы : 2 канала
Расположение каналов : Front: L R
Частота : 48,0 КГц
Метод сжатия : С потерями
Размер потока : 25,6 Мбайт (13%)
Язык : English


Трекер:  [ 28-Авг-2014 11:00 ]

  

Скачать .torrent

Размер .torrent файла 30 KB


Размер: 191 MB
Хэш (hash) релиза: 4c18813697b813ab246dd3da5287cf60c9490782

Еще никто не оставлял запись к записи скачать торрент [Wetandpissy.com] NEW!!!Busty Gabriela . Будь первым!

!Обратная связь