torrent

, , - AdBlock. #!


7.24 GB   |    :  3    |    .torrent :  37    |   
1  
   
...
 

Galfimbul

avatar Galfimbul


(-2) / (-2) / Fairy Tail (2014)
: 2014
:
: , , ,
: (>26 .), 25 .
:
<ol class="post-ul">
Fratelli & Antravoco
: & Jenia aka Zub | : Advokat
</ol>
: A-1 Pictures Inc. & Bridge
:
:
: . , , . . , , , , , .
:
#1 Fairy Tail [-1] - (175 .), , 2009
#2 Fairy Tail OVA - OVA (6 .), spinoff ( ), 2011
#3 Fairy Tail () - /, , 2012
#4 Fairy Tail [-2] - (>13 .), , 2014
:
: HDTVRip
:
: MP4
:
/ : [Leopard-Raws]
: 1280x720, 23,976fps, H.264, 8 bit, ~1749 kbps
: JAP, AAC LC, 48 KHz, 192 kbps
General
Complete name : D:\\\Fairy Tail\[Leopard-Raws] Fairy Tail (2014) - 001 RAW (TX 1280x720 x264 AAC).mp4
Format : MPEG-4
Format profile : Base Media
Codec ID : isom
File size : 344 MiB
Duration : 24mn 45s
Overall bit rate mode : Variable
Overall bit rate : 1 944 Kbps
Encoded date : UTC 2014-04-05 13:57:11
Tagged date : UTC 2014-04-05 13:57:11

Video
ID : 1
Format : AVC
Format/Info : Advanced Video Codec
Format profile : High@L4.1
Format settings, CABAC : Yes
Format settings, ReFrames : 4 frames
Codec ID : avc1
Codec ID/Info : Advanced Video Coding
Duration : 24mn 44s
Bit rate : 1 749 Kbps
Maximum bit rate : 10.6 Mbps
Width : 1 280 pixels
Height : 720 pixels
Display aspect ratio : 16:9
Frame rate mode : Constant
Frame rate : 23.976 fps
Color space : YUV
Chroma subsampling : 4:2:0
Bit depth : 8 bits
Scan type : Progressive
Bits/(Pixel*Frame) : 0.079
Stream size : 310 MiB (90%)
Title : 264:fps=23.976@GPAC0.5.1-DEV-rev4283
Writing library : x264 core 129 r2245+729M 1a52e03
Encoding settings : cabac=1 / ref=4 / deblock=1:1:-1 / analyse=0x3:0x113 / me=umh / subme=9 / psy=1 / fade_compensate=0.00 / psy_rd=1.00:0.00 / mixed_ref=1 / me_range=24 / chroma_me=1 / trellis=2 / 8x8dct=1 / cqm=0 / deadzone=21,11 / fast_pskip=1 / chroma_qp_offset=-2 / threads=8 / lookahead_threads=1 / sliced_threads=0 / nr=0 / decimate=1 / interlaced=0 / bluray_compat=0 / constrained_intra=0 / fgo=0 / bframes=9 / b_pyramid=2 / b_adapt=2 / b_bias=0 / direct=1 / weightb=1 / open_gop=0 / weightp=2 / keyint=240 / keyint_min=24 / scenecut=40 / intra_refresh=0 / rc=crf / mbtree=0 / crf=19.0 / qcomp=0.72 / qpmin=0 / qpmax=69 / qpstep=4 / ip_ratio=1.40 / pb_ratio=1.30 / aq=1:0.85
Encoded date : UTC 2014-04-05 13:57:11
Tagged date : UTC 2014-04-05 13:57:13
Color primaries : BT.709
Transfer characteristics : BT.709
Matrix coefficients : BT.709

Audio
ID : 2
Format : AAC
Format/Info : Advanced Audio Codec
Format profile : LC
Codec ID : 40
Duration : 24mn 45s
Bit rate mode : Variable
Bit rate : 192 Kbps
Maximum bit rate : 234 Kbps
Channel count : 2 channels
Channel positions : Front: L R
Sampling rate : 48.0 KHz
Compression mode : Lossy
Stream size : 34.0 MiB (10%)
Language : Japanese
Encoded date : UTC 2014-04-05 04:20:18
Tagged date : UTC 2014-04-05 13:57:13


1. !
2.
3. -
4.
5. -
6.
7.
8. ,
9. ,
10.
11.
12.
13.
14.
15.
16.
17.
18.
19.
20. , ,
21.
22.

[23.08.14] 21 . , !


 ·  , , FAQ-
:  [ 26--2014 15:00 ]

  

.torrent

.torrent 41 KB


: 7.24 GB
(hash) : 1f472e1dc9ba6e2671d6f622003ea81b679ab003
:
··
...

,

S L
| HD Rips ··  (-2) / Fairy Tail / / [TV] [90 102] [RUS(ext), JAP, SUB] [ ] [2014, , , , , BDRip] [1080p] Galfimbul 7785413107872.51 GB 0 0 1504013530

16:32

29--17

| HD Rips ··  (-1) / Fairy Tail / / [TV] [175 175] [ ] [RUS(ext), JAP, SUB] [2009, , , , , BDRip] [1080p] Galfimbul 115169158994107.26 GB 3 0 1502832747

00:32

16--17

| HD Rips ··  (-2) / Fairy Tail / / [TV] [1-77 102] [RUS(ext), JAP, SUB] [ ] [2014, , , , , BDRip] [1080p] Galfimbul 6812156030163.44 GB 2 0 1476769063

08:37

18--16

| HD Rips ··  (-2) / Fairy Tail / / [TV] [1-77 102] [RUS(ext), JAP] & [1-51 102] [SUB] [ ] [2014 ., , , , , BDRip] [1080p] Galfimbul 6812049955863.44 GB 1 1 1475894233

05:37

8--16

| HD Rips ··  (-2) / Fairy Tail / / [TV] [1-64 102] [RUS(ext), JAP] & [1-13 102] [SUB] [ ] [2014 ., , , , , BDRip] [1080p] Galfimbul 5800982620654.03 GB 0 0 1474684369

05:32

24--16

| HD Rips ··  (-2) / Fairy Tail / / [TV] [1 102] [ ] [RUS(ext), JAP, SUB] [2014 ., , , , , BDRip] [1080p] Galfimbul 720718699687 MB 0 0 1473294063

03:21

8--16

| HD Rips ··  : - (-1) / Gekijouban Fairy Tail: Houou No Miko / / [Movie+Special] [1+1 1+1] [ ] [RUS(ext), JAP, SUB] [2012 ., , , , , BDRip] [1080p] Galfimbul 1291882402212.03 GB 0 0 1470046922

13:22

1--16

| Rips ··  / Fairy Tail [OVA] [1-7 9] [ ] [RUS(int), JAP, SUB] [2011-2016 ., , , , DVDRip] Galfimbul 30468853002.84 GB 0 0 1468421750

17:55

13--16

| HD Rips ··  [] / / Fairy Tail ( ) [TV] [175 175] [ ] [RUS(ext), JAP+SUB] [2009 ., , , , BDRip] [720p] Galfimbul 151398522450141 GB 0 0 1467493368

00:02

3--16

| HD Rips ··  (-1) / Fairy Tail / / [TV] [175 175] [ ] [RUS(ext), JAP, SUB] [2009 ., , , , , BDRip] [1080p] Galfimbul 114933363672107.04 GB 2 1 1466177895

18:38

17--16

| HD Rips ··  (-1) / Fairy Tail / / [TV] [ ] [1-114 175] [JAP, SUB] & [175 175] [RUS(ext)] [2009 ., , , , , BDRip] [1080p] Galfimbul 114884261615106.99 GB 0 0 1464628108

20:08

30--16

| HD Rips ··  (-1) / Fairy Tail / / [TV] [1-108 175] [ ] [RUS(ext), JAP, SUB] [2009 ., , , , , BDRip] [1080p] Galfimbul 6709359800562.49 GB 0 0 1462995592

22:39

11--16

| HD Rips ··  (-1) / Fairy Tail / / [TV] [1-96 175] [ ] [RUS(ext), JAP, SUB] [2009 ., , , , , BDRip] [1080p] Galfimbul 5946779237755.38 GB 0 0 1462900057

20:07

10--16

| HD Rips ··  (-1) / Fairy Tail / / [TV] [1-60 175] [ ] [RUS(ext), JAP, SUB] [2009 ., , , , , BDRip] [1080p] Galfimbul 3632033491333.83 GB 0 0 1461823340

09:02

28--16

| HD Rips ··  (-1) / Fairy Tail / / [TV] [1-48 175] [ ] [RUS(ext), JAP, SUB] [2009 ., , , , , BDRip] [1080p] Galfimbul 2815908864126.23 GB 0 0 1461762123

16:02

27--16

| HD Rips ··  (-1) / Fairy Tail / / [TV] [1-36 175] [ ] [RUS(ext), JAP, SUB] [2009 ., , , , , BDRip] [1080p] Galfimbul 2042252417019.02 GB 0 0 1461563667

08:54

25--16

| HD Rips ··  (-1) / Fairy Tail / / [TV] [1-24 175] [ ] [RUS(ext), JAP, SUB] [2009 ., , , , , BDRip] [1080p] Galfimbul 1381917477212.87 GB 0 0 1461201959

04:25

21--16

| HD Rips ··  (-1) / Fairy Tail / / [TV] [1-12 175] [ ] [RUS(ext), JAP, SUB] [2009 ., , , , , BDRip] [1080p] Galfimbul 70729265246.59 GB 0 0 1460918867

21:47

17--16

| HD Rips ··  : - (-1) / Gekijouban Fairy Tail: Houou No Miko / / [Movie+Special] [1+1 1+1] [ ] [RUS(ext), JAP, SUB] [2012 ., , , , , BDRip] [1080p] Galfimbul 1292008441412.03 GB 0 0 1460722522

15:15

15--16

| HD Rips ··  (-2) / / Fairy Tail [TV] [101 ] [ ] [JAP+SUB] [2016 ., , , , , HDTVRip] [720p] Galfimbul 451472601431 MB 0 0 1458401052

18:24

19--16

. !

!