Скачать через торрент Концерт Нобунаги Nobunaga Concerto бесплатно Аниме Все серии на русском torrent

Если у вас наблюдаются проблемы со скриншотами, переходом по ссылками, скачиванием торрентов - проблемы в блокировщике рекламы AdBlock. #хорошегоДня!


Статистика раздачи
Размер:  2.24 GB   |    Зарегистрирован:  3 года   |    .torrent скачан:  14 раз   |   
Раздают:  1  
   
Загрузка...
 
Автор Сообщение

Galfimbul

avatar Galfimbul


Концерт Нобунаги / Nobunaga Concerto

Страна: Япония
Год выпуска: 2014 г.
Жанр: история, приключения
Тип: TV
Продолжительность: 12 эп. по 23 мин
Режиссер: Фудзикава Юсукэ
Студия:

Описание: Старшеклассник Сабуро сам того не желая, совершает путешествие во времени и оказывается в эпохе Cэнгоку. Там он знакомится с Одой Нобунагой, одним из самых талантливых японских правителей. В то время Нобунага был ещё подростком, к тому же, как две капли воды похожим на Сабуро. Ода предлагает парню занять его место, так как правителю, была тяжела жизнь в качестве главы рода. Хотя учился Сабуро не важно, житейской сметки ему не занимать и он понимает, что от написанного в учебниках истории лучше не отклоняться. Сумеет ли новый правитель исполнить свою роль и объединить японские земли?

Качество: HDTVRip
Тип релиза: Без хардсаба
Формат видео: MP4
Наличие линковки: Нет
Релиз/Автор рипа: Leopard-Raws
Видео: h264 8 bit, 1280x720, 2 022 Kbps, 23.976 fps
Аудио: aaс, 192 Kbps, 44.1 Hz, 2 ch Язык Японский
Субтитры: ass, внешние
GeneralFormat : MPEG-4Format profile : Base MediaCodec ID : isomFile size : 362 MiBDuration : 22mn 50sOverall bit rate mode : VariableOverall bit rate : 2 217 KbpsEncoded date : UTC 2014-07-12 05:50:53Tagged date : UTC 2014-07-12 05:50:53

VideoID : 1Format : AVCFormat/Info : Advanced Video CodecFormat profile : High@L4.1Format settings, CABAC : YesFormat settings, ReFrames : 4 framesCodec ID : avc1Codec ID/Info : Advanced Video CodingDuration : 22mn 49sBit rate : 2 022 KbpsMaximum bit rate : 14.4 MbpsWidth : 1 280 pixelsHeight : 720 pixelsDisplay aspect ratio : 16:9Frame rate mode : ConstantFrame rate : 23.976 fpsColor space : YUVChroma subsampling : 4:2:0Bit depth : 8 bitsScan type : ProgressiveBits/(Pixel*Frame) : 0.091Stream size : 330 MiB (91%)Title : 264:fps=23.976@GPAC0.5.1-DEV-rev4283Writing library : x264 core 129 r2245+729M 1a52e03Encoding settings : cabac=1 / ref=4 / deblock=1:1:-1 /analyse=0x3:0x113 / me=umh / subme=9 / psy=1 / fade_compensate=0.00 /psy_rd=1.00:0.00 / mixed_ref=1 / me_range=24 / chroma_me=1 / trellis=2 /8x8dct=1 / cqm=0 / deadzone=21,11 / fast_pskip=1 / chroma_qp_offset=-2 /threads=8 / lookahead_threads=1 / sliced_threads=0 / nr=0 / decimate=1 /interlaced=0 / bluray_compat=0 / constrained_intra=0 / fgo=0 / bframes=9 /b_pyramid=2 / b_adapt=2 / b_bias=0 / direct=1 / weightb=1 / open_gop=0 /weightp=2 / keyint=240 / keyint_min=24 / scenecut=40 / intra_refresh=0 /rc=crf / mbtree=0 / crf=18.5 / qcomp=0.72 / qpmin=0 / qpmax=69 / qpstep=4 /ip_ratio=1.40 / pb_ratio=1.30 / aq=1:0.85Encoded date : UTC 2014-07-12 05:50:53Tagged date : UTC 2014-07-12 05:50:59Color primaries : BT.709Transfer characteristics : BT.709Matrix coefficients : BT.709

AudioID : 2Format : AACFormat/Info : Advanced Audio CodecFormat profile : LCCodec ID : 40Duration : 22mn 50sBit rate mode : VariableBit rate : 192 KbpsMaximum bit rate : 223 KbpsChannel(s) : 2 channelsChannel positions : Front: L RSampling rate : 48.0 KHzCompression mode : LossyStream size : 31.4 MiB (9%)Language : JapaneseEncoded date : UTC 2014-07-11 18:34:15Tagged date : UTC 2014-07-12 05:50:59
1. Сабуро Нобунага
2. Канси
3. Гадюка из Мино
4. Битва при Окэхадзаме
5. Love letter
6. Акэти Мицухидэ
7. Ударьте по Нобунаге


Трекер:  [ 26-Авг-2014 15:00 ]

  

Скачать .torrent

Размер .torrent файла 13 KB


Размер: 2.24 GB
Хэш (hash) релиза: 2ba3a0eafaa88a38fa31286cc746b56433499916
Подписка на обновления:

Еще никто не оставлял запись к записи скачать торрент Концерт Нобунаги Nobunaga Concerto . Будь первым!

!Обратная связь