Скачать через торрент музыку Железный рыцарь Ironclad бесплатно без регистрации torrent

Если у вас наблюдаются проблемы со скриншотами, переходом по ссылками, скачиванием торрентов - проблемы в блокировщике рекламы AdBlock. #хорошегоДня!


Статистика раздачи
Размер:  313 MB   |    Зарегистрирован:  6 лет 6 месяцев   |    .torrent скачан:  52 раза   |   
Раздают:  1  
   
Загрузка...
 
Автор Сообщение

Phoenix

avatar Phoenix


Железный рыцарь / Ironclad
Music by Lorne Balfe


Жанр: Score
Год выпуска диска: 2011
Издатель (лейбл): Varese Sarabande
Номер по каталогу: 302 067 069 2
Аудио кодек: FLAC (*.flac)
Тип рипа: tracks+.cue
Битрейт аудио: lossless
Продолжительность: 00:57:34
Источник: WhatCD (nazgul68)

Наличие сканов в содержимом раздачи: да
01. The Magna Carte [04:18]
02. King John Arrives [02:05]
03. God Protect Us [01:58]
04. Mobilizing [01:18]
05. We Claim This Castle [01:29]
06. The Art of Naivety [01:52]
07. The Battle Begins [06:32]
08. Marshal and Isabel [01:40]
09. Dilectio [01:34]
10. Insidiae [03:22]
11. Hunger Sets In [02:33]
12. Desparatus [02:55]
13. Ciminatio [09:17]
14. No Salvation [01:42]
15. Concursus [03:34]
16. The Final Battle [06:54]
17. Final Resolution [01:46]
18. Corvus Cantus [02:39]
 
Exact Audio Copy V0.99 prebeta 5 from 4. May 2009

EAC extraction logfile from 14. March 2011, 19:33

Lorne Balfe / Ironclad

Used drive : Optiarc DVD RW AD-7241S Adapter: 1 ID: 0

Read mode : SecureUtilize accurate stream : YesDefeat audio cache : YesMake use of C2 pointers : No

Read offset correction : 48Overread into Lead-In and Lead-Out : NoFill up missing offset samples with silence : YesDelete leading and trailing silent blocks : NoNull samples used in CRC calculations : YesUsed interface : Native Win32 interface for Win NT & 2000Gap handling : Appended to previous track

Used output format : User Defined EncoderSelected bitrate : 128 kBit/sQuality : HighAdd ID3 tag : NoCommand line compressor : C:\Program Files (x86)\Exact Audio Copy\Flac\flac.exeAdditional command line options : -8 -V -T "artist=%a" -T "title=%t" -T "album=%g" -T "date=%y" -T "tracknumber=%n" -T "genre=%m" %s

TOC of the extracted CD

Track | Start | Length | Start sector | End sector --------------------------------------------------------- 1 | 0:01.00 | 4:18.05 | 75 | 19429 2 | 4:19.05 | 2:05.27 | 19430 | 28831 3 | 6:24.32 | 1:58.06 | 28832 | 37687 4 | 8:22.38 | 1:18.26 | 37688 | 43563 5 | 9:40.64 | 1:29.09 | 43564 | 50247 6 | 11:09.73 | 1:52.31 | 50248 | 58678 7 | 13:02.29 | 6:32.50 | 58679 | 88128 8 | 19:35.04 | 1:40.64 | 88129 | 95692 9 | 21:15.68 | 1:34.22 | 95693 | 102764 10 | 22:50.15 | 3:22.12 | 102765 | 117926 11 | 26:12.27 | 2:33.02 | 117927 | 129403 12 | 28:45.29 | 2:55.48 | 129404 | 142576 13 | 31:41.02 | 9:17.11 | 142577 | 184362 14 | 40:58.13 | 1:42.35 | 184363 | 192047 15 | 42:40.48 | 3:34.35 | 192048 | 208132 16 | 46:15.08 | 6:54.59 | 208133 | 239241 17 | 53:09.67 | 1:46.44 | 239242 | 247235 18 | 54:56.36 | 2:39.38 | 247236 | 259198

Track 1

Filename C:\Users\chris\Desktop\Rips\01 - The Magna Carte.wav

Pre-gap length 0:00:03.00

Peak level 100.0 % Track quality 100.0 % Test CRC DD81BB10 Copy CRC DD81BB10 Track not present in AccurateRip database Copy OK

Track 2

Filename C:\Users\chris\Desktop\Rips\02 - King John Arrives.wav

Pre-gap length 0:00:01.00

Peak level 94.4 % Track quality 100.0 % Test CRC FD0765B4 Copy CRC FD0765B4 Track not present in AccurateRip database Copy OK

Track 3

Filename C:\Users\chris\Desktop\Rips\03 - God Protect Us.wav

Pre-gap length 0:00:01.00

Peak level 100.0 % Track quality 100.0 % Test CRC 5EC55E49 Copy CRC 5EC55E49 Track not present in AccurateRip database Copy OK

Track 4

Filename C:\Users\chris\Desktop\Rips\04 - Mobilizing.wav

Pre-gap length 0:00:01.00

Peak level 95.9 % Track quality 99.8 % Test CRC ECB3E4E4 Copy CRC ECB3E4E4 Track not present in AccurateRip database Copy OK

Track 5

Filename C:\Users\chris\Desktop\Rips\05 - We Claim This Castle.wav

Pre-gap length 0:00:01.34

Peak level 99.2 % Track quality 100.0 % Test CRC 44A1ADCB Copy CRC 44A1ADCB Track not present in AccurateRip database Copy OK

Track 6

Filename C:\Users\chris\Desktop\Rips\06 - The Art of Naivety.wav

Pre-gap length 0:00:02.34

Peak level 100.0 % Track quality 100.0 % Test CRC 2B608355 Copy CRC 2B608355 Track not present in AccurateRip database Copy OK

Track 7

Filename C:\Users\chris\Desktop\Rips\07 - The Battle Begins.wav

Pre-gap length 0:00:01.00

Peak level 100.0 % Track quality 100.0 % Test CRC 7E2302D9 Copy CRC 7E2302D9 Track not present in AccurateRip database Copy OK

Track 8

Filename C:\Users\chris\Desktop\Rips\08 - Marshal and Isabel.wav

Pre-gap length 0:00:02.00

Peak level 30.4 % Track quality 100.0 % Test CRC 88FD0CA7 Copy CRC 88FD0CA7 Track not present in AccurateRip database Copy OK

Track 9

Filename C:\Users\chris\Desktop\Rips\09 - Dilectio.wav

Pre-gap length 0:00:01.00

Peak level 55.9 % Track quality 99.8 % Test CRC DA27B264 Copy CRC DA27B264 Track not present in AccurateRip database Copy OK

Track 10

Filename C:\Users\chris\Desktop\Rips\10 - Insidiae.wav

Pre-gap length 0:00:01.00

Peak level 100.0 % Track quality 100.0 % Test CRC AAA47F77 Copy CRC AAA47F77 Track not present in AccurateRip database Copy OK

Track 11

Filename C:\Users\chris\Desktop\Rips\11 - Hunger Sets In.wav

Pre-gap length 0:00:01.34

Peak level 92.7 % Track quality 100.0 % Test CRC A3A1FE5F Copy CRC A3A1FE5F Track not present in AccurateRip database Copy OK

Track 12

Filename C:\Users\chris\Desktop\Rips\12 - Desparatus.wav

Pre-gap length 0:00:01.00

Peak level 100.0 % Track quality 99.9 % Test CRC B6923EF0 Copy CRC B6923EF0 Track not present in AccurateRip database Copy OK

Track 13

Filename C:\Users\chris\Desktop\Rips\13 - Ciminatio.wav

Pre-gap length 0:00:01.34

Peak level 99.7 % Track quality 100.0 % Test CRC 214C77D5 Copy CRC 214C77D5 Track not present in AccurateRip database Copy OK

Track 14

Filename C:\Users\chris\Desktop\Rips\14 - No Salvation.wav

Pre-gap length 0:00:01.20

Peak level 95.3 % Track quality 100.0 % Test CRC 45CB1461 Copy CRC 45CB1461 Track not present in AccurateRip database Copy OK

Track 15

Filename C:\Users\chris\Desktop\Rips\15 - Concursus.wav

Pre-gap length 0:00:01.34

Peak level 95.4 % Track quality 100.0 % Test CRC C5723B22 Copy CRC C5723B22 Track not present in AccurateRip database Copy OK

Track 16

Filename C:\Users\chris\Desktop\Rips\16 - The Final Battle.wav

Pre-gap length 0:00:01.00

Peak level 100.0 % Track quality 100.0 % Test CRC 6E569440 Copy CRC 6E569440 Track not present in AccurateRip database Copy OK

Track 17

Filename C:\Users\chris\Desktop\Rips\17 - Final Resolution.wav

Pre-gap length 0:00:01.00

Peak level 94.4 % Track quality 99.9 % Test CRC 1E3FA44F Copy CRC 1E3FA44F Track not present in AccurateRip database Copy OK

Track 18

Filename C:\Users\chris\Desktop\Rips\18 - Corvus Cantus.wav

Pre-gap length 0:00:01.00

Peak level 94.4 % Track quality 100.0 % Test CRC 7E603047 Copy CRC 7E603047 Track not present in AccurateRip database Copy OK

None of the tracks are present in the AccurateRip database

No errors occurred

End of status report
 
REM GENRE SoundtrackREM DATE 2011REM DISCID 0A0D7E12REM COMMENT "ExactAudioCopy v0.99pb5"PERFORMER "Lorne Balfe"TITLE "Ironclad"FILE "01 - The Magna Carte.wav" WAVE TRACK 01 AUDIO TITLE "The Magna Carte" PERFORMER "Lorne Balfe" PREGAP 00:01:00 INDEX 01 00:00:00 TRACK 02 AUDIO TITLE "King John Arrives" PERFORMER "Lorne Balfe" INDEX 00 04:17:05FILE "02 - King John Arrives.wav" WAVE INDEX 01 00:00:00 TRACK 03 AUDIO TITLE "God Protect Us" PERFORMER "Lorne Balfe" INDEX 00 02:04:27FILE "03 - God Protect Us.wav" WAVE INDEX 01 00:00:00 TRACK 04 AUDIO TITLE "Mobilizing" PERFORMER "Lorne Balfe" INDEX 00 01:57:06FILE "04 - Mobilizing.wav" WAVE INDEX 01 00:00:00 TRACK 05 AUDIO TITLE "We Claim This Castle" PERFORMER "Lorne Balfe" INDEX 00 01:16:67FILE "05 - We Claim This Castle.wav" WAVE INDEX 01 00:00:00 TRACK 06 AUDIO TITLE "The Art of Naivety" PERFORMER "Lorne Balfe" INDEX 00 01:26:50FILE "06 - The Art of Naivety.wav" WAVE INDEX 01 00:00:00 TRACK 07 AUDIO TITLE "The Battle Begins" PERFORMER "Lorne Balfe" INDEX 00 01:51:31FILE "07 - The Battle Begins.wav" WAVE INDEX 01 00:00:00 TRACK 08 AUDIO TITLE "Marshal and Isabel" PERFORMER "Lorne Balfe" INDEX 00 06:30:50FILE "08 - Marshal and Isabel.wav" WAVE INDEX 01 00:00:00 TRACK 09 AUDIO TITLE "Dilectio" PERFORMER "Lorne Balfe" INDEX 00 01:39:64FILE "09 - Dilectio.wav" WAVE INDEX 01 00:00:00 TRACK 10 AUDIO TITLE "Insidiae" PERFORMER "Lorne Balfe" INDEX 00 01:33:22FILE "10 - Insidiae.wav" WAVE INDEX 01 00:00:00 TRACK 11 AUDIO TITLE "Hunger Sets In" PERFORMER "Lorne Balfe" INDEX 00 03:20:53FILE "11 - Hunger Sets In.wav" WAVE INDEX 01 00:00:00 TRACK 12 AUDIO TITLE "Desparatus" PERFORMER "Lorne Balfe" INDEX 00 02:32:02FILE "12 - Desparatus.wav" WAVE INDEX 01 00:00:00 TRACK 13 AUDIO TITLE "Ciminatio" PERFORMER "Lorne Balfe" INDEX 00 02:54:14FILE "13 - Ciminatio.wav" WAVE INDEX 01 00:00:00 TRACK 14 AUDIO TITLE "No Salvation" PERFORMER "Lorne Balfe" INDEX 00 09:15:66FILE "14 - No Salvation.wav" WAVE INDEX 01 00:00:00 TRACK 15 AUDIO TITLE "Concursus" PERFORMER "Lorne Balfe" INDEX 00 01:41:01FILE "15 - Concursus.wav" WAVE INDEX 01 00:00:00 TRACK 16 AUDIO TITLE "The Final Battle" PERFORMER "Lorne Balfe" INDEX 00 03:33:35FILE "16 - The Final Battle.wav" WAVE INDEX 01 00:00:00 TRACK 17 AUDIO TITLE "Final Resolution" PERFORMER "Lorne Balfe" INDEX 00 06:53:59FILE "17 - Final Resolution.wav" WAVE INDEX 01 00:00:00 TRACK 18 AUDIO TITLE "Corvus Cantus" PERFORMER "Lorne Balfe" INDEX 00 01:45:44FILE "18 - Corvus Cantus.wav" WAVE INDEX 01 00:00:00



Трекер:  [ 17-Мар-2011 02:08 ]

  

Скачать .torrent

Размер .torrent файла 50 KB


Размер: 313 MB
Хэш (hash) релиза: f85f19ca55b4067a7a853422f8973a1d878aae1f

Торренты, похожие на Железный рыцарь Ironclad скачать торрент

Форум Название Автор Размер S L Добавлен
Саундтреки к фильмам и мультфильмам (mp3) ·· (Score) Железный рыцарь / Ironclad (by Lorne Balfe) - 2011, MP3, 320 kbps Phoenix 138289986132 MB 0 0 1300227785

01:23

16-Мар-11

Еще никто не оставлял запись к записи скачать торрент Железный рыцарь Ironclad . Будь первым!

!Обратная связь