Скачать через торрент музыку Ornette Coleman Quintet бесплатно без регистрации torrent

Если у вас наблюдаются проблемы со скриншотами, переходом по ссылками, скачиванием торрентов - проблемы в блокировщике рекламы AdBlock. #хорошегоДня!


Статистика раздачи
Размер:  244 MB   |    Зарегистрирован:  6 лет 7 месяцев   |    .torrent скачан:  43 раза   |   
Раздают:  1  
   
Загрузка...
 
Автор Сообщение

L


Ornette Coleman Quintet
Complete Live at the Hillcrest Club
Жанр: Post Bop, Free Jazz
Год издания диска: 2007 (1958)
Издатель (лейбл): Gambit
Номер по каталогу: 69272
Страна: США
Аудио кодек: FLAC (*.flac)
Тип рипа: tracks+.cue
Битрейт аудио: lossless
Продолжительность: 1:06:23
Источник (релизер): вот.сиди (almondrec)
Наличие сканов в содержимом раздачи: нет

Состав
Ornette Coleman alto saxophone,
Don Cherry trumpet,
Paul Bley piano,
Charlie Haden bass,
Billy Higgins drums.

Треклист:
1. Klactoveesedstene
2. I Remember Harlem
3. The Blessing
4. Free
5. When Will The Blues Leave?
6. How Deep Is The Ocean?
7. Ramblin'
8. Crossroads

Recorded live at the Hillcrest Club, Los Angeles, October 1958.
Exact Audio Copy V0.99 prebeta 5 from 4. May 2009

EAC extraction logfile from 11. January 2011, 18:37

Ornette Coleman / Complete Live at the Hillcrest Club

Used drive : HL-DT-STDVDRAM GT20F Adapter: 0 ID: 1

Read mode : Secure
Utilize accurate stream : Yes
Defeat audio cache : Yes
Make use of C2 pointers : No

Read offset correction : 667
Overread into Lead-In and Lead-Out : No
Fill up missing offset samples with silence : Yes
Delete leading and trailing silent blocks : No
Null samples used in CRC calculations : No
Used interface : Native Win32 interface for Win NT & 2000
Gap handling : Appended to previous track

Used output format : User Defined Encoder
Selected bitrate : 320 kBit/s
Quality : High
Add ID3 tag : No
Command line compressor : C:\Program Files (x86)\Exact Audio Copy\FLAC\FLAC.EXE
Additional command line options : -V -8 -T "artist=%a" -T "title=%t" -T "album=%g" -T "date=%y" -T "tracknumber=%n" -T "genre=%m" %s

TOC of the extracted CD

Track | Start | Length | Start sector | End sector
---------------------------------------------------------
1 | 0:00.00 | 12:07.03 | 0 | 54527
2 | 12:07.03 | 3:52.34 | 54528 | 71961
3 | 15:59.37 | 9:38.11 | 71962 | 115322
4 | 25:37.48 | 5:39.23 | 115323 | 140770
5 | 31:16.71 | 14:29.12 | 140771 | 205957
6 | 45:46.08 | 4:35.39 | 205958 | 226621
7 | 50:21.47 | 14:06.37 | 226622 | 290108
8 | 64:28.09 | 1:54.73 | 290109 | 298731

Track 1

Filename C:\EACrips\Ornette Coleman - 2007 - Complete Live at the Hillcrest Club\01 - Track01.wav

Pre-gap length 0:00:02.00

Peak level 45.0 %
Track quality 100.0 %
Test CRC 492A6563
Copy CRC 492A6563
Accurately ripped (confidence 4) [6DB90D42]
Copy OK

Track 2

Filename C:\EACrips\Ornette Coleman - 2007 - Complete Live at the Hillcrest Club\02 - Track02.wav

Peak level 76.4 %
Track quality 99.9 %
Test CRC F82DAA23
Copy CRC F82DAA23
Accurately ripped (confidence 4) [6239943E]
Copy OK

Track 3

Filename C:\EACrips\Ornette Coleman - 2007 - Complete Live at the Hillcrest Club\03 - Track03.wav

Peak level 65.5 %
Track quality 99.9 %
Test CRC BC3B0BD9
Copy CRC BC3B0BD9
Accurately ripped (confidence 4) [9C56B9BD]
Copy OK

Track 4

Filename C:\EACrips\Ornette Coleman - 2007 - Complete Live at the Hillcrest Club\04 - Track04.wav

Peak level 52.6 %
Track quality 100.0 %
Test CRC C45F1C12
Copy CRC C45F1C12
Accurately ripped (confidence 4) [EA695F3C]
Copy OK

Track 5

Filename C:\EACrips\Ornette Coleman - 2007 - Complete Live at the Hillcrest Club\05 - Track05.wav

Peak level 100.0 %
Track quality 100.0 %
Test CRC 7C31AD50
Copy CRC 7C31AD50
Accurately ripped (confidence 3) [DA7C7F8F]
Copy OK

Track 6

Filename C:\EACrips\Ornette Coleman - 2007 - Complete Live at the Hillcrest Club\06 - Track06.wav

Peak level 93.7 %
Track quality 100.0 %
Test CRC EF0F0A76
Copy CRC EF0F0A76
Accurately ripped (confidence 3) [42CA34D1]
Copy OK

Track 7

Filename C:\EACrips\Ornette Coleman - 2007 - Complete Live at the Hillcrest Club\07 - Track07.wav

Peak level 99.6 %
Track quality 100.0 %
Test CRC 2F3CB369
Copy CRC 2F3CB369
Accurately ripped (confidence 3) [6F151B7B]
Copy OK

Track 8

Filename C:\EACrips\Ornette Coleman - 2007 - Complete Live at the Hillcrest Club\08 - Track08.wav

Peak level 94.2 %
Track quality 100.0 %
Test CRC 6B263C8B
Copy CRC 6B263C8B
Accurately ripped (confidence 4) [206A2C2B]
Copy OK

All tracks accurately ripped

No errors occurred

End of status report
REM GENRE jazz
REM DATE 2007
REM DISCID 7D0F8F08
REM COMMENT "ExactAudioCopy v1.0b1"
FILE "Ornette Coleman - 2007 - Complete Live At The Hillcrest Club\01 - Track01.wav" WAVE
TRACK 01 AUDIO
INDEX 01 00:00:00
FILE "Ornette Coleman - 2007 - Complete Live At The Hillcrest Club\02 - Track02.wav" WAVE
TRACK 02 AUDIO
INDEX 01 00:00:00
FILE "Ornette Coleman - 2007 - Complete Live At The Hillcrest Club\03 - Track03.wav" WAVE
TRACK 03 AUDIO
INDEX 01 00:00:00
FILE "Ornette Coleman - 2007 - Complete Live At The Hillcrest Club\04 - Track04.wav" WAVE
TRACK 04 AUDIO
INDEX 01 00:00:00
FILE "Ornette Coleman - 2007 - Complete Live At The Hillcrest Club\05 - Track05.wav" WAVE
TRACK 05 AUDIO
INDEX 01 00:00:00
FILE "Ornette Coleman - 2007 - Complete Live At The Hillcrest Club\06 - Track06.wav" WAVE
TRACK 06 AUDIO
INDEX 01 00:00:00
FILE "Ornette Coleman - 2007 - Complete Live At The Hillcrest Club\07 - Track07.wav" WAVE
TRACK 07 AUDIO
INDEX 01 00:00:00
FILE "Ornette Coleman - 2007 - Complete Live At The Hillcrest Club\08 - Track08.wav" WAVE
TRACK 08 AUDIO
INDEX 01 00:00:00
AUDIOCHECKER v2.0 beta (build 457) - by Dester - opdester@freemail.hu
~~~~~~~~~~~~~~~~~~~~~~~~~~~~~~~~~~
-=== DO NOT EDIT THIS FILE! ===-

Path: ...\Ornette Coleman - 2007 - Complete Live at the Hillcrest Club

1 -=- 01 - Klactoveesedstene.flac -=- CDDA (100%)
2 -=- 02 - I Remember Harlem.flac -=- CDDA (100%)
3 -=- 03 - The Blessing.flac -=- CDDA (100%)
4 -=- 04 - Free.flac -=- CDDA (100%)
5 -=- 05 - When Will The Blues Leave.flac -=- CDDA (100%)
6 -=- 06 - How Deep Is The Ocean.flac -=- CDDA (99%)
7 -=- 07 - Ramblin'.flac -=- CDDA (99%)
8 -=- 08 - Crossroads.flac -=- CDDA (99%)

Summary 99,63% CDDA

41326420


Трекер:  [ 09-Мар-2011 12:39 ]

  

Скачать .torrent

Размер .torrent файла 20 KB


Размер: 244 MB
Хэш (hash) релиза: d9f57f9ecb4eb45ef64c9dd2192eccde249f0807

Еще никто не оставлял запись к записи скачать торрент Ornette Coleman Quintet . Будь первым!

!Обратная связь