Скачать через торрент музыку Ornette Coleman бесплатно без регистрации torrent

Если у вас наблюдаются проблемы со скриншотами, переходом по ссылками, скачиванием торрентов - проблемы в блокировщике рекламы AdBlock. #хорошегоДня!


Статистика раздачи
Размер:  413 MB   |    Зарегистрирован:  6 лет 7 месяцев   |    .torrent скачан:  56 раз   |   
Раздают:  1  
   
Загрузка...
 
Автор Сообщение

L


Ornette Coleman / The Paris Concerts
1965-1966
Жанр: Free Jazz
Год издания диска: 2007
Издатель (лейбл): Gambit
Номер по каталогу: 69279
Страна: США
Аудио кодек: FLAC (*.flac)
Тип рипа: tracks+.cue
Битрейт аудио: lossless
Продолжительность: 1:11:51
Источник (релизер): вот.сиди
Наличие сканов в содержимом раздачи: нет

Состав
Ornette Coleman alto saxophone
David Izenzon bass
Charles Moffett drums

Треклист:
1 Sadness
2 Lonely Woman
3 Falling Stars
4 Clergyman´s Dream
5 Reminiscence (Originally Untitled Tune)
6 Doughnut (First Issued As "All Day Affair")
7 14 Juillet (Originally Untitled Tune)

1-4 Salle de la Mutualité, Paris France, November 4, 1965
5-7 Radio Broadcast from Paris, France, February 12, 1966
X Lossless Decoder version 20090320 (105.1)

XLD extraction logfile from 2009-07-03 21:04:26 +0100

Ornette Coleman / The Paris Concerts 1965-1966

Used drive : MATSHITA DVD-R UJ-867 (revision HB01)

Use cdparanoia mode : YES (CDParanoia III 10.2 engine)
Disable audio cache : OK for the drive with cache less than 2750KB
Make use of C2 pointers : NO
Read offset correction : 102
Max retry count : 100

TOC of the extracted CD
Track | Start | Length | Start sector | End sector
---------------------------------------------------------
1 | 00:00:00 | 03:19:07 | 0 | 14931
2 | 03:19:07 | 11:42:04 | 14932 | 67585
3 | 15:01:11 | 14:39:27 | 67586 | 133537
4 | 29:40:38 | 12:16:37 | 133538 | 188774
5 | 41:57:00 | 07:47:00 | 188775 | 223799
6 | 49:44:00 | 15:23:00 | 223800 | 293024
7 | 65:07:00 | 06:44:00 | 293025 | 323324

Track 01
Filename : /Users/thomas/Desktop/Ornette Coleman - The Paris Concerts 1965-1966/01 Ornette Coleman - Sadness.flac

CRC32 hash (test run) : 35751B3B
CRC32 hash : 35751B3B
CRC32 hash (skip zero) : 5A9D3460
AccurateRip signature : 4F99227C
->Track not present in AccurateRip database.
Statistics
Read error : 0
Skipped (treated as error) : 0
Edge jitter error (maybe fixed) : 0
Atom jitter error (maybe fixed) : 0
Drift error (maybe fixed) : 0
Dropped bytes error (maybe fixed) : 0
Duplicated bytes error (maybe fixed) : 0
Inconsistency in error sectors : 0

Track 02
Filename : /Users/thomas/Desktop/Ornette Coleman - The Paris Concerts 1965-1966/02 Ornette Coleman - Lonely Woman.flac

CRC32 hash (test run) : E6E282D5
CRC32 hash : E6E282D5
CRC32 hash (skip zero) : F6A88F1A
AccurateRip signature : 3E62E6D1
->Track not present in AccurateRip database.
Statistics
Read error : 0
Skipped (treated as error) : 0
Edge jitter error (maybe fixed) : 0
Atom jitter error (maybe fixed) : 0
Drift error (maybe fixed) : 0
Dropped bytes error (maybe fixed) : 0
Duplicated bytes error (maybe fixed) : 0
Inconsistency in error sectors : 0

Track 03
Filename : /Users/thomas/Desktop/Ornette Coleman - The Paris Concerts 1965-1966/03 Ornette Coleman - Falling Stars.flac

CRC32 hash (test run) : 0E186A77
CRC32 hash : 0E186A77
CRC32 hash (skip zero) : 0509D91C
AccurateRip signature : 48B63BF9
->Track not present in AccurateRip database.
Statistics
Read error : 0
Skipped (treated as error) : 0
Edge jitter error (maybe fixed) : 0
Atom jitter error (maybe fixed) : 0
Drift error (maybe fixed) : 0
Dropped bytes error (maybe fixed) : 0
Duplicated bytes error (maybe fixed) : 0
Inconsistency in error sectors : 0

Track 04
Filename : /Users/thomas/Desktop/Ornette Coleman - The Paris Concerts 1965-1966/04 Ornette Coleman - Clergyman's Dream.flac

CRC32 hash (test run) : B0AA1E18
CRC32 hash : B0AA1E18
CRC32 hash (skip zero) : A126B714
AccurateRip signature : 9DBB6F20
->Track not present in AccurateRip database.
Statistics
Read error : 0
Skipped (treated as error) : 0
Edge jitter error (maybe fixed) : 0
Atom jitter error (maybe fixed) : 0
Drift error (maybe fixed) : 0
Dropped bytes error (maybe fixed) : 0
Duplicated bytes error (maybe fixed) : 0
Inconsistency in error sectors : 0

Track 05
Filename : /Users/thomas/Desktop/Ornette Coleman - The Paris Concerts 1965-1966/05 Ornette Coleman - Reminiscence (originally untitled tune).flac

CRC32 hash (test run) : 048504D4
CRC32 hash : 048504D4
CRC32 hash (skip zero) : 6ABE4AEA
AccurateRip signature : FD4E014E
->Track not present in AccurateRip database.
Statistics
Read error : 0
Skipped (treated as error) : 0
Edge jitter error (maybe fixed) : 0
Atom jitter error (maybe fixed) : 0
Drift error (maybe fixed) : 0
Dropped bytes error (maybe fixed) : 0
Duplicated bytes error (maybe fixed) : 0
Inconsistency in error sectors : 0

Track 06
Filename : /Users/thomas/Desktop/Ornette Coleman - The Paris Concerts 1965-1966/06 Ornette Coleman - Doughnut (first issued as "All Day Affair").flac

CRC32 hash (test run) : 8F043FA4
CRC32 hash : 8F043FA4
CRC32 hash (skip zero) : 9CCD1905
AccurateRip signature : 68508046
->Track not present in AccurateRip database.
Statistics
Read error : 0
Skipped (treated as error) : 0
Edge jitter error (maybe fixed) : 0
Atom jitter error (maybe fixed) : 0
Drift error (maybe fixed) : 0
Dropped bytes error (maybe fixed) : 0
Duplicated bytes error (maybe fixed) : 0
Inconsistency in error sectors : 0

Track 07
Filename : /Users/thomas/Desktop/Ornette Coleman - The Paris Concerts 1965-1966/07 Ornette Coleman - 14 Juillet (originally untitled tune).flac

CRC32 hash (test run) : F79125D9
CRC32 hash : F79125D9
CRC32 hash (skip zero) : C0AF141F
AccurateRip signature : E02579C3
->Track not present in AccurateRip database.
Statistics
Read error : 0
Skipped (treated as error) : 0
Edge jitter error (maybe fixed) : 0
Atom jitter error (maybe fixed) : 0
Drift error (maybe fixed) : 0
Dropped bytes error (maybe fixed) : 0
Duplicated bytes error (maybe fixed) : 0
Inconsistency in error sectors : 0

No errors occurred

End of status report
TITLE "The Paris Concerts 1965-1966"
PERFORMER "Ornette Coleman"
REM GENRE "Jazz"
REM DATE 1965
FILE "01 Ornette Coleman - Sadness.wav" WAVE
TRACK 01 AUDIO
TITLE "Sadness"
INDEX 01 00:00:00
FILE "02 Ornette Coleman - Lonely Woman.wav" WAVE
TRACK 02 AUDIO
TITLE "Lonely Woman"
INDEX 01 00:00:00
FILE "03 Ornette Coleman - Falling Stars.wav" WAVE
TRACK 03 AUDIO
TITLE "Falling Stars"
INDEX 01 00:00:00
FILE "04 Ornette Coleman - Clergyman's Dream.wav" WAVE
TRACK 04 AUDIO
TITLE "Clergyman's Dream"
INDEX 01 00:00:00
TRACK 05 AUDIO
TITLE "Reminiscence (originally untitled tune)"
INDEX 00 12:13:37
FILE "05 Ornette Coleman - Reminiscence (originally untitled tune).wav" WAVE
INDEX 01 00:00:00
TRACK 06 AUDIO
TITLE "Doughnut (first issued as "All Day Affair")"
INDEX 00 07:44:00
FILE "06 Ornette Coleman - Doughnut (first issued as "All Day Affair").wav" WAVE
INDEX 01 00:00:00
TRACK 07 AUDIO
TITLE "14 Juillet (originally untitled tune)"
INDEX 00 15:20:00
FILE "07 Ornette Coleman - 14 Juillet (originally untitled tune).wav" WAVE
INDEX 01 00:00:00
AUDIOCHECKER v2.0 beta (build 457) - by Dester - opdester@freemail.hu
~~~~~~~~~~~~~~~~~~~~~~~~~~~~~~~~~~
-=== DO NOT EDIT THIS FILE! ===-

Path: ...\Ornette Coleman - 1965, 66 - The Paris Concerts (log, cue)

1 -=- 01 Sadness.flac -=- CDDA (100%)
2 -=- 02 Lonely Woman.flac -=- CDDA (100%)
3 -=- 03 Falling Stars.flac -=- CDDA (100%)
4 -=- 04 Clergyman's Dream.flac -=- CDDA (99%)
5 -=- 05 Reminiscence (originally untitled tune).flac -=- CDDA (100%)
6 -=- 06 Doughnut (first issued as All Day Affair).flac -=- CDDA (100%)
7 -=- 07 14 Juillet (originally untitled tune).flac -=- CDDA (100%)

Summary 99,86% CDDA

92004612
запись ужасна
музыка прекрасна


Трекер:  [ 09-Мар-2011 12:31 ]

  

Скачать .torrent

Размер .torrent файла 17 KB


Размер: 413 MB
Хэш (hash) релиза: fd0013bee626b63a4f98e5dbe1042ab3d0cdda24

Торренты, похожие на Ornette Coleman скачать торрент

Форум Название Автор Размер S L Добавлен
Саундтреки ·· (Score) Обед нагишом / Naked Lunch (by Howard Shore, Ornette Coleman) - 2005 (1991), FLAC (tracks+.cue), lossless Umakiro 343263662327 MB 0 0 1332246540

15:29

20-Мар-12

Jazz, Blues (lossless) ·· (Post Bop, Free Jazz) Ornette Coleman Quintet (Don Cherry, Paul Bley, Charlie Haden, Billy Higgins) - Complete Live at the Hillcrest Club - 2007 (1958), FLAC (tracks+.cue) lossless L 256356113244 MB 0 0 1299663550

12:39

9-Мар-11

Еще никто не оставлял запись к записи скачать торрент Ornette Coleman . Будь первым!

!Обратная связь