Скачать через торрент музыку OneFloorDown - Unraveled - 2011, FLAC бесплатно без регистрации torrent

Если у вас наблюдаются проблемы со скриншотами, переходом по ссылками, скачиванием торрентов - проблемы в блокировщике рекламы AdBlock. #хорошегоДня!


Статистика раздачи
Размер:  511 MB   |    Зарегистрирован:  6 лет 7 месяцев   |    .torrent скачан:  83 раза   |   
Раздают:  1  
   
Загрузка...
 
Автор Сообщение

L


OneFloorDown
Unraveled
Жанр: Nu Jazz, Smoth Jazz, Jazz Funk Lounge
Страна-производитель диска: USA
Год издания диска: 2011
Издатель (лейбл): OFDProductions & Sound Designs
Аудио кодек: FLAC (*.flac)
Тип рипа: image+.cue
Битрейт аудио: lossless
Продолжительность: 1:03'37
Источник (релизер): ©СЁРФ-Маrаtones aka izia1956
Наличие сканов в содержимом раздачи: да

Трэклист
01. Unraveled Side (Live) (5:23)
02. KOKOmotion (3:56)
03. Bali Dreams (4:50)
04. Jilly Juliet (4:04)
05. Look At the Moon (4:00)
06. Silla Chill (4:57)
07. FastBreak (4:28)
08. Wakin' Up To You (6:52)
09. JAMbalaya (4:06)
10. Breathless Expectations (6:17)
11. RatRace (4:15)
12. Counting Kisses (4:53)
13. She Smiles (Live) (5:36)
Exact Audio Copy V0.99 prebeta 4 from 23. January 2008

Отчёт EAC об извлечении, выполненном 25. февраля 2011, 1:15

OneFloorDown / Unraveled

Дисковод: PLEXTOR DVDR PX-880SA Adapter: 1 ID: 1

Режим чтения : Достоверность
Использование точного потока : Да
Отключение кэша аудио : Да
Использование указателей C2 : Нет

Коррекция смещения при чтении : 6
Способность читать области Lead-in и Lead-out : Нет
Заполнение пропущенных сэмплов тишиной : Да
Удаление блоков с тишиной в начале и конце : Нет
При вычислениях CRC использовались нулевые сэмплы : Да
Интерфейс : Установленный внешний ASPI-интерфейс

Выходной формат : Пользовательский кодировщик
Выбранный битрейт : 1024 kBit/s
Качество : Высокий
Добавление ID3-тэга : Нет
Утилита сжатия : C:\Program Files\Exact Audio Copy\FLAC\FLAC.EXE
Дополнительные параметры : -5 -V -T "ARTIST=%a" -T "TITLE=%t" -T "ALBUM=%g" -T "DATE=%y" -T "TRACKNUMBER=%n" -T "GENRE=%m" -T "COMMENT=%e" %s -o %d

TOC извлечённого CD

Трек | Старт | Длительность | Начальный сектор | Конечный сектор
---------------------------------------------------------------------
1 | 0:00.00 | 5:22.42 | 0 | 24191
2 | 5:22.42 | 3:55.47 | 24192 | 41863
3 | 9:18.14 | 4:50.06 | 41864 | 63619
4 | 14:08.20 | 4:03.63 | 63620 | 81907
5 | 18:12.08 | 4:00.12 | 81908 | 99919
6 | 22:12.20 | 4:56.42 | 99920 | 122161
7 | 27:08.62 | 4:28.33 | 122162 | 142294
8 | 31:37.20 | 6:52.00 | 142295 | 173194
9 | 38:29.20 | 4:06.15 | 173195 | 191659
10 | 42:35.35 | 6:17.24 | 191660 | 219958
11 | 48:52.59 | 4:15.32 | 219959 | 239115
12 | 53:08.16 | 4:53.25 | 239116 | 261115
13 | 58:01.41 | 5:36.07 | 261116 | 286322

Характеристики диапазона извлечения и сообщения об ошибках

Выбранный диапазон

Имя файла I:\BitComet\OneFloorDown-Unraveled(2011)(flac)\OneFloorDown - Unraveled.wav

Пиковый уровень 100.0 %
Качество диапазона 100.0 %
CRC теста 2B32BD27
CRC копии 2B32BD27
Копирование... OK

Ошибок не произошло

AccurateRip: сводка

Трек 1 нет в базе данных
Трек 2 нет в базе данных
Трек 3 нет в базе данных
Трек 4 нет в базе данных
Трек 5 нет в базе данных
Трек 6 нет в базе данных
Трек 7 нет в базе данных
Трек 8 нет в базе данных
Трек 9 нет в базе данных
Трек 10 нет в базе данных
Трек 11 нет в базе данных
Трек 12 нет в базе данных
Трек 13 нет в базе данных

Ни одного трека нет в базе AccurateRip

Конец отчёта
REM GENRE "Smooth Jazz
REM DATE 2011
REM DISCID AC0EE90D
REM COMMENT "ExactAudioCopy v0.99pb4"
PERFORMER "OneFloorDown "
TITLE "Unraveled"
FILE "OneFloorDown - Unraveled.flac" WAVE
TRACK 01 AUDIO
TITLE "Unraveled Side (Live)"
PERFORMER "OneFloorDown "
FLAGS DCP
INDEX 01 00:00:00
TRACK 02 AUDIO
TITLE "KOKOmotion"
PERFORMER "OneFloorDown "
FLAGS DCP
INDEX 01 05:22:42
TRACK 03 AUDIO
TITLE "Bali Dreams"
PERFORMER "OneFloorDown "
FLAGS DCP
INDEX 01 09:18:14
TRACK 04 AUDIO
TITLE "Jilly Juliet"
PERFORMER "OneFloorDown "
FLAGS DCP
INDEX 01 14:08:20
TRACK 05 AUDIO
TITLE "Look At the Moon"
PERFORMER "OneFloorDown "
FLAGS DCP
INDEX 01 18:12:08
TRACK 06 AUDIO
TITLE "Silla Chill"
PERFORMER "OneFloorDown "
FLAGS DCP
INDEX 01 22:12:20
TRACK 07 AUDIO
TITLE "FastBreak"
PERFORMER "OneFloorDown "
FLAGS DCP
INDEX 01 27:08:62
TRACK 08 AUDIO
TITLE "Wakin' Up To You"
PERFORMER "OneFloorDown "
FLAGS DCP
INDEX 01 31:37:20
TRACK 09 AUDIO
TITLE "JAMbalaya"
PERFORMER "OneFloorDown "
FLAGS DCP
INDEX 01 38:29:20
TRACK 10 AUDIO
TITLE "Breathless Expectations"
PERFORMER "OneFloorDown "
FLAGS DCP
INDEX 01 42:35:35
TRACK 11 AUDIO
TITLE "RatRace"
PERFORMER "OneFloorDown "
FLAGS DCP
INDEX 01 48:52:59
TRACK 12 AUDIO
TITLE "Counting Kisses"
PERFORMER "OneFloorDown "
FLAGS DCP
INDEX 01 53:08:16
TRACK 13 AUDIO
TITLE "She Smiles (Live)"
PERFORMER "OneFloorDown "
FLAGS DCP
INDEX 01 58:01:41


Трекер:  [ 07-Мар-2011 22:32 ]

  

Скачать .torrent

Размер .torrent файла 21 KB


Размер: 511 MB
Хэш (hash) релиза: 04a2442ffd6bfb791d82822759a04192ea928270

Еще никто не оставлял запись к записи скачать торрент OneFloorDown - Unraveled - 2011, FLAC . Будь первым!

!Обратная связь