Скачать через торрент музыку VA- Bar Tunes Vol.1 - 2005, FLAC бесплатно без регистрации torrent

Если у вас наблюдаются проблемы со скриншотами, переходом по ссылками, скачиванием торрентов - проблемы в блокировщике рекламы AdBlock. #хорошегоДня!


Статистика раздачи
Размер:  416 MB   |    Зарегистрирован:  6 лет 7 месяцев   |    .torrent скачан:  60 раз   |   
Раздают:  1  
   
Загрузка...
 
Автор Сообщение

L


VA- Bar Tunes Vol.1
Жанр: Nu jazz | Future Jazz | Bossa | Easy Listening
Год выпуска диска: 2005
Производитель диска: Germany
Аудио кодек: FLAC
Тип рипа: image+.cue
Битрейт аудио: lossless
Продолжительность: 68:54


Трэклист:
01. Stolen Beat - Evolutionar
02. Gecko Turner - Monk Among Us
03. Trio Eletrico - Mansad
04. Twinset (Feat. Barnaby) - Sunny
05. Pascale Borel - Oserai-Je T'aimer
06. Latebloomer - We Are All One
07. Club Des Belugas (Feat. Anne Schnell) - Tarrango
08. Milto Eph (Feat. Junior Sp) - The Return Of Mojo Squad
09. Streamer - Vague Ass (Bar Tunes Edit)
10. Coldfinger - Easy M
11. Mo'horizons - Mambuloo
12. Jojo Effect - Moods
13. Macchiato Caldo - Right Guy Meets Right Girl
14. Gecko Turner - Guapapasea
15. Lily Frost - Les Vaisseaux Nocturnes
Exact Audio Copy V0.99 prebeta 4 from 23. January 2008

EAC extraction logfile from 19. October 2008, 17:08

Various / Bar Tunes Vol.1

Used drive : PIONEER DVD-RW DVR-112D Adapter: 3 ID: 0

Read mode : Secure
Utilize accurate stream : Yes
Defeat audio cache : Yes
Make use of C2 pointers : No

Read offset correction : 48
Overread into Lead-In and Lead-Out : No
Fill up missing offset samples with silence : Yes
Delete leading and trailing silent blocks : No
Null samples used in CRC calculations : Yes
Used interface : Installed external ASPI interface

Used output format : User Defined Encoder
Selected bitrate : 192 kBit/s
Quality : Low
Add ID3 tag : Yes
Command line compressor : C:\Program Files\E A C Audio\Flac\flac.exe
Additional command line options : -V -8 -T "artist=%a" -T "title=%t" -T "album=%g" -T "date=%y" -T "tracknumber=%n" -T "genre=%m" %s

TOC of the extracted CD

Track | Start | Length | Start sector | End sector
---------------------------------------------------------
1 | 0:00.00 | 5:20.47 | 0 | 24046
2 | 5:20.47 | 4:15.64 | 24047 | 43235
3 | 9:36.36 | 4:45.69 | 43236 | 64679
4 | 14:22.30 | 5:34.08 | 64680 | 89737
5 | 19:56.38 | 4:00.69 | 89738 | 107806
6 | 23:57.32 | 4:23.66 | 107807 | 127597
7 | 28:21.23 | 4:24.00 | 127598 | 147397
8 | 32:45.23 | 4:43.50 | 147398 | 168672
9 | 37:28.73 | 4:31.29 | 168673 | 189026
10 | 42:00.27 | 4:18.68 | 189027 | 208444
11 | 46:19.20 | 4:53.51 | 208445 | 230470
12 | 51:12.71 | 4:38.58 | 230471 | 251378
13 | 55:51.54 | 3:55.10 | 251379 | 269013
14 | 59:46.64 | 5:53.71 | 269014 | 295559
15 | 65:40.60 | 3:13.49 | 295560 | 310083

Range status and errors

Selected range

Filename G:\lossless-room.nnm.ru\Various - Bar Tunes Vol.1\Various - Bar Tunes Vol.1\Various - Bar Tunes Vol.1.wav

Peak level 100.0 %
Range quality 100.0 %
Test CRC CB1954C6
Copy CRC CB1954C6
Copy OK

No errors occurred

AccurateRip summary

Track 1 not present in database
Track 2 not present in database
Track 3 not present in database
Track 4 not present in database
Track 5 not present in database
Track 6 not present in database
Track 7 not present in database
Track 8 not present in database
Track 9 not present in database
Track 10 not present in database
Track 11 not present in database
Track 12 not present in database
Track 13 not present in database
Track 14 not present in database
Track 15 not present in database

None of the tracks are present in the AccurateRip database

End of status report
REM GENRE Jazz+Funk
REM DATE 2005
REM Place http://lossless-room.nnm.ru
REM DISCID E110260F
REM COMMENT "ExactAudioCopy v0.99pb4"
PERFORMER "Various"
TITLE "Bar Tunes Vol.1"
FILE "Various - Bar Tunes Vol.1.flac" WAVE
TRACK 01 AUDIO
TITLE "Evolutionar"
PERFORMER "Stolen Beat"
FLAGS DCP
INDEX 01 00:00:00
TRACK 02 AUDIO
TITLE "Monk Among Us"
PERFORMER "Gecko Turner"
FLAGS DCP
INDEX 00 05:18:47
INDEX 01 05:20:47
TRACK 03 AUDIO
TITLE "Mansad"
PERFORMER "Trio Eletrico"
FLAGS DCP
INDEX 00 09:34:36
INDEX 01 09:36:36
TRACK 04 AUDIO
TITLE "Sunny"
PERFORMER "Twinset (Feat. Barnaby)"
FLAGS DCP
INDEX 00 14:20:30
INDEX 01 14:22:30
TRACK 05 AUDIO
TITLE "Oserai-Je T'aimer"
PERFORMER "Pascale Borel"
FLAGS DCP
INDEX 00 19:54:38
INDEX 01 19:56:38
TRACK 06 AUDIO
TITLE "We Are All One"
PERFORMER "Latebloomer"
FLAGS DCP
INDEX 00 23:55:32
INDEX 01 23:57:32
TRACK 07 AUDIO
TITLE "Tarrango"
PERFORMER "Club Des Belugas (Feat. Anne Schnell)"
FLAGS DCP
INDEX 00 28:19:23
INDEX 01 28:21:23
TRACK 08 AUDIO
TITLE "The Return Of Mojo Squad"
PERFORMER "Milto Eph (Feat. Junior Sp)"
FLAGS DCP
INDEX 00 32:43:23
INDEX 01 32:45:23
TRACK 09 AUDIO
TITLE "Vague Ass (Bar Tunes Edit)"
PERFORMER "Streamer"
FLAGS DCP
INDEX 00 37:26:73
INDEX 01 37:28:73
TRACK 10 AUDIO
TITLE "Easy M"
PERFORMER "Coldfinger"
FLAGS DCP
INDEX 00 41:58:27
INDEX 01 42:00:27
TRACK 11 AUDIO
TITLE "Mambuloo"
PERFORMER "Mo'horizons"
FLAGS DCP
INDEX 00 46:17:20
INDEX 01 46:19:20
TRACK 12 AUDIO
TITLE "Moods"
PERFORMER "Jojo Effect"
FLAGS DCP
INDEX 00 51:10:71
INDEX 01 51:12:71
TRACK 13 AUDIO
TITLE "Right Guy Meets Right Girl"
PERFORMER "Macchiato Caldo"
FLAGS DCP
INDEX 00 55:49:54
INDEX 01 55:51:54
TRACK 14 AUDIO
TITLE "Guapapasea"
PERFORMER "Gecko Turner"
FLAGS DCP
INDEX 00 59:44:64
INDEX 01 59:46:64
TRACK 15 AUDIO
TITLE "Les Vaisseaux Nocturnes"
PERFORMER "Lily Frost"
FLAGS DCP
INDEX 00 65:38:60
INDEX 01 65:40:60


Трекер:  [ 06-Мар-2011 12:45 ]

  

Скачать .torrent

Размер .torrent файла 17 KB


Размер: 416 MB
Хэш (hash) релиза: c20d17fe1a30975ee6ede27ea2a26eb29bf4f89c

Еще никто не оставлял запись к записи скачать торрент VA- Bar Tunes Vol.1 - 2005, FLAC . Будь первым!

!Обратная связь