Скачать через торрент музыку VA - Bar Tunes Vol.2 - 2006, FLAC бесплатно без регистрации torrent

Если у вас наблюдаются проблемы со скриншотами, переходом по ссылками, скачиванием торрентов - проблемы в блокировщике рекламы AdBlock. #хорошегоДня!


Статистика раздачи
Размер:  473 MB   |    Зарегистрирован:  6 лет 7 месяцев   |    .torrent скачан:  55 раз   |   
Раздают:  1  
   
Загрузка...
 
Автор Сообщение

L


VA - Bar Tunes Vol.2
Жанр: Nu jazz | Future Jazz | Bossa | Easy Listening
Год выпуска диска: 2006
Производитель диска: Germany
Аудио кодек: FLAC
Тип рипа: image+.cue
Битрейт аудио: lossless
Продолжительность: 69:59


Трэклист:
01. Parov Stelar - Kiss Me Twice
02. Smoove - Big Balls
03. Torpedo Boyz - Gimme A Bassline Feat. Jason Murtagh
04. Henry Mancini - The Pink Panther Theme (Malibu Remix)
05. Skeewiff - Soul Bossanova
06. Ursula 1000 - Got Cha
07. Gabin - Into My Soul (Nocola Conte Remix)
08. Jojo Effect - Sing A Little Bit
09. Alice Russell - I'm Just Here
10. Variety Lab - London In Rain
11. Eddie Roberts - Georgio's Brother (Chillo e Nu Buono Guaglione)
12. Moca - Latein
13. Club Des Belugas - Hot Vibes (Bar Tunes Remix)
14. Tape Five - Avenue Du Gare
Exact Audio Copy V0.99 prebeta 4 from 23. January 2008

EAC extraction logfile from 22. October 2008, 8:34

Various / Bar Tunes Vol.2

Used drive : PIONEER DVD-RW DVR-112D Adapter: 3 ID: 0

Read mode : Secure
Utilize accurate stream : Yes
Defeat audio cache : Yes
Make use of C2 pointers : No

Read offset correction : 48
Overread into Lead-In and Lead-Out : No
Fill up missing offset samples with silence : Yes
Delete leading and trailing silent blocks : No
Null samples used in CRC calculations : Yes
Used interface : Installed external ASPI interface

Used output format : User Defined Encoder
Selected bitrate : 192 kBit/s
Quality : Low
Add ID3 tag : Yes
Command line compressor : C:\Program Files\E A C Audio\Flac\flac.exe
Additional command line options : -V -8 -T "artist=%a" -T "title=%t" -T "album=%g" -T "date=%y" -T "tracknumber=%n" -T "genre=%m" %s

TOC of the extracted CD

Track | Start | Length | Start sector | End sector
---------------------------------------------------------
1 | 0:00.00 | 5:00.02 | 0 | 22501
2 | 5:00.02 | 3:59.47 | 22502 | 40473
3 | 8:59.49 | 6:06.58 | 40474 | 67981
4 | 15:06.32 | 3:56.15 | 67982 | 85696
5 | 19:02.47 | 5:52.71 | 85697 | 112167
6 | 24:55.43 | 4:26.72 | 112168 | 132189
7 | 29:22.40 | 6:11.71 | 132190 | 160085
8 | 35:34.36 | 4:39.12 | 160086 | 181022
9 | 40:13.48 | 5:18.63 | 181023 | 204935
10 | 45:32.36 | 3:22.04 | 204936 | 220089
11 | 48:54.40 | 5:31.03 | 220090 | 244917
12 | 54:25.43 | 5:00.62 | 244918 | 267479
13 | 59:26.30 | 6:54.04 | 267480 | 298533
14 | 66:20.34 | 3:45.42 | 298534 | 315450

Range status and errors

Selected range

Filename G:\lossless-room.nnm.ru\Various - Bar Tunes Vol.2\Various - Bar Tunes Vol.2\Various - Bar Tunes Vol.2.wav

Peak level 100.0 %
Range quality 100.0 %
Test CRC 5A67D3CE
Copy CRC 5A67D3CE
Copy OK

No errors occurred

AccurateRip summary

Track 1 not present in database
Track 2 not present in database
Track 3 not present in database
Track 4 not present in database
Track 5 not present in database
Track 6 not present in database
Track 7 not present in database
Track 8 not present in database
Track 9 not present in database
Track 10 not present in database
Track 11 not present in database
Track 12 not present in database
Track 13 not present in database
Track 14 not present in database

None of the tracks are present in the AccurateRip database

End of status report
REM GENRE Jazz
REM DATE 2006
REM PLACE http://lossless-room.nnm.ru/
REM DISCID CD106E0E
REM COMMENT "ExactAudioCopy v0.99pb4"
PERFORMER "Various"
TITLE "Bar Tunes Vol.2"
FILE "Various - Bar Tunes Vol.2.flac" WAVE
TRACK 01 AUDIO
TITLE "Kiss Me Twice"
PERFORMER "Parov Stelar"
FLAGS DCP
INDEX 01 00:00:00
TRACK 02 AUDIO
TITLE "Big Balls"
PERFORMER "Smoove"
FLAGS DCP
INDEX 01 05:00:02
TRACK 03 AUDIO
TITLE "Gimme A Bassline Feat. Jason Murtagh"
PERFORMER "Torpedo Byz"
FLAGS DCP
INDEX 01 08:59:49
TRACK 04 AUDIO
TITLE "The Pink Panther Theme (Malibu Remix)"
PERFORMER "Henry Mancini"
FLAGS DCP
INDEX 01 15:06:32
TRACK 05 AUDIO
TITLE "Soul Bossanova"
PERFORMER "Skeewiff"
FLAGS DCP
INDEX 01 19:02:47
TRACK 06 AUDIO
TITLE "Got Cha"
PERFORMER "Ursula 1000"
FLAGS DCP
INDEX 01 24:55:43
TRACK 07 AUDIO
TITLE "Into My Soul (Nocola Conte Remix)"
PERFORMER "Gabin"
FLAGS DCP
INDEX 01 29:22:40
TRACK 08 AUDIO
TITLE "Sing A Little Bit"
PERFORMER "Jojo Effect"
FLAGS DCP
INDEX 01 35:34:36
TRACK 09 AUDIO
TITLE "I'm Just Here"
PERFORMER "Alice Russell"
FLAGS DCP
INDEX 01 40:13:48
TRACK 10 AUDIO
TITLE "London In Rain"
PERFORMER "Variety Lab"
FLAGS DCP
INDEX 01 45:32:36
TRACK 11 AUDIO
TITLE "Georgio's Brother (Chillo e Nu Buono Guaglione)"
PERFORMER "Eddie Roberts"
FLAGS DCP
INDEX 01 48:54:40
TRACK 12 AUDIO
TITLE "Latein"
PERFORMER "Moca"
FLAGS DCP
INDEX 01 54:25:43
TRACK 13 AUDIO
TITLE "Hot Vibes (Bar Tunes Remix)"
PERFORMER "Club Des Belugas"
FLAGS DCP
INDEX 01 59:26:30
TRACK 14 AUDIO
TITLE "Avenue Du Gare"
PERFORMER "Tape Five"
FLAGS DCP
INDEX 01 66:20:34


Трекер:  [ 06-Мар-2011 12:42 ]

  

Скачать .torrent

Размер .torrent файла 20 KB


Размер: 473 MB
Хэш (hash) релиза: 4efcd07ca3a246c539740dfd59398fbb66e5ce47

Еще никто не оставлял запись к записи скачать торрент VA - Bar Tunes Vol.2 - 2006, FLAC . Будь первым!

!Обратная связь