Скачать через торрент музыку VA - Bar Tunes Vol.3 - 2007, FLAC бесплатно без регистрации torrent

Если у вас наблюдаются проблемы со скриншотами, переходом по ссылками, скачиванием торрентов - проблемы в блокировщике рекламы AdBlock. #хорошегоДня!


Статистика раздачи
Размер:  442 MB   |    Зарегистрирован:  6 лет 7 месяцев   |    .torrent скачан:  83 раза   |   
Раздают:  1  
   
Загрузка...
 
Автор Сообщение

L


Various Artists- Bar Tunes Vol.3
Жанр: Nu jazz | Future Jazz | Bossa | Easy Listening
Год выпуска диска: 2007
Производитель диска: Germany
Аудио кодек: FLAC
Тип рипа: image+.cue
Битрейт аудио: lossless
Продолжительность: 64:42


Трэклист:
1. Kind Of Latin Rhythm - The Juju Orchestra
2. Dolce Vita - Bebo Best & The Super Lounge Orchestra
3. This Is What You Are - Mario Biondi
4. Poisson Rouge - Saint Privat
5. Jitterbug - Batterie Du Verre
6. Frankie - Club Des Belugas Feat. Iain MacKenzie
7. Soulsalicious - Tape Five
8. Charleston Butterfly - Parov Stelar Feat Gabriella Hanninen
9. The Moonbounce - Koop
10. Jazzhole - Free The Robots
11. The Energy Of A Small Woman (Jelly Jem Remix) - Thomas Siffling Trio
12. Feeling Good - The Frank Cunimondo Trio Feat. Lynn Marino
13. Ay Y N'ama (DJ Day Remix) - Mo' Horizons
14. Paintings And Journeys (Extended Version) - The Quantic Soul Orchestra
15. Bollocks ! - Iain MacKenzie
Exact Audio Copy V0.99 prebeta 4 from 23. January 2008

EAC extraction logfile from 22. October 2008, 12:01

Various / Bar Tunes Vol.3

Used drive : PIONEER DVD-RW DVR-112D Adapter: 3 ID: 0

Read mode : Secure
Utilize accurate stream : Yes
Defeat audio cache : Yes
Make use of C2 pointers : No

Read offset correction : 48
Overread into Lead-In and Lead-Out : No
Fill up missing offset samples with silence : Yes
Delete leading and trailing silent blocks : No
Null samples used in CRC calculations : Yes
Used interface : Installed external ASPI interface

Used output format : User Defined Encoder
Selected bitrate : 192 kBit/s
Quality : Low
Add ID3 tag : Yes
Command line compressor : C:\Program Files\E A C Audio\Flac\flac.exe
Additional command line options : -V -8 -T "artist=%a" -T "title=%t" -T "album=%g" -T "date=%y" -T "tracknumber=%n" -T "genre=%m" %s

TOC of the extracted CD

Track | Start | Length | Start sector | End sector
---------------------------------------------------------
1 | 0:00.00 | 7:20.72 | 0 | 33071
2 | 7:20.72 | 4:54.31 | 33072 | 55152
3 | 12:15.28 | 7:10.22 | 55153 | 87424
4 | 19:25.50 | 2:30.44 | 87425 | 98718
5 | 21:56.19 | 4:07.13 | 98719 | 117256
6 | 26:03.32 | 4:18.36 | 117257 | 136642
7 | 30:21.68 | 3:54.62 | 136643 | 154254
8 | 34:16.55 | 4:40.72 | 154255 | 175326
9 | 38:57.52 | 2:46.66 | 175327 | 187842
10 | 41:44.43 | 3:45.49 | 187843 | 204766
11 | 45:30.17 | 6:14.42 | 204767 | 232858
12 | 51:44.59 | 2:20.39 | 232859 | 243397
13 | 54:05.23 | 4:52.68 | 243398 | 265365
14 | 58:58.16 | 5:48.59 | 265366 | 291524
15 | 64:47.00 | 0:04.01 | 291525 | 291825

Range status and errors

Selected range

Filename G:\lossless-room.nnm.ru\Various - Bar Tunes Vol.3\Various - Bar Tunes Vol.3\Various - Bar Tunes Vol.3.wav

Peak level 100.0 %
Range quality 100.0 %
Test CRC CF424097
Copy CRC CF424097
Copy OK

No errors occurred

AccurateRip summary

Track 1 not present in database
Track 2 not present in database
Track 3 not present in database
Track 4 not present in database
Track 5 not present in database
Track 6 not present in database
Track 7 not present in database
Track 8 not present in database
Track 9 not present in database
Track 10 not present in database
Track 11 not present in database
Track 12 not present in database
Track 13 not present in database
Track 14 not present in database
Track 15 not present in database

None of the tracks are present in the AccurateRip database

End of status report
REM GENRE NuJazz
REM DATE 2007
REM DISCID D50F330F
REM COMMENT "ExactAudioCopy v0.99pb4"
PERFORMER "Various"
TITLE "Bar Tunes Vol.3"
FILE "Various - Bar Tunes Vol.3.flac" WAVE
TRACK 01 AUDIO
TITLE "Kind Of Latin Rhythm"
PERFORMER "The Juju Orchestra"
FLAGS DCP
INDEX 01 00:00:00
TRACK 02 AUDIO
TITLE "Dolce Vita"
PERFORMER "Bebo Best & The Super Lounge Orchestra"
FLAGS DCP
INDEX 00 07:18:72
INDEX 01 07:20:72
TRACK 03 AUDIO
TITLE "This Is What You Are"
PERFORMER "Mario Biondi"
FLAGS DCP
INDEX 00 12:13:28
INDEX 01 12:15:28
TRACK 04 AUDIO
TITLE "Poisson Rouge"
PERFORMER "Saint Privat"
FLAGS DCP
INDEX 00 19:23:50
INDEX 01 19:25:50
TRACK 05 AUDIO
TITLE "Jitterbug"
PERFORMER "Batterie Du Verre"
FLAGS DCP
INDEX 00 21:54:19
INDEX 01 21:56:19
TRACK 06 AUDIO
TITLE "Frankie"
PERFORMER "Club Des Belugas Feat. Iain MacKenzie"
FLAGS DCP
INDEX 00 26:01:32
INDEX 01 26:03:32
TRACK 07 AUDIO
TITLE "Soulsalicious"
PERFORMER "Tape Five"
FLAGS DCP
INDEX 00 30:19:68
INDEX 01 30:21:68
TRACK 08 AUDIO
TITLE "Charleston Butterfly"
PERFORMER "Parov Stelar Feat Gabriella Hanninen"
FLAGS DCP
INDEX 00 34:14:55
INDEX 01 34:16:55
TRACK 09 AUDIO
TITLE "The Moonbounce"
PERFORMER "Koop"
FLAGS DCP
INDEX 00 38:55:52
INDEX 01 38:57:52
TRACK 10 AUDIO
TITLE "Jazzhole"
PERFORMER "Free The Robots"
FLAGS DCP
INDEX 00 41:42:43
INDEX 01 41:44:43
TRACK 11 AUDIO
TITLE "The Energy Of A Small Woman (Jelly Jem Remix)"
PERFORMER "Thomas Siffling Trio"
FLAGS DCP
INDEX 00 45:28:17
INDEX 01 45:30:17
TRACK 12 AUDIO
TITLE "Feeling Good"
PERFORMER "The Frank Cunimondo Trio Feat. Lynn Marino"
FLAGS DCP
INDEX 00 51:42:59
INDEX 01 51:44:59
TRACK 13 AUDIO
TITLE "Ay Y N'ama (DJ Day Remix)"
PERFORMER "Mo' Horizons"
FLAGS DCP
INDEX 00 54:03:23
INDEX 01 54:05:23
TRACK 14 AUDIO
TITLE "Paintings And Journeys (Extended Version)"
PERFORMER "The Quantic Soul Orchestra"
FLAGS DCP
INDEX 00 58:56:16
INDEX 01 58:58:16
TRACK 15 AUDIO
TITLE "Bollocks !"
PERFORMER "Iain MacKenzie"
FLAGS DCP
INDEX 00 64:45:00
INDEX 01 64:47:00


Трекер:  [ 06-Мар-2011 12:38 ]

  

Скачать .torrent

Размер .torrent файла 18 KB


Размер: 442 MB
Хэш (hash) релиза: 37bb55788f2ffd936415b776b08100ff9c0cbaf2

Еще никто не оставлял запись к записи скачать торрент VA - Bar Tunes Vol.3 - 2007, FLAC . Будь первым!

!Обратная связь