Скачать через торрент музыку Club des Belugas - Swop - 2008, APE бесплатно без регистрации torrent

Если у вас наблюдаются проблемы со скриншотами, переходом по ссылками, скачиванием торрентов - проблемы в блокировщике рекламы AdBlock. #хорошегоДня!


Статистика раздачи
Размер:  466 MB   |    Зарегистрирован:  6 лет 7 месяцев   |    .torrent скачан:  64 раза   |   
Раздают:  1  
   
Загрузка...
 
Автор Сообщение

L


Swop
Club des Belugas
Label / Distributor: Chin Chin / Timewarp
Жанр: Nu Jazz, Electro Swing, Downtempo
Год выпуска: February 5, 2008
Формат: APE (image + .cue)
Битрейт аудио: lossless
Продолжительность: 1:10:52


Трэклист:
01. What Is Jazz (5:16)
02. It's A Beautiful Day (3:28)
03. Frankie (4:20)
04. Peace With Come With Sleep (Triple Bass Mix) (4:29)
05. Some Like It Hot (4:43)
06. Puttin' On The Ritz (Club Des Belugas Remix) (4:07)
07. She Said No (4:26)
08. Cats' N Boys (3:42)
09. Wearing Out My Shoes (6:29)
10. Second Sight (4:24)
11. Take Three (4:09)
12. It Don't Mean A Thing (4:28)
13. The Road Is Lonesome (4:06)
14. A Men's Scene (4:24)
15. What Is Jazz (Tape Five Remix) (4:40)
16. Cats' N Girls (Cats' N Boys Re-Sing) (3:41)
Exact Audio Copy V0.99 prebeta 4 from 23. January 2008

EAC extraction logfile from 9. April 2008, 11:01

Club des Belugas / Swop

Used drive : PIONEER DVD-RW DVR-212D Adapter: 1 ID: 0

Read mode : Secure
Utilize accurate stream : Yes
Defeat audio cache : Yes
Make use of C2 pointers : No

Read offset correction : 48
Overread into Lead-In and Lead-Out : No
Fill up missing offset samples with silence : Yes
Delete leading and trailing silent blocks : No
Null samples used in CRC calculations : Yes
Used interface : Installed external ASPI interface

Used output format : Internal WAV Routines
Sample format : 44.100 Hz; 16 Bit; Stereo

TOC of the extracted CD

Track | Start | Length | Start sector | End sector
---------------------------------------------------------
1 | 0:00.00 | 5:15.72 | 0 | 23696
2 | 5:15.72 | 3:28.06 | 23697 | 39302
3 | 8:44.03 | 4:19.39 | 39303 | 58766
4 | 13:03.42 | 4:29.14 | 58767 | 78955
5 | 17:32.56 | 4:43.13 | 78956 | 100193
6 | 22:15.69 | 4:07.17 | 100194 | 118735
7 | 26:23.11 | 4:26.03 | 118736 | 138688
8 | 30:49.14 | 3:42.21 | 138689 | 155359
9 | 34:31.35 | 6:28.47 | 155360 | 184506
10 | 41:00.07 | 4:24.33 | 184507 | 204339
11 | 45:24.40 | 4:08.64 | 204340 | 223003
12 | 49:33.29 | 4:28.20 | 223004 | 243123
13 | 54:01.49 | 4:06.24 | 243124 | 261597
14 | 58:07.73 | 4:23.50 | 261598 | 281372
15 | 62:31.48 | 4:39.70 | 281373 | 302367
16 | 67:11.43 | 3:40.58 | 302368 | 318925

Range status and errors

Selected range

Filename E:\Temp\CD\Club des Belugas - Swop (2008)\Club des Belugas - Swop.wav

Peak level 96.6 %
Range quality 100.0 %
Copy CRC CAFE357C
Copy OK

No errors occurred

End of status report

1 -===- E:\Club des Belugas - Swop (2008)\Club des Belugas - Swop.ape
Извлечение успешно выполнено
Заключение: этот трек - CDDA с вероятностью 100%
Временный файл удалён.
REM GENRE Jazz
REM DATE 2008
REM DISCID EA109C10
REM COMMENT "ExactAudioCopy v0.99pb4"
PERFORMER "Club des Belugas"
TITLE "Swop"
FILE "Club des Belugas - Swop.ape" WAVE
TRACK 01 AUDIO
TITLE "What Is Jazz"
PERFORMER "Club des Belugas"
ISRC DEDW90700076
FLAGS DCP
INDEX 01 00:00:00
TRACK 02 AUDIO
TITLE "It's A Beautiful Day"
PERFORMER "Club des Belugas"
ISRC DEDW90800072
FLAGS DCP
INDEX 00 05:13:72
INDEX 01 05:15:72
TRACK 03 AUDIO
TITLE "Frankie"
PERFORMER "Club des Belugas"
ISRC DEDW90700070
FLAGS DCP
INDEX 00 08:42:03
INDEX 01 08:44:03
TRACK 04 AUDIO
TITLE "Peace With Come With Sleep (Triple Bass Mix)"
PERFORMER "Club des Belugas"
ISRC DEDW90800078
FLAGS DCP
INDEX 00 13:01:42
INDEX 01 13:03:42
TRACK 05 AUDIO
TITLE "Some Like It Hot"
PERFORMER "Club des Belugas"
ISRC DEDW90800079
FLAGS DCP
INDEX 00 17:30:56
INDEX 01 17:32:56
TRACK 06 AUDIO
TITLE "Puttin' On The Ritz (Club Des Belugas Remix)"
PERFORMER "Club des Belugas"
ISRC DEDW90800081
FLAGS DCP
INDEX 00 22:13:69
INDEX 01 22:15:69
TRACK 07 AUDIO
TITLE "She Said No"
PERFORMER "Club des Belugas"
ISRC DEDW90800084
FLAGS DCP
INDEX 00 25:55:55
INDEX 01 26:23:11
TRACK 08 AUDIO
TITLE "Cats' N Boys"
PERFORMER "Club des Belugas"
ISRC DEDW90800077
FLAGS DCP
INDEX 00 30:47:14
INDEX 01 30:49:14
TRACK 09 AUDIO
TITLE "Wearing Out My Shoes"
PERFORMER "Club des Belugas"
ISRC DEDW90700071
FLAGS DCP
INDEX 00 34:29:35
INDEX 01 34:31:35
TRACK 10 AUDIO
TITLE "Second Sight"
PERFORMER "Club des Belugas"
ISRC DEDW90800178
FLAGS DCP
INDEX 00 40:58:07
INDEX 01 41:00:07
TRACK 11 AUDIO
TITLE "Take Three"
PERFORMER "Club des Belugas"
ISRC DEDW90700073
FLAGS DCP
INDEX 00 45:22:40
INDEX 01 45:24:40
TRACK 12 AUDIO
TITLE "It Don't Mean A Thing"
PERFORMER "Club des Belugas"
ISRC DEDW90800080
FLAGS DCP
INDEX 00 49:31:29
INDEX 01 49:33:29
TRACK 13 AUDIO
TITLE "The Road Is Lonesome"
PERFORMER "Club des Belugas"
ISRC DEDW90800083
FLAGS DCP
INDEX 00 53:59:49
INDEX 01 54:01:49
TRACK 14 AUDIO
TITLE "A Men's Scene"
PERFORMER "Club des Belugas"
ISRC DEDW90800074
FLAGS DCP
INDEX 00 58:05:73
INDEX 01 58:07:73
TRACK 15 AUDIO
TITLE "What Is Jazz (Tape Five Remix)"
PERFORMER "Club des Belugas"
ISRC DEDW90800179
FLAGS DCP
INDEX 00 62:29:48
INDEX 01 62:31:48
TRACK 16 AUDIO
TITLE "Cats' N Girls (Cats' N Boys Re-Sing)"
PERFORMER "Club des Belugas"
ISRC DEDW90800082
FLAGS DCP
INDEX 00 67:09:43
INDEX 01 67:11:43


Трекер:  [ 05-Мар-2011 16:07 ]

  

Скачать .torrent

Размер .torrent файла 19 KB


Размер: 466 MB
Хэш (hash) релиза: 9fb4190e7f1f8520bf8594f11b0c212e85511b83

Еще никто не оставлял запись к записи скачать торрент Club des Belugas - Swop - 2008, APE . Будь первым!

!Обратная связь