Скачать через торрент музыку Club des Belugas - Apricoo Soul - 2006, APE бесплатно без регистрации torrent

Если у вас наблюдаются проблемы со скриншотами, переходом по ссылками, скачиванием торрентов - проблемы в блокировщике рекламы AdBlock. #хорошегоДня!


Статистика раздачи
Размер:  446 MB   |    Зарегистрирован:  6 лет 7 месяцев   |    .torrent скачан:  66 раз   |   
Раздают:  1  
   
Загрузка...
 
Автор Сообщение

L


Apricoo Soul
Club des Belugas
Жанр: Downtempo
Год выпуска: 2006
Формат: APE (image + .cue)
Битрейт аудио: lossless
Продолжительность: 73:28


Трэклист:
01. Wildcats Gotta Move [05:28]
02. Kiss Me [05:42]
03. Tarrango [04:22]
04. Dean Martin - Mambo Italiano (Club des Belugas Remix) [05:16]
05. Dibidy Dap [05:12]
06. Unsaleble Strings [05:03]
07. Skip To The Bip (Funky Mix) [04:50]
08. Ketchup Innovation [04:52]
09. Phantastic Philadelphia [05:30]
10. Let Love Lead The Way [05:23]
11. Coffee To Go (feat. Reiner Winterschladen) [04:12]
12. Separation Serenade [05:20]
13. Wildcats Gotta Move (Becker vs. Gaertner Der Lueste Rmx) [05:43]
14. Skip To The Bip (Brazil Mix) [04:41]
15. Vintage Waltz [01:54]
EAC extraction logfile from 9. February 2007, 20:17 for CD
Club des Belugas / Apricoo Soul

Used drive : PIONEER DVD-RW DVR-107D Adapter: 1 ID: 1
Read mode : Secure with NO C2, accurate stream, disable cache
Combined read/write offset correction : 48
Overread into Lead-In and Lead-Out : No

Used output format : Internal WAV Routines
44.100 Hz; 16 Bit; Stereo

Other options :
Fill up missing offset samples with silence : Yes
Delete leading and trailing silent blocks : No
Installed external ASPI interface

Range status and errors
Selected range
Filename C:\Club des Belugas - Apricoo Soul (p)2006 eac-ape-cue by sat\CDImage.wav

Peak level 100.0 %
Range quality 99.9 %
CRC A8A392FF
Copy OK

No errors occured

End of status report
REM GENRE Downtempo
REM DATE 2006
REM DISCID DD11550F
REM COMMENT "ExactAudioCopy v0.95b2"
PERFORMER "Club des Belugas"
TITLE "Apricoo Soul"
FILE "CDImage.ape" WAVE
TRACK 01 AUDIO
TITLE "Wildcats Gotta Move"
PERFORMER "Club des Belugas"
FLAGS DCP
INDEX 01 00:00:00
TRACK 02 AUDIO
TITLE "Kiss Me"
PERFORMER "Club des Belugas"
FLAGS DCP
INDEX 00 05:28:09
INDEX 01 05:30:09
TRACK 03 AUDIO
TITLE "Tarrango"
PERFORMER "Club des Belugas"
FLAGS DCP
INDEX 00 11:12:34
INDEX 01 11:14:34
TRACK 04 AUDIO
TITLE "Dean Martin - Mambo Italiano (Club des Belugas Remix)"
PERFORMER "Club des Belugas"
FLAGS DCP
INDEX 00 15:36:34
INDEX 01 15:38:34
TRACK 05 AUDIO
TITLE "Dibidy Dap"
PERFORMER "Club des Belugas"
FLAGS DCP
INDEX 00 20:54:00
INDEX 01 20:56:00
TRACK 06 AUDIO
TITLE "Unsaleble Strings"
PERFORMER "Club des Belugas"
FLAGS DCP
INDEX 00 26:07:61
INDEX 01 26:09:61
TRACK 07 AUDIO
TITLE "Skip To The Bip (Funky Mix)"
PERFORMER "Club des Belugas"
FLAGS DCP
INDEX 00 31:12:65
INDEX 01 31:14:65
TRACK 08 AUDIO
TITLE "Ketchup Innovation"
PERFORMER "Club des Belugas"
FLAGS DCP
INDEX 00 36:05:20
INDEX 01 36:07:20
TRACK 09 AUDIO
TITLE "Phantastic Philadelphia"
PERFORMER "Club des Belugas"
FLAGS DCP
INDEX 00 40:59:43
INDEX 01 41:01:43
TRACK 10 AUDIO
TITLE "Let Love Lead The Way"
PERFORMER "Club des Belugas"
FLAGS DCP
INDEX 00 46:31:36
INDEX 01 46:33:36
TRACK 11 AUDIO
TITLE "Coffee To Go (feat. Reiner Winterschladen)"
PERFORMER "Club des Belugas"
FLAGS DCP
INDEX 00 51:56:56
INDEX 01 51:58:56
TRACK 12 AUDIO
TITLE "Separation Serenade"
PERFORMER "Club des Belugas"
FLAGS DCP
INDEX 00 56:11:09
INDEX 01 56:13:09
TRACK 13 AUDIO
TITLE "Wildcats Gotta Move (Becker vs. Gaertner Der Lueste Rmx)"
PERFORMER "Club des Belugas"
FLAGS DCP
INDEX 00 61:33:19
INDEX 01 61:35:19
TRACK 14 AUDIO
TITLE "Skip To The Bip (Brazil Mix)"
PERFORMER "Club des Belugas"
FLAGS DCP
INDEX 00 67:17:62
INDEX 01 67:19:62
TRACK 15 AUDIO
TITLE "Vintage Waltz"
PERFORMER "Club des Belugas"
FLAGS DCP
INDEX 00 72:00:45
INDEX 01 72:02:45


Трекер:  [ 05-Мар-2011 15:42 ]

  

Скачать .torrent

Размер .torrent файла 18 KB


Размер: 446 MB
Хэш (hash) релиза: 61261e06f639824e361b5250612e89ff054e4da5

Еще никто не оставлял запись к записи скачать торрент Club des Belugas - Apricoo Soul - 2006, APE . Будь первым!

!Обратная связь