Скачать через торрент музыку Club des Belugas - Caviar at 3 A.M. - 2002, FLAC бесплатно без регистрации torrent

Если у вас наблюдаются проблемы со скриншотами, переходом по ссылками, скачиванием торрентов - проблемы в блокировщике рекламы AdBlock. #хорошегоДня!


Статистика раздачи
Размер:  435 MB   |    Зарегистрирован:  6 лет 7 месяцев   |    .torrent скачан:  67 раз   |   
Раздают:  1  
   
Загрузка...
 
Автор Сообщение

L


Caviar at 3 A.M.
Club des Belugas
Жанр: Downtempo
Год выпуска: 2002
Формат: FLAC (tracks)
Битрейт аудио: lossless
Продолжительность: 74:02


Трэклист:
01. Early Daiquiris [5:24]
02. Tokyo Dawn [5:27]
03. Hot Vibes [7:32]
04. Next Order Please [5:42]
05. Quatre Pieces Collees [7:22]
06. Faute De Mieux [5:32]
07. Caviar At 3 A.M. [5:01]
08. Sisi Tartar [4:54]
09. Kissez In Gallop [5:00]
10. Papaya [6:18]
11. Seven Chills [4:49]
12. Weather Report [5:54]
13. La Mer [5:07]
auCDtect: CD records authenticity detector, version 0.8.2
Copyright (c) 2004 Oleg Berngardt. All rights reserved.
Copyright (c) 2004 Alexander Djourik. All rights reserved.
------------------------------------------------------------
Processing file: [01. Early Daiquiris.wav]

------------------------------------------------------------
This track looks like CDDA with probability 100%

------------------------------------------------------------
Processing file: [02. Tokyo Dawn.wav]

------------------------------------------------------------
This track looks like CDDA with probability 100%

------------------------------------------------------------
Processing file: [03. Hot Vibes.wav]

------------------------------------------------------------
This track looks like CDDA with probability 99%

------------------------------------------------------------
Processing file: [04. Next Order Please.wav]

------------------------------------------------------------
This track looks like CDDA with probability 100%

------------------------------------------------------------
Processing file: [05. Quatre Pieces Collees.wav]

------------------------------------------------------------
This track looks like CDDA with probability 99%

------------------------------------------------------------
Processing file: [06. Faute De Mieux.wav]

------------------------------------------------------------
This track looks like CDDA with probability 100%

------------------------------------------------------------
Processing file: [07. Caviar At 3 A.M..wav]

------------------------------------------------------------
This track looks like CDDA with probability 99%

------------------------------------------------------------
Processing file: [08. Sisi Tartar.wav]

------------------------------------------------------------
This track looks like CDDA with probability 100%

------------------------------------------------------------
Processing file: [09. Kissez In Gallop.wav]

------------------------------------------------------------
This track looks like CDDA with probability 100%

------------------------------------------------------------
Processing file: [10. Papaya.wav]

------------------------------------------------------------
This track looks like CDDA with probability 99%

------------------------------------------------------------
Processing file: [11. Seven Chills.wav]

------------------------------------------------------------
This track looks like CDDA with probability 100%

------------------------------------------------------------
Processing file: [12. Weather Report.wav]

------------------------------------------------------------
This track looks like CDDA with probability 100%

------------------------------------------------------------
Processing file: [13. La Mer.wav]

------------------------------------------------------------
This track looks like CDDA with probability 99%

------------------------------------------------------------
Final Conclusion:
------------------------------------------------------------
These tracks looks like CDDA with probability 100%
REM GENRE Downtempo
REM DATE 2002
REM DISCID B011580D
REM COMMENT "ExactAudioCopy v0.95b4"
PERFORMER "Club des Belugas"
TITLE "Caviar at 3 A.M."
FILE "01. Early Daiquiris.wav" WAVE
TRACK 01 AUDIO
TITLE "Early Daiquiris"
PERFORMER "Club des Belugas"
FLAGS DCP
PREGAP 00:01:00
INDEX 01 00:00:00
FILE "02. Tokyo Dawn.wav" WAVE
TRACK 02 AUDIO
TITLE "Tokyo Dawn"
PERFORMER "Club des Belugas"
FLAGS DCP
INDEX 01 00:00:00
FILE "03. Hot Vibes.wav" WAVE
TRACK 03 AUDIO
TITLE "Hot Vibes"
PERFORMER "Club des Belugas"
FLAGS DCP
INDEX 01 00:00:00
FILE "04. Next Order Please.wav" WAVE
TRACK 04 AUDIO
TITLE "Next Order Please"
PERFORMER "Club des Belugas"
FLAGS DCP
INDEX 01 00:00:00
FILE "05. Quatre Piйces Collйes.wav" WAVE
TRACK 05 AUDIO
TITLE "Quatre Piйces Collйes"
PERFORMER "Club des Belugas"
FLAGS DCP
INDEX 01 00:00:00
FILE "06. Faute De Mieux.wav" WAVE
TRACK 06 AUDIO
TITLE "Faute De Mieux"
PERFORMER "Club des Belugas"
FLAGS DCP
INDEX 01 00:00:00
FILE "07. Caviar At 3 A.M..wav" WAVE
TRACK 07 AUDIO
TITLE "Caviar At 3 A.M."
PERFORMER "Club des Belugas"
FLAGS DCP
INDEX 01 00:00:00
FILE "08. Sisi Tartar.wav" WAVE
TRACK 08 AUDIO
TITLE "Sisi Tartar"
PERFORMER "Club des Belugas"
FLAGS DCP
INDEX 01 00:00:00
FILE "09. Kissez In Gallop.wav" WAVE
TRACK 09 AUDIO
TITLE "Kissez In Gallop"
PERFORMER "Club des Belugas"
FLAGS DCP
INDEX 01 00:00:00
FILE "10. Papaya.wav" WAVE
TRACK 10 AUDIO
TITLE "Papaya"
PERFORMER "Club des Belugas"
FLAGS DCP
INDEX 01 00:00:00
FILE "11. Seven Chills.wav" WAVE
TRACK 11 AUDIO
TITLE "Seven Chills"
PERFORMER "Club des Belugas"
FLAGS DCP
INDEX 01 00:00:00
TRACK 12 AUDIO
TITLE "Weather Report"
PERFORMER "Club des Belugas"
FLAGS DCP
INDEX 00 04:45:62
FILE "12. Weather Report.wav" WAVE
INDEX 01 00:00:00
TRACK 13 AUDIO
TITLE "La Mer"
PERFORMER "Club des Belugas"
FLAGS DCP
INDEX 00 05:51:26
FILE "13. La Mer.wav" WAVE
INDEX 01 00:00:00


Трекер:  [ 05-Мар-2011 15:37 ]

  

Скачать .torrent

Размер .torrent файла 19 KB


Размер: 435 MB
Хэш (hash) релиза: 7887dc190d7dc9adbf4767252e27546b0d86c6d5

Еще никто не оставлял запись к записи скачать торрент Club des Belugas - Caviar at 3 A.M. - 2002, FLAC . Будь первым!

!Обратная связь