Скачать через торрент музыку Club des Belugas - Minority Tunes - 2003, FLAC бесплатно без регистрации torrent

Если у вас наблюдаются проблемы со скриншотами, переходом по ссылками, скачиванием торрентов - проблемы в блокировщике рекламы AdBlock. #хорошегоДня!


Статистика раздачи
Размер:  403 MB   |    Зарегистрирован:  6 лет 7 месяцев   |    .torrent скачан:  57 раз   |   
Раздают:  1  
   
Загрузка...
 
Автор Сообщение

L


Minority Tunes
Club des Belugas
Жанр: Downtempo
Год выпуска: 2003
Формат: FLAC (image + .cue)
Битрейт аудио: lossless
Продолжительность: 66:31


Трэклист:
01. Gadda Rio [05:37]
02. Jelly Galore [05:41]
03. Heya [07:22]
04. Get Shorter [04:41]
05. Nerano [05:12]
06. Lou Two [05:30]
07. HipHip ChinChin (Smooth return mix) [05:59]
08. The Rebirth Of The Fat Lola [05:00]
09. Quatre Piieces Collees (Part 2) [06:34]
10. One Note Brazil [04:03]
11. Jilt By Julie [05:41]
12. The Nil Reference [05:11]
EAC Auslese-Logdatei vom 14. Januar 2005, 12:23 für CD
Club des Belugas / Minority Tunes

Benutztes Laufwerk : HL-DT-STDVDRAM GSA-4082B Adapter: 3 ID: 0
Lesemodus : Sicher mit KEINEM C2, Accurate Stream, KEIN Puffer abgeschaltet
Kombinierter Lese/Schreiboffset Korrektur : 0
Überlesen in das Lead-In und Lead-Out : Nein

Benutztes Ausgabeformat : Interne WAV Routinen
44.100 Hz; 16 Bit; Stereo

Andere Einstellungen :
Fülle fehlende Offsetsample mit Stille auf : Ja
Lösche führende und nachfolgende stille Blöcke : Nein
Normalisiere auf 98
Installierte externe ASPI Schnittstelle

Bereichsstatus und Fehler
Gewählter Bereich
Dateiname I:\Incoming\Club des Belugas - Minority Tunes.wav

Spitzenpegel 100.0 %
Bereichsqualität 100.0 %
CRC F9AD250F
Kopie OK

Keine Fehler aufgetreten

Ende des Statusreports
PERFORMER "Club des Belugas"
TITLE "Minority Tunes"
FILE "Club des Belugas - Minority Tunes.flac" WAVE
TRACK 01 AUDIO
TITLE "Gadda Rio"
PERFORMER "Club des Belugas"
FLAGS DCP
INDEX 01 00:00:00
TRACK 02 AUDIO
TITLE "Jelly Galore"
PERFORMER "Club des Belugas"
FLAGS DCP
INDEX 00 05:37:22
INDEX 01 05:39:34
TRACK 03 AUDIO
TITLE "Heya"
PERFORMER "Club des Belugas"
FLAGS DCP
INDEX 00 11:20:30
INDEX 01 11:22:42
TRACK 04 AUDIO
TITLE "Get Shorter"
PERFORMER "Club des Belugas"
FLAGS DCP
INDEX 00 18:44:33
INDEX 01 18:46:45
TRACK 05 AUDIO
TITLE "Nerano"
PERFORMER "Club des Belugas"
FLAGS DCP
INDEX 00 23:27:14
INDEX 01 23:29:27
TRACK 06 AUDIO
TITLE "Lou Two"
PERFORMER "Club des Belugas"
FLAGS DCP
INDEX 00 28:40:65
INDEX 01 28:43:03
TRACK 07 AUDIO
TITLE "HipHip ChinChin (Smooth return mix)"
PERFORMER "Club des Belugas"
FLAGS DCP
INDEX 00 34:12:40
INDEX 01 34:14:53
TRACK 08 AUDIO
TITLE "The Rebirth Of The Fat Lola"
PERFORMER "Club des Belugas"
FLAGS DCP
INDEX 00 40:13:32
INDEX 01 40:15:46
TRACK 09 AUDIO
TITLE "Quatre Piieces Collees (Part 2)"
PERFORMER "Club des Belugas"
FLAGS DCP
INDEX 00 45:15:18
INDEX 01 45:17:29
TRACK 10 AUDIO
TITLE "One Note Brazil"
PERFORMER "Club des Belugas"
FLAGS DCP
INDEX 00 51:51:04
INDEX 01 51:53:20
TRACK 11 AUDIO
TITLE "Jilt By Julie"
PERFORMER "Club des Belugas"
FLAGS DCP
INDEX 00 55:56:15
INDEX 01 55:58:30
TRACK 12 AUDIO
TITLE "The Nil Reference"
PERFORMER "Club des Belugas"
FLAGS DCP
INDEX 00 61:39:32
INDEX 01 61:41:43


Трекер:  [ 05-Мар-2011 15:34 ]

  

Скачать .torrent

Размер .torrent файла 17 KB


Размер: 403 MB
Хэш (hash) релиза: 2c8c877620b50024178a6b3b00b491531b02cefd

Еще никто не оставлял запись к записи скачать торрент Club des Belugas - Minority Tunes - 2003, FLAC . Будь первым!

!Обратная связь