Скачать через торрент музыку VA - Electro Swing - 2009, FLAC бесплатно без регистрации torrent

Если у вас наблюдаются проблемы со скриншотами, переходом по ссылками, скачиванием торрентов - проблемы в блокировщике рекламы AdBlock. #хорошегоДня!


Статистика раздачи
Размер:  519 MB   |    Зарегистрирован:  6 лет 7 месяцев   |    .torrent скачан:  85 раз   |   
Раздают:  1  
   
Загрузка...
 
Автор Сообщение

L


VA - Electro Swing
Жанр: Swing / Electro / Broken Beat
Год выпуска диска: 2009
Производитель диска: Wagram Music
Catalog #: 3139672
Релиз от: sklon
Аудио кодек: FLAC
Тип рипа: image+.cue
Битрейт аудио: lossless
Продолжительность: 1:17:39


Трэклист:
01. Caravan Palace — Jolie Coquine
02. Mr Scruff — Get A Move On
03. Chinese Man — Artichaut
04. Belleruche — Minor Swing
05. Nicolas Repac — Revue Noire (Instrumental)
06. Parov Stelar — Libella Swing
07. Mestizo & Mike Gao — Pick Up 52's
08. Kormac — Scratch Marchin'
09. Club Des Belugas — Hip Hip Chin Chin (Maxim Illion Mix)
10. Lena Horne — I Want A Little Doggie (Remix)
11. Free The Robots — Jazzhole
12. G-Swing feat. Le Major Melon — La Voix Humaine
13. [Dunkelbunt] feat. Boban I Marko Markovic Orkestar — Cinnamon Girl
14. De-Phazz — The Mambo Craze
15. Vono Box — Hello Joe
16. Waldeck — Memories
17. Lyre Le Temps — Hold The Night
18. Fred Astaire — Puttin' On The Ritz (Club Des Belugas Remix)
19. Kenneth Bager feat. The Hellerup Cool School Choir — Fragment Eight... The Sound Of Swing
20. -M- — Belleville Rendez-vous
log
Exact Audio Copy V0.99 prebeta 4 from 23. January 2008

EAC extraction logfile from 18. April 2009, 16:25

Various / Electro Swing

Used drive : PIONEER DVD-RW DVR-112D Adapter: 1 ID: 0

Read mode : Secure
Utilize accurate stream : Yes
Defeat audio cache : Yes
Make use of C2 pointers : No

Read offset correction : 48
Overread into Lead-In and Lead-Out : No
Fill up missing offset samples with silence : Yes
Delete leading and trailing silent blocks : No
Null samples used in CRC calculations : Yes
Used interface : Installed external ASPI interface

Used output format : User Defined Encoder
Selected bitrate : 192 kBit/s
Quality : Low
Add ID3 tag : Yes
Command line compressor : C:\Program Files\E A C Audio\Flac\flac.exe
Additional command line options : -V -8 -T "artist=%a" -T "title=%t" -T "album=%g" -T "date=%y" -T "tracknumber=%n" -T "genre=%m" %s

TOC of the extracted CD

Track | Start | Length | Start sector | End sector
---------------------------------------------------------
1 | 0:00.00 | 3:43.38 | 0 | 16762
2 | 3:43.38 | 3:23.74 | 16763 | 32061
3 | 7:07.37 | 4:23.51 | 32062 | 51837
4 | 11:31.13 | 4:06.64 | 51838 | 70351
5 | 15:38.02 | 3:33.45 | 70352 | 86371
6 | 19:11.47 | 4:43.60 | 86372 | 107656
7 | 23:55.32 | 3:32.02 | 107657 | 123558
8 | 27:27.34 | 3:21.70 | 123559 | 138703
9 | 30:49.29 | 5:36.51 | 138704 | 163954
10 | 36:26.05 | 4:08.38 | 163955 | 182592
11 | 40:34.43 | 3:43.65 | 182593 | 199382
12 | 44:18.33 | 3:09.63 | 199383 | 213620
13 | 47:28.21 | 3:56.19 | 213621 | 231339
14 | 51:24.40 | 4:08.67 | 231340 | 250006
15 | 55:33.32 | 3:16.02 | 250007 | 264708
16 | 58:49.34 | 3:50.34 | 264709 | 281992
17 | 62:39.68 | 4:19.35 | 281993 | 301452
18 | 66:59.28 | 4:03.69 | 301453 | 319746
19 | 71:03.22 | 3:27.05 | 319747 | 335276
20 | 74:30.27 | 3:08.59 | 335277 | 349435

Range status and errors

Selected range

Filename G:\lossless-room.nnm.ru\Various - Electro Swing\Various - Electro Swing.wav

Peak level 97.7 %
Range quality 99.9 %
Test CRC 1FBECEB4
Copy CRC 1FBECEB4
Copy OK

No errors occurred

AccurateRip summary

Track 1 not present in database
Track 2 not present in database
Track 3 not present in database
Track 4 not present in database
Track 5 not present in database
Track 6 not present in database
Track 7 not present in database
Track 8 not present in database
Track 9 not present in database
Track 10 not present in database
Track 11 not present in database
Track 12 not present in database
Track 13 not present in database
Track 14 not present in database
Track 15 not present in database
Track 16 not present in database
Track 17 not present in database
Track 18 not present in database
Track 19 not present in database
Track 20 not present in database

None of the tracks are present in the AccurateRip database

End of status report
REM GENRE Swing
REM DATE 2009
REM PLACE lossless-room.nnm.ru
REM DISCID 1A123314
REM COMMENT "ExactAudioCopy v0.99pb4"
PERFORMER "Various"
TITLE "Electro Swing"
FILE "Various - Electro Swing.flac" WAVE
TRACK 01 AUDIO
TITLE "Jolie Coquine"
PERFORMER "Caravan Palace"
INDEX 01 00:00:00
TRACK 02 AUDIO
TITLE "Get A Move On"
PERFORMER "Mr Scruff"
INDEX 01 03:43:38
TRACK 03 AUDIO
TITLE "Artichaut"
PERFORMER "Chinese Man"
INDEX 01 07:07:37
TRACK 04 AUDIO
TITLE "Minor Swing"
PERFORMER "Belleruche"
INDEX 01 11:31:13
TRACK 05 AUDIO
TITLE "Revue Noire (Instrumental)"
PERFORMER "Nicolas Repac"
INDEX 01 15:38:02
TRACK 06 AUDIO
TITLE "Libella Swing"
PERFORMER "Parov Stelar"
INDEX 01 19:11:47
TRACK 07 AUDIO
TITLE "Pick Up 52's"
PERFORMER "Mestizo & Mike Gao"
INDEX 01 23:55:32
TRACK 08 AUDIO
TITLE "Scratch Marchin'"
PERFORMER "Kormac"
INDEX 01 27:27:34
TRACK 09 AUDIO
TITLE "Hip Hip Chin Chin (Maxim Illion Mix)"
PERFORMER "Club Des Belugas"
INDEX 01 30:49:29
TRACK 10 AUDIO
TITLE "I Want A Little Doggie (Remix)"
PERFORMER "Lena Horne"
INDEX 01 36:26:05
TRACK 11 AUDIO
TITLE "Jazzhole"
PERFORMER "Free The Robots"
INDEX 01 40:34:43
TRACK 12 AUDIO
TITLE "La Voix Humaine"
PERFORMER "G-Swing feat. Le Major Melon"
INDEX 01 44:18:33
TRACK 13 AUDIO
TITLE "Cinnamon Girl"
PERFORMER "[Dunkelbunt] feat. Boban I Marko Markovic Orkestar"
INDEX 01 47:28:21
TRACK 14 AUDIO
TITLE "The Mambo Craze"
PERFORMER "De-Phazz"
INDEX 01 51:24:40
TRACK 15 AUDIO
TITLE "Hello Joe"
PERFORMER "Vono Box"
INDEX 01 55:33:32
TRACK 16 AUDIO
TITLE "Memories"
PERFORMER "Waldeck"
INDEX 01 58:49:34
TRACK 17 AUDIO
TITLE "Hold The Night"
PERFORMER "Lyre Le Temps"
INDEX 01 62:39:68
TRACK 18 AUDIO
TITLE "Puttin' On The Ritz (Club Des Belugas Remix)"
PERFORMER "Fred Astaire"
INDEX 01 66:59:28
TRACK 19 AUDIO
TITLE "Fragment Eight... The Sound Of Swing"
PERFORMER "Kenneth Bager feat. The Hellerup Cool School Choir"
INDEX 01 71:03:22
TRACK 20 AUDIO
TITLE "Belleville Rendez-vous"
PERFORMER "-M-"
INDEX 01 74:30:27


Трекер:  [ 05-Мар-2011 15:29 ]

  

Скачать .torrent

Размер .torrent файла 22 KB


Размер: 519 MB
Хэш (hash) релиза: fb1956a70932c7836c88156d3333524f1bfea0c0

Торренты, похожие на VA - Electro Swing - 2009, FLAC скачать торрент

Форум Название Автор Размер S L Добавлен
Jazz, Blues (lossless) ·· (Swing, Electro, Broken Beat) VA - Electro Swing Vol.2 - 2009, FLAC (image+.cue), lossless L 554583920529 MB 0 0 1299327966

15:26

5-Мар-11

Электронная музыка (lossless) ·· (Electro Swing, Nu Jazz) [CD] VA - White Mink : Black Cotton (2CD) - 2009, FLAC (image+.cue), lossless Galfimbul 582683882556 MB 0 0 1482296958

08:09

21-Дек-16

Еще никто не оставлял запись к записи скачать торрент VA - Electro Swing - 2009, FLAC . Будь первым!

!Обратная связь