Скачать через торрент музыку VA - Electro Swing Vol.2 - 2009, FLAC бесплатно без регистрации torrent

Если у вас наблюдаются проблемы со скриншотами, переходом по ссылками, скачиванием торрентов - проблемы в блокировщике рекламы AdBlock. #хорошегоДня!


Статистика раздачи
Размер:  529 MB   |    Зарегистрирован:  6 лет 7 месяцев   |    .torrent скачан:  74 раза   |   
Раздают:  1  
   
Загрузка...
 
Автор Сообщение

L


VA - Electro Swing Vol.2
Жанр: Swing, Electro, Broken Beat
Год выпуска диска: 2009
Производитель диска: Wagram Music
Аудио кодек: FLAC
Тип рипа: image+.cue
Битрейт аудио: lossless
Продолжительность: 77:39


Трэклист:
01. Wax Tailor feat A.s.m - Say Yes
02. Gabin - Doo Uap, Doo Uap, Doo Uap
03. Nekta - Here's Us
04. Caravan Palace - Dragons
05. Movits ! - Appelknyckarjazz
06. Palov & Mishkin - Et De Clarinette
07. Rube & Dusty - Big Band Jump
08. Analogik - Gypsy Doodle
09. Der Dritte Raum - Swing Bop
10. Funky feat Lei-An & Xanton Blacq - 1947
11. Ella Fitzgerald - Air Mail Special (Club Des Belugas Remix)
12. The Correspondents - Washington Square
13. Tim Tim - Rum'n'cocacola (Shake It Up Well)
14. Spark Arrester - Jazz Pearl (Blend aka Mishkin Remix)
15. Benny Berigan - Snake Charmer
16. Unkle Ho - Kindergarten (Rube Remix)
17. Tape Live - Bad Boy Good Man
18. The Basement Boys Present Mudfoot Jones - Swingin
19. Parov Stelar - Catgroove
20. Lyre Le Temps - Sweet Sugar Swing
REM GENRE Electronic
REM DATE 2009
REM PLACE http://lossless-room.moole.ru
REM DISCID 23114D14
REM COMMENT "ExactAudioCopy v0.99pb4"
PERFORMER "Various"
TITLE "ElectroSwing II"
FILE "Various - ElectroSwing II.flac" WAVE
TRACK 01 AUDIO
TITLE "Say Yes"
PERFORMER "Wax Tailor Feat A.S.M."
INDEX 01 00:00:00
TRACK 02 AUDIO
TITLE "Doo Uap, Doo Uap, Doo Uap"
PERFORMER "Gabin"
INDEX 01 03:38:43
TRACK 03 AUDIO
TITLE "Here's Us"
PERFORMER "Nekta"
INDEX 01 07:23:74
TRACK 04 AUDIO
TITLE "Dragons"
PERFORMER "Caravan Palace"
INDEX 01 10:10:19
TRACK 05 AUDIO
TITLE "Appelknyckarjazz"
PERFORMER "Movits!"
INDEX 01 13:53:47
TRACK 06 AUDIO
TITLE "Et De Clarinette"
PERFORMER "Palov & Mishkin"
INDEX 01 17:01:56
TRACK 07 AUDIO
TITLE "Big Band Jump"
PERFORMER "Rube & Dusty"
INDEX 01 20:16:44
TRACK 08 AUDIO
TITLE "Gypsy Doodle"
PERFORMER "Analogik"
INDEX 01 24:54:61
TRACK 09 AUDIO
TITLE "Swing Bop"
PERFORMER "Der Dritte Raum"
INDEX 01 27:48:44
TRACK 10 AUDIO
TITLE "1947"
PERFORMER "Funky DL Feat. Lei-An & Xanton Blacq"
INDEX 01 31:20:58
TRACK 11 AUDIO
TITLE "Air Mail Special (Club Des Belugas Remix)"
PERFORMER "Ella Fitzgerald"
INDEX 01 35:56:04
TRACK 12 AUDIO
TITLE "Washington Square"
PERFORMER "The Correspondents"
INDEX 01 40:29:51
TRACK 13 AUDIO
TITLE "Rum'n'cocacola (Shake It Up Well)"
PERFORMER "Tim Tim"
INDEX 01 43:58:18
TRACK 14 AUDIO
TITLE "Jazz Pearl (Blend Aka Mishkin Remix)"
PERFORMER "Spark Arrester"
INDEX 01 46:53:51
TRACK 15 AUDIO
TITLE "Snake Charmer"
PERFORMER "Benny Berigan"
INDEX 01 49:57:30
TRACK 16 AUDIO
TITLE "Kindergarten (Rube Remix)"
PERFORMER "Unkle Ho"
INDEX 01 55:01:32
TRACK 17 AUDIO
TITLE "Bad Boy Good Man"
PERFORMER "Tape Five"
INDEX 01 58:44:31
TRACK 18 AUDIO
TITLE "Swingin"
PERFORMER "The Basement Boys present Mudfoot Jones"
INDEX 01 62:55:14
TRACK 19 AUDIO
TITLE "Catgroove"
PERFORMER "Parov Stelar"
INDEX 01 65:54:56
TRACK 20 AUDIO
TITLE "Sweet Sugar Swing"
PERFORMER "Lyre Le Temps"
INDEX 01 69:45:33
REM COMMENT http://lossless-room.moole.ru
EAC extraction logfile
Exact Audio Copy V0.99 prebeta 4 from 23. January 2008

EAC extraction logfile from 17. December 2009, 18:12

Various / ElectroSwing II

Used drive : PIONEER DVD-RW DVR-112D Adapter: 1 ID: 0

Read mode : Secure
Utilize accurate stream : Yes
Defeat audio cache : Yes
Make use of C2 pointers : No

Read offset correction : 48
Overread into Lead-In and Lead-Out : No
Fill up missing offset samples with silence : Yes
Delete leading and trailing silent blocks : No
Null samples used in CRC calculations : Yes
Used interface : Installed external ASPI interface

Used output format : User Defined Encoder
Selected bitrate : 192 kBit/s
Quality : Low
Add ID3 tag : Yes
Command line compressor : C:\Program Files\E A C Audio\Flac\flac.exe
Additional command line options : -V -8 -T "artist=%a" -T "title=%t" -T "album=%g" -T "date=%y" -T "tracknumber=%n" -T "genre=%m" %s

TOC of the extracted CD

Track | Start | Length | Start sector | End sector
---------------------------------------------------------
1 | 0:00.00 | 3:38.43 | 0 | 16392
2 | 3:38.43 | 3:45.31 | 16393 | 33298
3 | 7:23.74 | 2:46.20 | 33299 | 45768
4 | 10:10.19 | 3:43.28 | 45769 | 62521
5 | 13:53.47 | 3:08.09 | 62522 | 76630
6 | 17:01.56 | 3:14.63 | 76631 | 91243
7 | 20:16.44 | 4:38.17 | 91244 | 112110
8 | 24:54.61 | 2:53.58 | 112111 | 125143
9 | 27:48.44 | 3:32.14 | 125144 | 141057
10 | 31:20.58 | 4:35.21 | 141058 | 161703
11 | 35:56.04 | 4:33.47 | 161704 | 182225
12 | 40:29.51 | 3:28.42 | 182226 | 197867
13 | 43:58.18 | 2:55.33 | 197868 | 211025
14 | 46:53.51 | 3:03.54 | 211026 | 224804
15 | 49:57.30 | 5:04.02 | 224805 | 247606
16 | 55:01.32 | 3:42.74 | 247607 | 264330
17 | 58:44.31 | 4:10.58 | 264331 | 283138
18 | 62:55.14 | 2:59.42 | 283139 | 296605
19 | 65:54.56 | 3:50.52 | 296606 | 313907
20 | 69:45.33 | 4:03.57 | 313908 | 332189

Range status and errors

Selected range

Filename G:\tvixhd1\lossless-room.moole.ru\_Various - ElectroSwing II\Various - ElectroSwing II.wav

Peak level 100.0 %
Range quality 99.9 %
Test CRC 9B2B3651
Copy CRC 9B2B3651
Copy OK

No errors occurred

AccurateRip summary

Track 1 not present in database
Track 2 not present in database
Track 3 not present in database
Track 4 not present in database
Track 5 not present in database
Track 6 not present in database
Track 7 not present in database
Track 8 not present in database
Track 9 not present in database
Track 10 not present in database
Track 11 not present in database
Track 12 not present in database
Track 13 not present in database
Track 14 not present in database
Track 15 not present in database
Track 16 not present in database
Track 17 not present in database
Track 18 not present in database
Track 19 not present in database
Track 20 not present in database

None of the tracks are present in the AccurateRip database

End of status report


Трекер:  [ 05-Мар-2011 15:26 ]

  

Скачать .torrent

Размер .torrent файла 11 KB


Размер: 529 MB
Хэш (hash) релиза: 17ec50c7e7e879eefaf7fab9fddafc227ede0215

Еще никто не оставлял запись к записи скачать торрент VA - Electro Swing Vol.2 - 2009, FLAC . Будь первым!

!Обратная связь