Скачать через торрент музыку VA - Electro Swing Vol.3 - 2010, FLAC бесплатно без регистрации torrent

Если у вас наблюдаются проблемы со скриншотами, переходом по ссылками, скачиванием торрентов - проблемы в блокировщике рекламы AdBlock. #хорошегоДня!


Статистика раздачи
Размер:  490 MB   |    Зарегистрирован:  6 лет 7 месяцев   |    .torrent скачан:  75 раз   |   
Раздают:  1  
   
Загрузка...
 
Автор Сообщение

L


VA - Electro Swing Vol.3
Жанр: Swing, Nu Jazz, Lo-Fi
Год выпуска диска: 2010
Производитель диска: Wagram
Аудио кодек: FLAC
Тип рипа: tracks+cue
Битрейт аудио: lossless
Продолжительность: 74:08


Трэклист:
01 - Prosschai (Minimatic Remix) - Artie Shaw
02 - Madame Coquette (Aerophon Mix) - Tape Five feat.Yuliet Topaz
03 - A Tisket A Tasket (Slone Remix) - Digital Emotions
04 - Fel Del Av Garden - Movits!
05 - Vive Le Swing (Gabin Brassy Remix) - In-Grid
06 - Dirty Honkers- Ginger Bread Man
07 - Dixie Biscuit (42 Smiles Remix) - Tape Five
08 - All Aboard - Iain MacKenzie
09 - I'Ve Got That Tune - Chinese Man
10 - Tweet - Merdan Taplak
11 - Daddy - Swing Republic feat. Sammy Kaye
12 - Cheek To Cheek - Dj Disse & Betina Bager feat. Fred Astaire
13 - Eurodans - New Mjondalen Disco Swingers
14 - The Phantom (1930 Swing Version) - Parov Stelar
15 - Hand Brake Jam - Jem Stone
16 - Dibilidong - The Sweet Life Society feat. Ella Fitzgerald
17 - Douai Charleston - 6u5
18 - Communication (Sleazy Listening Remix) - Bart & Baker feat. Slim Gaillard
19 - Singing In The Rain (Love Baby) - Betina Bager
20 - Ended With The Night - Caravan Palace
EAC
Exact Audio Copy V0.99 prebeta 5 from 4. May 2009

EAC extraction logfile from 12. November 2010, 18:38

Various / Electro Swing 3

Used drive : TSSTcorpCDDVDW SH-S223F Adapter: 1 ID: 1

Read mode : Secure
Utilize accurate stream : Yes
Defeat audio cache : Yes
Make use of C2 pointers : No

Read offset correction : 6
Overread into Lead-In and Lead-Out : No
Fill up missing offset samples with silence : Yes
Delete leading and trailing silent blocks : No
Null samples used in CRC calculations : Yes
Used interface : Native Win32 interface for Win NT & 2000
Gap handling : Appended to previous track

Used output format : User Defined Encoder
Selected bitrate : 1024 kBit/s
Quality : High
Add ID3 tag : No
Command line compressor : C:\Program Files\Exact Audio Copy\Flac\flac.exe
Additional command line options : -V -8 -T "artist=%a" -T "title=%t" -T "album=%g" -T "date=%y" -T "tracknumber=%n" -T "genre=%m" %s

TOC of the extracted CD

Track | Start | Length | Start sector | End sector
---------------------------------------------------------
1 | 0:00.00 | 4:02.61 | 0 | 18210
2 | 4:02.61 | 3:26.63 | 18211 | 33723
3 | 7:29.49 | 3:47.65 | 33724 | 50813
4 | 11:17.39 | 4:06.58 | 50814 | 69321
5 | 15:24.22 | 4:09.09 | 69322 | 88005
6 | 19:33.31 | 3:45.68 | 88006 | 104948
7 | 23:19.24 | 3:43.55 | 104949 | 121728
8 | 27:03.04 | 4:09.14 | 121729 | 140417
9 | 31:12.18 | 4:26.02 | 140418 | 160369
10 | 35:38.20 | 3:29.45 | 160370 | 176089
11 | 39:07.65 | 3:23.66 | 176090 | 191380
12 | 42:31.56 | 3:24.47 | 191381 | 206727
13 | 45:56.28 | 4:15.21 | 206728 | 225873
14 | 50:11.49 | 4:33.57 | 225874 | 246405
15 | 54:45.31 | 3:13.53 | 246406 | 260933
16 | 57:59.09 | 2:43.01 | 260934 | 273159
17 | 60:42.10 | 3:20.50 | 273160 | 288209
18 | 64:02.60 | 3:00.33 | 288210 | 301742
19 | 67:03.18 | 4:15.45 | 301743 | 320912
20 | 71:18.63 | 3:00.26 | 320913 | 334438

Track 1

Filename C:\EAC\Electro Swing 3 (2010) - FLAC\01 - Artie Shaw - Prosschai (Minimatic Remix).wav

Pre-gap length 0:00:02.00

Peak level 97.7 %
Track quality 100.0 %
Test CRC 42C48609
Copy CRC 42C48609
Track not present in AccurateRip database
Copy OK

Track 2

Filename C:\EAC\Electro Swing 3 (2010) - FLAC\02 - Tape Five feat.Yuliet Topaz - Madame Coquette (Aerophon Mix).wav

Peak level 97.7 %
Track quality 100.0 %
Test CRC 9569F21D
Copy CRC 9569F21D
Track not present in AccurateRip database
Copy OK

Track 3

Filename C:\EAC\Electro Swing 3 (2010) - FLAC\03 - Digital Emotions - A Tisket A Tasket (Slone Remix).wav

Peak level 97.7 %
Track quality 100.0 %
Test CRC 48F70F31
Copy CRC 48F70F31
Track not present in AccurateRip database
Copy OK

Track 4

Filename C:\EAC\Electro Swing 3 (2010) - FLAC\04 - Movits! - Fel Del Av Garden.wav

Peak level 97.7 %
Track quality 100.0 %
Test CRC 79219FD7
Copy CRC 79219FD7
Track not present in AccurateRip database
Copy OK

Track 5

Filename C:\EAC\Electro Swing 3 (2010) - FLAC\05 - In-Grid - Vive Le Swing (Gabin Brassy Remix).wav

Peak level 97.7 %
Track quality 100.0 %
Test CRC C2891C17
Copy CRC C2891C17
Track not present in AccurateRip database
Copy OK

Track 6

Filename C:\EAC\Electro Swing 3 (2010) - FLAC\06 - Dirty Honkers- Ginger Bread Man - Dirty Honkers- Ginger Bread Man.wav

Peak level 97.7 %
Track quality 100.0 %
Test CRC 600E6566
Copy CRC 600E6566
Track not present in AccurateRip database
Copy OK

Track 7

Filename C:\EAC\Electro Swing 3 (2010) - FLAC\07 - Tape Five - Dixie Biscuit (42 Smiles Remix).wav

Peak level 97.7 %
Track quality 100.0 %
Test CRC ABAFD2C2
Copy CRC ABAFD2C2
Track not present in AccurateRip database
Copy OK

Track 8

Filename C:\EAC\Electro Swing 3 (2010) - FLAC\08 - Iain MacKenzie - All Aboard.wav

Peak level 97.7 %
Track quality 100.0 %
Test CRC 7F0C6B09
Copy CRC 7F0C6B09
Track not present in AccurateRip database
Copy OK

Track 9

Filename C:\EAC\Electro Swing 3 (2010) - FLAC\09 - Chinese Man - I'Ve Got That Tune.wav

Peak level 97.7 %
Track quality 100.0 %
Test CRC 4783E9AC
Copy CRC 4783E9AC
Track not present in AccurateRip database
Copy OK

Track 10

Filename C:\EAC\Electro Swing 3 (2010) - FLAC\10 - Merdan Taplak - Tweet.wav

Peak level 97.7 %
Track quality 100.0 %
Test CRC E9113A87
Copy CRC E9113A87
Track not present in AccurateRip database
Copy OK

Track 11

Filename C:\EAC\Electro Swing 3 (2010) - FLAC\11 - Swing Republic feat. Sammy Kaye - Daddy.wav

Peak level 97.7 %
Track quality 99.9 %
Test CRC E26A4EE4
Copy CRC E26A4EE4
Track not present in AccurateRip database
Copy OK

Track 12

Filename C:\EAC\Electro Swing 3 (2010) - FLAC\12 - Dj Disse & Betina Bager feat. Fred Astaire - Cheek To Cheek.wav

Peak level 97.7 %
Track quality 100.0 %
Test CRC 5C637CBF
Copy CRC 5C637CBF
Track not present in AccurateRip database
Copy OK

Track 13

Filename C:\EAC\Electro Swing 3 (2010) - FLAC\13 - New Mjondalen Disco Swingers - Eurodans.wav

Peak level 89.5 %
Track quality 100.0 %
Test CRC CE6C7641
Copy CRC CE6C7641
Track not present in AccurateRip database
Copy OK

Track 14

Filename C:\EAC\Electro Swing 3 (2010) - FLAC\14 - Parov Stelar - The Phantom (1930 Swing Version).wav

Peak level 97.7 %
Track quality 100.0 %
Test CRC 05DEF2E3
Copy CRC 05DEF2E3
Track not present in AccurateRip database
Copy OK

Track 15

Filename C:\EAC\Electro Swing 3 (2010) - FLAC\15 - Jem Stone - Hand Brake Jam.wav

Peak level 97.7 %
Track quality 100.0 %
Test CRC 5DEBE74C
Copy CRC 5DEBE74C
Track not present in AccurateRip database
Copy OK

Track 16

Filename C:\EAC\Electro Swing 3 (2010) - FLAC\16 - The Sweet Life Society feat. Ella Fitzgerald - Dibilidong.wav

Peak level 97.7 %
Track quality 99.9 %
Test CRC 3749B775
Copy CRC 3749B775
Track not present in AccurateRip database
Copy OK

Track 17

Filename C:\EAC\Electro Swing 3 (2010) - FLAC\17 - 6u5 - Douai Charleston.wav

Peak level 97.7 %
Track quality 100.0 %
Test CRC E4B11E89
Copy CRC E4B11E89
Track not present in AccurateRip database
Copy OK

Track 18

Filename C:\EAC\Electro Swing 3 (2010) - FLAC\18 - Bart & Baker feat. Slim Gaillard - Communication (Sleazy Listening Remix).wav

Peak level 97.7 %
Track quality 100.0 %
Test CRC 09745F6E
Copy CRC 09745F6E
Track not present in AccurateRip database
Copy OK

Track 19

Filename C:\EAC\Electro Swing 3 (2010) - FLAC\19 - Betina Bager - Singing In The Rain (Love Baby).wav

Peak level 97.7 %
Track quality 100.0 %
Test CRC 7326C465
Copy CRC 7326C465
Track not present in AccurateRip database
Copy OK

Track 20

Filename C:\EAC\Electro Swing 3 (2010) - FLAC\20 - Caravan Palace - Ended With The Night.wav

Peak level 95.3 %
Track quality 99.9 %
Test CRC 5AC95001
Copy CRC 5AC95001
Track not present in AccurateRip database
Copy OK

None of the tracks are present in the AccurateRip database

No errors occurred

End of status report
CUE
REM DATE 2010
REM DISCID 1A116B14
REM COMMENT "ExactAudioCopy v0.99pb5"
PERFORMER "Various"
TITLE "Electro Swing 3"
FILE "01 - Artie Shaw - Prosschai (Minimatic Remix).wav" WAVE
TRACK 01 AUDIO
TITLE "Prosschai (Minimatic Remix)"
PERFORMER "Artie Shaw"
INDEX 01 00:00:00
FILE "02 - Tape Five feat.Yuliet Topaz - Madame Coquette (Aerophon Mix).wav" WAVE
TRACK 02 AUDIO
TITLE "Madame Coquette (Aerophon Mix)"
PERFORMER "Tape Five feat.Yuliet Topaz"
INDEX 01 00:00:00
FILE "03 - Digital Emotions - A Tisket A Tasket (Slone Remix).wav" WAVE
TRACK 03 AUDIO
TITLE "A Tisket A Tasket (Slone Remix)"
PERFORMER "Digital Emotions"
INDEX 01 00:00:00
FILE "04 - Movits! - Fel Del Av Garden.wav" WAVE
TRACK 04 AUDIO
TITLE "Fel Del Av Garden"
PERFORMER "Movits!"
INDEX 01 00:00:00
FILE "05 - In-Grid - Vive Le Swing (Gabin Brassy Remix).wav" WAVE
TRACK 05 AUDIO
TITLE "Vive Le Swing (Gabin Brassy Remix)"
PERFORMER "In-Grid"
INDEX 01 00:00:00
FILE "06 - Dirty Honkers - Ginger Bread Man.wav" WAVE
TRACK 06 AUDIO
TITLE "Dirty Honkers- Ginger Bread Man"
PERFORMER "Dirty Honkers- Ginger Bread Man"
INDEX 01 00:00:00
FILE "07 - Tape Five - Dixie Biscuit (42 Smiles Remix).wav" WAVE
TRACK 07 AUDIO
TITLE "Dixie Biscuit (42 Smiles Remix)"
PERFORMER "Tape Five"
INDEX 01 00:00:00
FILE "08 - Iain MacKenzie - All Aboard.wav" WAVE
TRACK 08 AUDIO
TITLE "All Aboard"
PERFORMER "Iain MacKenzie"
INDEX 01 00:00:00
FILE "09 - Chinese Man - I'Ve Got That Tune.wav" WAVE
TRACK 09 AUDIO
TITLE "I'Ve Got That Tune"
PERFORMER "Chinese Man"
INDEX 01 00:00:00
FILE "10 - Merdan Taplak - Tweet.wav" WAVE
TRACK 10 AUDIO
TITLE "Tweet"
PERFORMER "Merdan Taplak"
INDEX 01 00:00:00
FILE "11 - Swing Republic feat. Sammy Kaye - Daddy.wav" WAVE
TRACK 11 AUDIO
TITLE "Daddy"
PERFORMER "Swing Republic feat. Sammy Kaye"
INDEX 01 00:00:00
FILE "12 - Dj Disse & Betina Bager feat. Fred Astaire - Cheek To Cheek.wav" WAVE
TRACK 12 AUDIO
TITLE "Cheek To Cheek"
PERFORMER "Dj Disse & Betina Bager feat. Fred Astaire"
INDEX 01 00:00:00
FILE "13 - New Mjondalen Disco Swingers - Eurodans.wav" WAVE
TRACK 13 AUDIO
TITLE "Eurodans"
PERFORMER "New Mjondalen Disco Swingers"
INDEX 01 00:00:00
FILE "14 - Parov Stelar - The Phantom (1930 Swing Version).wav" WAVE
TRACK 14 AUDIO
TITLE "The Phantom (1930 Swing Version)"
PERFORMER "Parov Stelar"
INDEX 01 00:00:00
FILE "15 - Jem Stone - Hand Brake Jam.wav" WAVE
TRACK 15 AUDIO
TITLE "Hand Brake Jam"
PERFORMER "Jem Stone"
INDEX 01 00:00:00
FILE "16 - The Sweet Life Society feat. Ella Fitzgerald - Dibilidong.wav" WAVE
TRACK 16 AUDIO
TITLE "Dibilidong"
PERFORMER "The Sweet Life Society feat. Ella Fitzgerald"
INDEX 01 00:00:00
FILE "17 - 6u5 - Douai Charleston.wav" WAVE
TRACK 17 AUDIO
TITLE "Douai Charleston"
PERFORMER "6u5"
INDEX 01 00:00:00
FILE "18 - Bart & Baker feat. Slim Gaillard - Communication (Sleazy Listening Remix).wav" WAVE
TRACK 18 AUDIO
TITLE "Communication (Sleazy Listening Remix)"
PERFORMER "Bart & Baker feat. Slim Gaillard"
INDEX 01 00:00:00
FILE "19 - Betina Bager - Singing In The Rain (Love Baby).wav" WAVE
TRACK 19 AUDIO
TITLE "Singing In The Rain (Love Baby)"
PERFORMER "Betina Bager"
INDEX 01 00:00:00
FILE "20 - Caravan Palace - Ended With The Night.wav" WAVE
TRACK 20 AUDIO
TITLE "Ended With The Night"
PERFORMER "Caravan Palace"
INDEX 01 00:00:00


Трекер:  [ 05-Мар-2011 15:23 ]

  

Скачать .torrent

Размер .torrent файла 22 KB


Размер: 490 MB
Хэш (hash) релиза: 258eabd7a9a9b6ac48a628277d38e75dd0173b47

Еще никто не оставлял запись к записи скачать торрент VA - Electro Swing Vol.3 - 2010, FLAC . Будь первым!

!Обратная связь