Скачать через торрент музыку V.A. - Bar Tunes 4 бесплатно без регистрации torrent

Если у вас наблюдаются проблемы со скриншотами, переходом по ссылками, скачиванием торрентов - проблемы в блокировщике рекламы AdBlock. #хорошегоДня!


Статистика раздачи
Размер:  433 MB   |    Зарегистрирован:  6 лет 7 месяцев   |    .torrent скачан:  54 раза   |   
Раздают:  1  
   
Загрузка...
 
Автор Сообщение

L


V.A. - Bar Tunes 4
Jazz Flavoured Edition
Жанр: Nu Jazz | Lounge | Bossa | Broken Beat
Год выпуска диска: 2009
Производитель диска: ChinChin Records™
Аудио кодек: FLAC
Тип рипа: image+.cue
Битрейт аудио: ~ 933 kbit/s
Продолжительность: 63' 11" min


Трэклист:
01. Lack Of Afro — The Outsider
02. Club Des Belugas — What Is Jazz (Tape Five Remix)
03. Brenda Boykin — Hard Swing Travellin' Man
04. Jazbeat — I Love You Baby
05. G Swing Feat Ania Chow — Sing Sing Sing
06. Kenneth Bager — Fragment Eight... The Sound Of Swing
07. Smoove Starring Jess Roberts — Coming Back (7' Edit)
08. Boogalox — Chez Les Ye-Ye
09. Samp Brothers — Jazz Di Mezzaluna (Radio Mix)
10. Jazz Juice — Come On
11. Bebo Best & The Super Lounge Orchestra — D'Jazzonga
12. The Bahama Soul Club Feat Pat Appleton — Sugar Cane (Lack Of Afro Remix)
13. Mo' Horizons — Lovely Day Today (Jazz Juice Remix)
14. Tape Five — Club De Cigale
15. Ray Harris And The Fusion Experience — One Of A Kind
16. Nice — Nice!
Exact Audio Copy V0.99 prebeta 4 from 23. January 2008

EAC extraction logfile from 15. March 2009, 13:03

Various / Bar Tunes 4 (Jazz Flavoured Edition)

Used drive : _NEC DVD_RW ND-4570A Adapter: 1 ID: 1

Read mode : Secure
Utilize accurate stream : Yes
Defeat audio cache : Yes
Make use of C2 pointers : No

Read offset correction : 48
Overread into Lead-In and Lead-Out : No
Fill up missing offset samples with silence : Yes
Delete leading and trailing silent blocks : No
Null samples used in CRC calculations : Yes
Used interface : Installed external ASPI interface

Used output format : User Defined Encoder
Selected bitrate : 192 kBit/s
Quality : Low
Add ID3 tag : No
Command line compressor : C:\Program Files\E A C Audio\Flac\flac.exe
Additional command line options : -V -8 -T "artist=%a" -T "title=%t" -T "album=%g" -T "date=%y" -T "tracknumber=%n" -T "genre=%m" %s

TOC of the extracted CD

Track | Start | Length | Start sector | End sector
---------------------------------------------------------
1 | 0:00.00 | 3:49.26 | 0 | 17200
2 | 3:49.26 | 4:41.70 | 17201 | 38345
3 | 8:31.21 | 4:57.69 | 38346 | 60689
4 | 13:29.15 | 3:22.56 | 60690 | 75895
5 | 16:51.71 | 3:11.57 | 75896 | 90277
6 | 20:03.53 | 3:30.65 | 90278 | 106092
7 | 23:34.43 | 3:07.69 | 106093 | 120186
8 | 26:42.37 | 4:32.03 | 120187 | 140589
9 | 31:14.40 | 5:17.02 | 140590 | 164366
10 | 36:31.42 | 3:55.20 | 164367 | 182011
11 | 40:26.62 | 4:55.22 | 182012 | 204158
12 | 45:22.09 | 4:32.63 | 204159 | 224621
13 | 49:54.72 | 5:13.32 | 224622 | 248128
14 | 55:08.29 | 3:54.16 | 248129 | 265694
15 | 59:02.45 | 4:04.04 | 265695 | 283998
16 | 63:06.49 | 0:04.00 | 283999 | 284298

Range status and errors

Selected range

Filename G:\Various - Bar Tunes 4 (Jazz Flavoured Edition)\Various - Bar Tunes 4 (Jazz Flavoured Edition).wav

Peak level 100.0 %
Range quality 100.0 %
Test CRC 480C319C
Copy CRC 480C319C
Copy OK

No errors occurred

End of status report
REM GENRE "Nu Jazz"
REM DATE 2009
REM PLACE http://lossless-room.nnm.ru
REM DISCID CE0ECE10
REM COMMENT "ExactAudioCopy v0.99pb4"
PERFORMER "Various"
TITLE "Bar Tunes 4 (Jazz Flavoured Edition)"
FILE "Various - Bar Tunes 4 (Jazz Flavoured Edition).flac" WAVE
TRACK 01 AUDIO
TITLE "The Outsider"
PERFORMER "Lack Of Afro"
FLAGS DCP
INDEX 01 00:00:00
TRACK 02 AUDIO
TITLE "What Is Jazz (Tape Five Remix)"
PERFORMER "Club Des Belugas"
FLAGS DCP
INDEX 00 03:47:26
INDEX 01 03:49:26
TRACK 03 AUDIO
TITLE "Hard Swing Travellin' Man"
PERFORMER "Brenda Boykin"
FLAGS DCP
INDEX 00 08:29:21
INDEX 01 08:31:21
TRACK 04 AUDIO
TITLE "I Love You Baby"
PERFORMER "Jazbeat"
FLAGS DCP
INDEX 00 13:27:15
INDEX 01 13:29:15
TRACK 05 AUDIO
TITLE "Sing Sing Sing"
PERFORMER "G Swing Feat Ania Chow"
FLAGS DCP
INDEX 00 16:49:71
INDEX 01 16:51:71
TRACK 06 AUDIO
TITLE "Fragment Eight... The Sound Of Swing"
PERFORMER "Kenneth Bager"
FLAGS DCP
INDEX 00 20:01:53
INDEX 01 20:03:53
TRACK 07 AUDIO
TITLE "Coming Back (7' Edit)"
PERFORMER "Smoove Starring Jess Roberts"
FLAGS DCP
INDEX 00 23:32:43
INDEX 01 23:34:43
TRACK 08 AUDIO
TITLE "Chez Les Ye-Ye"
PERFORMER "Boogalox"
FLAGS DCP
INDEX 00 26:40:37
INDEX 01 26:42:37
TRACK 09 AUDIO
TITLE "Jazz Di Mezzaluna (Radio Mix)"
PERFORMER "Samp Brothers"
FLAGS DCP
INDEX 00 31:12:40
INDEX 01 31:14:40
TRACK 10 AUDIO
TITLE "Come On"
PERFORMER "Jazz Juice"
FLAGS DCP
INDEX 00 36:29:42
INDEX 01 36:31:42
TRACK 11 AUDIO
TITLE "D'Jazzonga"
PERFORMER "Bebo Best & The Super Lounge Orchestra"
FLAGS DCP
INDEX 00 40:24:62
INDEX 01 40:26:62
TRACK 12 AUDIO
TITLE "Sugar Cane (Lack Of Afro Remix)"
PERFORMER "The Bahama Soul Club Feat Pat Appleton"
FLAGS DCP
INDEX 00 45:20:09
INDEX 01 45:22:09
TRACK 13 AUDIO
TITLE "Lovely Day Today (Jazz Juice Remix)"
PERFORMER "Mo' Horizons"
FLAGS DCP
INDEX 00 49:52:72
INDEX 01 49:54:72
TRACK 14 AUDIO
TITLE "Club De Cigale"
PERFORMER "Tape Five"
FLAGS DCP
INDEX 00 55:06:29
INDEX 01 55:08:29
TRACK 15 AUDIO
TITLE "One Of A Kind"
PERFORMER "Ray Harris And The Fusion Experience"
FLAGS DCP
INDEX 00 59:00:45
INDEX 01 59:02:45
TRACK 16 AUDIO
TITLE "Nice!"
PERFORMER "Nice"
FLAGS DCP
INDEX 00 63:04:49
INDEX 01 63:06:49


Трекер:  [ 05-Мар-2011 15:14 ]

  

Скачать .torrent

Размер .torrent файла 35 KB


Размер: 433 MB
Хэш (hash) релиза: d0152809301e52fdd32902c9be0ddb42acdd7396

L

Как докачаются 1-3 волюмы, залью. А то на источнике скорость совсем плохая.
настоятельно рекомендую это серию любителям легкой не напрягающей музыки в стиле джаз, блюз, и их ответвлений. Отличное качество, гениальный саунд.. в общем, приятного прослушивания :)

Хотите добавить комментарий к записи скачать торрент V.A. - Bar Tunes 4

!Обратная связь