Скачать через торрент музыку VA - Jazz Boutique 2 - Sounds For The Urban Adventure бесплатно без регистрации torrent

Если у вас наблюдаются проблемы со скриншотами, переходом по ссылками, скачиванием торрентов - проблемы в блокировщике рекламы AdBlock. #хорошегоДня!


Статистика раздачи
Размер:  869 MB   |    Зарегистрирован:  6 лет 7 месяцев   |    .torrent скачан:  53 раза   |   
Раздают:  1  
   
Загрузка...
 
Автор Сообщение

L


Various Artists - Jazz Boutique 2
Sounds For The Urban Adventure
Жанр: Electronic, Jazz
Страна-производитель диска: Germany
Год издания диска: 2002
Издатель (лейбл): Luxury Lounge
Номер по каталогу: EFA 61149-2
Аудио кодек: FLAC (*.flac)
Тип рипа: tracks+.cue
Битрейт аудио: lossless
Продолжительность: 73:19 / 68:49


Треклист:
CD1:
01. Xavier Fisher Trio - Follow Me (Raw Deal Remix) (5:56)
02. Telemark - Get Enough (5:29)
03. Dublex Inc. - Tango Forte (5:01)
04. Alex Gopher & Demon Presents Vuz - Use Me (Extended Version) (7:12)
05. Ben Human - 4 U Lovers (5:55)
06. Mo' Horizons - Hit The Road Jack (Maria's Remix) (6:51)
07. Frank Popp Ensemble - Hip Teen Don't Wear Blue Jeans (On The Twelve Version) (4:40)
08. Chekov - Turntable Soul Kicks (Stereo De Luxe Remix) (4:32)
09. Tosca - Honey (Freedom Satellite Dub) (6:15)
10. Majbour - Cheops (6:02)
11. Microfish - Keen (4:26)
12. Naomi - Avenue L'Amour (4:41)
13. Skydiver - Miro (6:12)

CD2:
01. La Taverne Du Lac - Magic Single Barrel (Mo' Horizons Restyle) (6:26)
02. Alphawezen - Into The Stars (Geb.el Rework) (8:36)
03. The Maxwell Implosion - L'Homme En Peluche (Interfearance Remix) (7:25)
04. Vivid - 10000 (Hacienda's Jazz Lounge Mix) (6:38)
05. Filla Brazillia - Mother Nature's Spies (3:29)
06. Freedom Satellite & Raimund Flock - Just Relax Yourself (5:15)
07. Ocean Cruz - Bartime (5:57)
08. Brown Smith & Grey Feat. Janice - Carabonga (Hacienda Mix) (6:05)
09. Pimpie Jackson - Hey You 2 (5:22)
10. Eric Sumo - Just A Woman (5:36)
11. Doctor Jazz - First Man, Then Machine (Aeternaloop Remix) (4:19)
12. Jumbo Layer - Baton Rouge (3:41)
Exact Audio Copy V0.99 prebeta 5 from 4. May 2009

EAC extraction logfile from 22. February 2011, 10:42

Various / Jazz Boutique 2 (Sounds For The Urban Adventure) CD1

Used drive : Optiarc DVDRWBD BC-5600S Adapter: 1 ID: 0

Read mode : Secure
Utilize accurate stream : Yes
Defeat audio cache : Yes
Make use of C2 pointers : No

Read offset correction : 48
Overread into Lead-In and Lead-Out : No
Fill up missing offset samples with silence : Yes
Delete leading and trailing silent blocks : No
Null samples used in CRC calculations : Yes
Used interface : Native Win32 interface for Win NT & 2000
Gap handling : Appended to previous track

Used output format : User Defined Encoder
Selected bitrate : 128 kBit/s
Quality : High
Add ID3 tag : No
Command line compressor : C:\Program Files (x86)\FLAC\flac.exe
Additional command line options : -8 -V -T "ARTIST=%a" -T "TITLE=%t" -T "ALBUM=%g" -T "DATE=%y" -T "TRACKNUMBER=%n" -T "GENRE=%m" -T "COMMENT=Ripped By Oxcode" %s

TOC of the extracted CD

Track | Start | Length | Start sector | End sector
---------------------------------------------------------
1 | 0:00.00 | 5:56.24 | 0 | 26723
2 | 5:56.24 | 5:29.28 | 26724 | 51426
3 | 11:25.52 | 5:01.36 | 51427 | 74037
4 | 16:27.13 | 7:12.40 | 74038 | 106477
5 | 23:39.53 | 5:55.07 | 106478 | 133109
6 | 29:34.60 | 6:51.43 | 133110 | 163977
7 | 36:26.28 | 4:40.48 | 163978 | 185025
8 | 41:07.01 | 4:32.42 | 185026 | 205467
9 | 45:39.43 | 6:15.61 | 205468 | 233653
10 | 51:55.29 | 6:02.35 | 233654 | 260838
11 | 57:57.64 | 4:26.27 | 260839 | 280815
12 | 62:24.16 | 4:41.37 | 280816 | 301927
13 | 67:05.53 | 6:12.39 | 301928 | 329866

Track 1

Filename C:\ARUNO\!Rips\Jazz Boutique 2 (Sounds For The Urban Adventure)\CD1\01. Xavier Fisher Trio – Follow Me (Raw Deal Remix).wav

Pre-gap length 0:00:02.00

Peak level 81.8 %
Track quality 100.0 %
Test CRC FCF3F53C
Copy CRC FCF3F53C
Track not present in AccurateRip database
Copy OK

Track 2

Filename C:\ARUNO\!Rips\Jazz Boutique 2 (Sounds For The Urban Adventure)\CD1\02. Telemark – Get Enough.wav

Peak level 87.0 %
Track quality 99.9 %
Test CRC 96332763
Copy CRC 96332763
Track not present in AccurateRip database
Copy OK

Track 3

Filename C:\ARUNO\!Rips\Jazz Boutique 2 (Sounds For The Urban Adventure)\CD1\03. Dublex Inc. – Tango Forte.wav

Peak level 89.1 %
Track quality 99.9 %
Test CRC 087958C0
Copy CRC 087958C0
Track not present in AccurateRip database
Copy OK

Track 4

Filename C:\ARUNO\!Rips\Jazz Boutique 2 (Sounds For The Urban Adventure)\CD1\04. Alex Gopher & Demon Presents Vuz – Use Me (Extended Version).wav

Peak level 86.1 %
Track quality 100.0 %
Test CRC 112AFE7E
Copy CRC 112AFE7E
Track not present in AccurateRip database
Copy OK

Track 5

Filename C:\ARUNO\!Rips\Jazz Boutique 2 (Sounds For The Urban Adventure)\CD1\05. Ben Human – 4 U Lovers.wav

Peak level 88.0 %
Track quality 100.0 %
Test CRC 4F58AA18
Copy CRC 4F58AA18
Track not present in AccurateRip database
Copy OK

Track 6

Filename C:\ARUNO\!Rips\Jazz Boutique 2 (Sounds For The Urban Adventure)\CD1\06. Mo' Horizons – Hit The Road Jack (Maria's Remix).wav

Peak level 89.1 %
Track quality 100.0 %
Test CRC 58D7F1FA
Copy CRC 58D7F1FA
Track not present in AccurateRip database
Copy OK

Track 7

Filename C:\ARUNO\!Rips\Jazz Boutique 2 (Sounds For The Urban Adventure)\CD1\07. Frank Popp Ensemble – Hip Teen Don't Wear Blue Jeans (On The Twelve Version).wav

Peak level 81.4 %
Track quality 100.0 %
Test CRC 920917FF
Copy CRC 920917FF
Track not present in AccurateRip database
Copy OK

Track 8

Filename C:\ARUNO\!Rips\Jazz Boutique 2 (Sounds For The Urban Adventure)\CD1\08. Chekov – Turntable Soul Kicks (Stereo De Luxe Remix).wav

Peak level 84.2 %
Track quality 100.0 %
Test CRC 537D81CD
Copy CRC 537D81CD
Track not present in AccurateRip database
Copy OK

Track 9

Filename C:\ARUNO\!Rips\Jazz Boutique 2 (Sounds For The Urban Adventure)\CD1\09. Tosca – Honey (Freedom Satellite Dub).wav

Peak level 100.0 %
Track quality 100.0 %
Test CRC FED71320
Copy CRC FED71320
Track not present in AccurateRip database
Copy OK

Track 10

Filename C:\ARUNO\!Rips\Jazz Boutique 2 (Sounds For The Urban Adventure)\CD1\10. Majbour – Cheops.wav

Peak level 77.7 %
Track quality 100.0 %
Test CRC AD67A8B0
Copy CRC AD67A8B0
Track not present in AccurateRip database
Copy OK

Track 11

Filename C:\ARUNO\!Rips\Jazz Boutique 2 (Sounds For The Urban Adventure)\CD1\11. Microfish – Keen.wav

Peak level 89.1 %
Track quality 100.0 %
Test CRC 5D66A56D
Copy CRC 5D66A56D
Track not present in AccurateRip database
Copy OK

Track 12

Filename C:\ARUNO\!Rips\Jazz Boutique 2 (Sounds For The Urban Adventure)\CD1\12. Naomi – Avenue L'Amour.wav

Peak level 93.8 %
Track quality 100.0 %
Test CRC B1F093B8
Copy CRC B1F093B8
Track not present in AccurateRip database
Copy OK

Track 13

Filename C:\ARUNO\!Rips\Jazz Boutique 2 (Sounds For The Urban Adventure)\CD1\13. Skydiver – Miro.wav

Peak level 82.4 %
Track quality 100.0 %
Test CRC 204A0835
Copy CRC 204A0835
Track not present in AccurateRip database
Copy OK

None of the tracks are present in the AccurateRip database

No errors occurred

End of status report
Exact Audio Copy V0.99 prebeta 5 from 4. May 2009

EAC extraction logfile from 22. February 2011, 9:44

Various / Jazz Boutique 2 (Sounds For The Urban Adventure) CD2

Used drive : Optiarc DVDRWBD BC-5600S Adapter: 1 ID: 0

Read mode : Secure
Utilize accurate stream : Yes
Defeat audio cache : Yes
Make use of C2 pointers : No

Read offset correction : 48
Overread into Lead-In and Lead-Out : No
Fill up missing offset samples with silence : Yes
Delete leading and trailing silent blocks : No
Null samples used in CRC calculations : Yes
Used interface : Native Win32 interface for Win NT & 2000
Gap handling : Appended to previous track

Used output format : User Defined Encoder
Selected bitrate : 128 kBit/s
Quality : High
Add ID3 tag : No
Command line compressor : C:\Program Files (x86)\FLAC\flac.exe
Additional command line options : -8 -V -T "ARTIST=%a" -T "TITLE=%t" -T "ALBUM=%g" -T "DATE=%y" -T "TRACKNUMBER=%n" -T "GENRE=%m" -T "COMMENT=Ripped By Oxcode" %s

TOC of the extracted CD

Track | Start | Length | Start sector | End sector
---------------------------------------------------------
1 | 0:00.00 | 6:26.08 | 0 | 28957
2 | 6:26.08 | 8:36.21 | 28958 | 67678
3 | 15:02.29 | 7:25.51 | 67679 | 101104
4 | 22:28.05 | 6:38.39 | 101105 | 130993
5 | 29:06.44 | 3:29.49 | 130994 | 146717
6 | 32:36.18 | 5:15.13 | 146718 | 170355
7 | 37:51.31 | 5:57.44 | 170356 | 197174
8 | 43:49.00 | 6:05.19 | 197175 | 224568
9 | 49:54.19 | 5:22.74 | 224569 | 248792
10 | 55:17.18 | 5:36.08 | 248793 | 274000
11 | 60:53.26 | 4:19.45 | 274001 | 293470
12 | 65:12.71 | 3:41.72 | 293471 | 310117

Track 1

Filename C:\ARUNO\!Rips\Jazz Boutique 2 (Sounds For The Urban Adventure)\CD2\01. La Taverne Du Lac – Magic Single Barrel (Mo' Horizons Restyle).wav

Pre-gap length 0:00:02.00

Peak level 75.9 %
Track quality 100.0 %
Test CRC 1F7E7551
Copy CRC 1F7E7551
Track not present in AccurateRip database
Copy OK

Track 2

Filename C:\ARUNO\!Rips\Jazz Boutique 2 (Sounds For The Urban Adventure)\CD2\02. Alphawezen – Into The Stars (Geb.el Rework).wav

Peak level 99.4 %
Track quality 100.0 %
Test CRC 0A4E285F
Copy CRC 0A4E285F
Track not present in AccurateRip database
Copy OK

Track 3

Filename C:\ARUNO\!Rips\Jazz Boutique 2 (Sounds For The Urban Adventure)\CD2\03. The Maxwell Implosion – L'Homme En Peluche (Interfearance Remix).wav

Peak level 76.2 %
Track quality 100.0 %
Test CRC D7481ABD
Copy CRC D7481ABD
Track not present in AccurateRip database
Copy OK

Track 4

Filename C:\ARUNO\!Rips\Jazz Boutique 2 (Sounds For The Urban Adventure)\CD2\04. Vivid – 10000 (Hacienda's Jazz Lounge Mix).wav

Peak level 99.4 %
Track quality 100.0 %
Test CRC 982F4951
Copy CRC 982F4951
Track not present in AccurateRip database
Copy OK

Track 5

Filename C:\ARUNO\!Rips\Jazz Boutique 2 (Sounds For The Urban Adventure)\CD2\05. Filla Brazillia – Mother Nature's Spies.wav

Peak level 87.3 %
Track quality 100.0 %
Test CRC 9AB9AE92
Copy CRC 9AB9AE92
Track not present in AccurateRip database
Copy OK

Track 6

Filename C:\ARUNO\!Rips\Jazz Boutique 2 (Sounds For The Urban Adventure)\CD2\06. Freedom Satellite & Raimund Flock – Just Relax Yourself.wav

Peak level 68.6 %
Track quality 100.0 %
Test CRC 596BF1A8
Copy CRC 596BF1A8
Track not present in AccurateRip database
Copy OK

Track 7

Filename C:\ARUNO\!Rips\Jazz Boutique 2 (Sounds For The Urban Adventure)\CD2\07. Ocean Cruz – Bartime.wav

Peak level 77.8 %
Track quality 100.0 %
Test CRC ED4E6329
Copy CRC ED4E6329
Track not present in AccurateRip database
Copy OK

Track 8

Filename C:\ARUNO\!Rips\Jazz Boutique 2 (Sounds For The Urban Adventure)\CD2\08. Brown Smith & Grey Feat. Janice – Carabonga (Hacienda Mix).wav

Peak level 89.1 %
Track quality 99.9 %
Test CRC B9D1564C
Copy CRC B9D1564C
Track not present in AccurateRip database
Copy OK

Track 9

Filename C:\ARUNO\!Rips\Jazz Boutique 2 (Sounds For The Urban Adventure)\CD2\09. Pimpie Jackson – Hey You 2.wav

Peak level 88.2 %
Track quality 100.0 %
Test CRC 29E30AE5
Copy CRC 29E30AE5
Track not present in AccurateRip database
Copy OK

Track 10

Filename C:\ARUNO\!Rips\Jazz Boutique 2 (Sounds For The Urban Adventure)\CD2\10. Eric Sumo – Just A Woman.wav

Peak level 94.3 %
Track quality 100.0 %
Test CRC 6932F918
Copy CRC 6932F918
Track not present in AccurateRip database
Copy OK

Track 11

Filename C:\ARUNO\!Rips\Jazz Boutique 2 (Sounds For The Urban Adventure)\CD2\11. Doctor Jazz – First Man, Then Machine (Aeternaloop Remix).wav

Peak level 78.7 %
Track quality 100.0 %
Test CRC 4E488830
Copy CRC 4E488830
Track not present in AccurateRip database
Copy OK

Track 12

Filename C:\ARUNO\!Rips\Jazz Boutique 2 (Sounds For The Urban Adventure)\CD2\12. Jumbo Layer – Baton Rouge.wav

Peak level 75.0 %
Track quality 100.0 %
Test CRC DA61C9F1
Copy CRC DA61C9F1
Track not present in AccurateRip database
Copy OK

None of the tracks are present in the AccurateRip database

No errors occurred

End of status report
REM GENRE "Easy Listening"
REM DATE 2002
REM DISCID D8112E0D
REM COMMENT "ExactAudioCopy v0.99pb5"
PERFORMER "Various"
TITLE "Jazz Boutique 2 (Sounds For The Urban Adventure) CD1"
FILE "01. Xavier Fisher Trio – Follow Me (Raw Deal Remix).wav" WAVE
TRACK 01 AUDIO
TITLE "Follow Me (Raw Deal Remix)"
PERFORMER "Xavier Fisher Trio"
INDEX 01 00:00:00
FILE "02. Telemark – Get Enough.wav" WAVE
TRACK 02 AUDIO
TITLE "Get Enough"
PERFORMER "Telemark"
INDEX 01 00:00:00
FILE "03. Dublex Inc. – Tango Forte.wav" WAVE
TRACK 03 AUDIO
TITLE "Tango Forte"
PERFORMER "Dublex Inc."
INDEX 01 00:00:00
FILE "04. Alex Gopher & Demon Presents Vuz – Use Me (Extended Version).wav" WAVE
TRACK 04 AUDIO
TITLE "Use Me (Extended Version)"
PERFORMER "Alex Gopher & Demon Presents Vuz"
INDEX 01 00:00:00
FILE "05. Ben Human – 4 U Lovers.wav" WAVE
TRACK 05 AUDIO
TITLE "4 U Lovers"
PERFORMER "Ben Human"
INDEX 01 00:00:00
FILE "06. Mo' Horizons – Hit The Road Jack (Maria's Remix).wav" WAVE
TRACK 06 AUDIO
TITLE "Hit The Road Jack (Maria's Remix)"
PERFORMER "Mo' Horizons"
INDEX 01 00:00:00
FILE "07. Frank Popp Ensemble – Hip Teen Don't Wear Blue Jeans (On The Twelve Version).wav" WAVE
TRACK 07 AUDIO
TITLE "Hip Teen Don't Wear Blue Jeans (On The Twelve Version)"
PERFORMER "Frank Popp Ensemble"
INDEX 01 00:00:00
FILE "08. Chekov – Turntable Soul Kicks (Stereo De Luxe Remix).wav" WAVE
TRACK 08 AUDIO
TITLE "Turntable Soul Kicks (Stereo De Luxe Remix)"
PERFORMER "Chekov"
INDEX 01 00:00:00
FILE "09. Tosca – Honey (Freedom Satellite Dub).wav" WAVE
TRACK 09 AUDIO
TITLE "Honey (Freedom Satellite Dub)"
PERFORMER "Tosca"
INDEX 01 00:00:00
FILE "10. Majbour – Cheops.wav" WAVE
TRACK 10 AUDIO
TITLE "Cheops"
PERFORMER "Majbour"
INDEX 01 00:00:00
FILE "11. Microfish – Keen.wav" WAVE
TRACK 11 AUDIO
TITLE "Keen"
PERFORMER "Microfish"
INDEX 01 00:00:00
FILE "12. Naomi – Avenue L'Amour.wav" WAVE
TRACK 12 AUDIO
TITLE "Avenue L'Amour"
PERFORMER "Naomi"
INDEX 01 00:00:00
FILE "13. Skydiver – Miro.wav" WAVE
TRACK 13 AUDIO
TITLE "Miro"
PERFORMER "Skydiver"
INDEX 01 00:00:00
REM GENRE "Easy Listening"
REM DATE 2002
REM DISCID BE10260C
REM COMMENT "ExactAudioCopy v0.99pb5"
PERFORMER "Various"
TITLE "Jazz Boutique 2 (Sounds For The Urban Adventure) CD2"
FILE "01. La Taverne Du Lac – Magic Single Barrel (Mo' Horizons Restyle).wav" WAVE
TRACK 01 AUDIO
TITLE "Magic Single Barrel (Mo' Horizons Restyle)"
PERFORMER "La Taverne Du Lac"
INDEX 01 00:00:00
FILE "02. Alphawezen – Into The Stars (Geb.el Rework).wav" WAVE
TRACK 02 AUDIO
TITLE "Into The Stars (Geb.el Rework)"
PERFORMER "Alphawezen"
INDEX 01 00:00:00
FILE "03. The Maxwell Implosion – L'Homme En Peluche (Interfearance Remix).wav" WAVE
TRACK 03 AUDIO
TITLE "L'Homme En Peluche (Interfearance Remix)"
PERFORMER "The Maxwell Implosion"
INDEX 01 00:00:00
FILE "04. Vivid – 10000 (Hacienda's Jazz Lounge Mix).wav" WAVE
TRACK 04 AUDIO
TITLE "10000 (Hacienda's Jazz Lounge Mix)"
PERFORMER "Vivid"
INDEX 01 00:00:00
FILE "05. Filla Brazillia – Mother Nature's Spies.wav" WAVE
TRACK 05 AUDIO
TITLE "Mother Nature's Spies"
PERFORMER "Filla Brazillia"
INDEX 01 00:00:00
FILE "06. Freedom Satellite & Raimund Flock – Just Relax Yourself.wav" WAVE
TRACK 06 AUDIO
TITLE "Just Relax Yourself"
PERFORMER "Freedom Satellite & Raimund Flock"
INDEX 01 00:00:00
FILE "07. Ocean Cruz – Bartime.wav" WAVE
TRACK 07 AUDIO
TITLE "Bartime"
PERFORMER "Ocean Cruz"
INDEX 01 00:00:00
FILE "08. Brown Smith & Grey Feat. Janice – Carabonga (Hacienda Mix).wav" WAVE
TRACK 08 AUDIO
TITLE "Carabonga (Hacienda Mix)"
PERFORMER "Brown Smith & Grey Feat. Janice"
INDEX 01 00:00:00
FILE "09. Pimpie Jackson – Hey You 2.wav" WAVE
TRACK 09 AUDIO
TITLE "Hey You 2"
PERFORMER "Pimpie Jackson"
INDEX 01 00:00:00
FILE "10. Eric Sumo – Just A Woman.wav" WAVE
TRACK 10 AUDIO
TITLE "Just A Woman"
PERFORMER "Eric Sumo"
INDEX 01 00:00:00
FILE "11. Doctor Jazz – First Man, Then Machine (Aeternaloop Remix).wav" WAVE
TRACK 11 AUDIO
TITLE "First Man, Then Machine (Aeternaloop Remix)"
PERFORMER "Doctor Jazz"
INDEX 01 00:00:00
FILE "12. Jumbo Layer – Baton Rouge.wav" WAVE
TRACK 12 AUDIO
TITLE "Baton Rouge"
PERFORMER "Jumbo Layer"
INDEX 01 00:00:00


Трекер:  [ 05-Мар-2011 15:06 ]

  

Скачать .torrent

Размер .torrent файла 20 KB


Размер: 869 MB
Хэш (hash) релиза: f1910a8da06189712481923922da492581810c80

Mos

Добавить лог извлечения и cue. Если их в природе нет, то сделайте проверку качества в Audition.

L

На все лослес надо cue и лог? Если да, то в течении получаса сделаю на все

Mos

L. Lawliet
На все

L

Сделал

Хотите добавить комментарий к записи скачать торрент VA - Jazz Boutique 2 - Sounds For The Urban Adventure

!Обратная связь