Скачать через торрент музыку ALL Scooter Videos бесплатно без регистрации torrent

Если у вас наблюдаются проблемы со скриншотами, переходом по ссылками, скачиванием торрентов - проблемы в блокировщике рекламы AdBlock. #хорошегоДня!


Статистика раздачи
Размер:  7.75 GB   |    Зарегистрирован:  6 лет 7 месяцев   |    .torrent скачан:  92 раза   |   
Раздают:  1  
   
Загрузка...
 
Автор Сообщение

Demonessa

avatar Demonessa


ALL Scooter Videos

Год выпуска: 2010
Жанр: Jumpstyle, Techno
Происхождение исполнителя: Германия
Продолжительность: 02:46:07

Описание:
Данная подборка клипов гр.Scooter является бонусом к диску Scooter: Live in Hamburg

Происхождение видео: BDRip 1080p
Формат: MKV
Видео кодек: H.264
Аудио кодек: AC3
Данные видео: 6400 kb/s, 1920x1072, 25 fps
Данные аудио: AC3, 256 kb/s (2Ch)
01. Stuck On Replay
02. The Sound Above My Hair
03. Ti Sento
04. Jadore Hardcore
05. Beweg Dein Arsch
06. Jump That Rock (Whatever You Want)
07. I'm Lonely
08. Jumping All Over The World
09. And No Matches
10. The Question Is What Is The Question?
11. Lass Uns Tanzen
12. Behind The Cow
13. Apache Rocks The Bottom!
14. Hello! (Good To Be Back)
15. Suavemente
16. One (Always Hardcore)
17. Shake That!
18. Jigga Jigga!
19. Maria (I Like It Loud)
20. The Night
21. Weekend!
22. Nessaja
23. The Logical Song
24. Aiii Shot The DJ
25. Posse (I Need You On The Floor)
26. Shes The Sun
27. Im Your Pusher
28. Fuck The Millennium
29. Faster Harder Scooter
30. Call Me Mañana
31. I Was Made For Lovin You
32. We Are The Greatest
33. How Much Is The Fish?
34. No Fate
35. The Age Of Love
36. Fire
37. Break It Up
38. Im Raving
39. Rebel Yell
40. Let Me Be Your Valentine
41. Back In The U.K
42. Endless Summer
43. Friends
44. Move Your Ass!
45. Hyper Hyper
General
Format : Matroska
File size : 7.75 GiB
Duration : 2h 46mn
Overall bit rate : 6 678 Kbps
Movie name : Scooter Clips BDRip 1080p-Rip by Neofilm for Neoclub.net
Encoded date : UTC 2011-02-28 16:52:11
Writing application : mkvmerge v4.1.1 ('Bouncin' Back') сборка от Jul 3 2010 22:54:08
Writing library : libebml v1.0.0 + libmatroska v1.0.0

Video
ID : 1
Format : AVC
Format/Info : Advanced Video Codec
Format profile : High@L4.1
Format settings, CABAC : Yes
Format settings, ReFrames : 4 frames
Format settings, GOP : M=4, N=15
Muxing mode : Container profile=Unknown@4.1
Codec ID : V_MPEG4/ISO/AVC
Duration : 2h 46mn
Bit rate : 6 400 Kbps
Width : 1 920 pixels
Height : 1 072 pixels
Display aspect ratio : 16:9
Frame rate : 25.000 fps
Color space : YUV
Chroma subsampling : 4:2:0
Bit depth : 8 bits
Scan type : Progressive
Bits/(Pixel*Frame) : 0.124
Stream size : 7.30 GiB (94%)
Title : Scooter Clips
Writing library : x264 core 112 r1867 22bfd31
Encoding settings : cabac=1 / ref=4 / deblock=1:-3:-3 / analyse=0x3:0x113 / me=umh / subme=9 / psy=1 / psy_rd=1.04:0.04 / mixed_ref=1 / me_range=32 / chroma_me=1 / trellis=2 / 8x8dct=1 / cqm=0 / deadzone=21,11 / fast_pskip=0 / chroma_qp_offset=-3 / threads=6 / sliced_threads=0 / nr=0 / decimate=0 / interlaced=0 / constrained_intra=0 / bframes=3 / b_pyramid=2 / b_adapt=2 / b_bias=0 / direct=3 / weightb=1 / open_gop=0 / weightp=2 / keyint=250 / keyint_min=25 / scenecut=40 / intra_refresh=0 / rc_lookahead=40 / rc=abr / mbtree=1 / bitrate=6400 / ratetol=1.4 / qcomp=0.60 / qpmin=10 / qpmax=51 / qpstep=4 / vbv_maxrate=40000 / vbv_bufsize=40000 / nal_hrd=none / ip_ratio=1.40 / aq=1:1.00

Audio
ID : 2
Format : AC-3
Format/Info : Audio Coding 3
Mode extension : CM (complete main)
Codec ID : A_AC3
Duration : 2h 46mn
Bit rate mode : Constant
Bit rate : 256 Kbps
Channel(s) : 2 channels
Channel positions : Front: L R
Sampling rate : 48.0 KHz
Bit depth : 16 bits
Stream size : 304 MiB (4%)
Title : Stereo

Menu
00:00:00.000 : en:Chapter 00
00:03:13.040 : en:Chapter 01
00:06:51.680 : en:Chapter 02
00:10:49.720 : en:Chapter 03
00:14:38.120 : en:Chapter 04
00:18:10.760 : en:Chapter 05
00:21:37.000 : en:Chapter 06
00:25:09.640 : en:Chapter 07
00:29:06.280 : en:Chapter 08
00:32:50.000 : en:Chapter 09
00:36:41.520 : en:Chapter 10
00:40:26.000 : en:Chapter 11
00:44:02.240 : en:Chapter 12
00:47:49.280 : en:Chapter 13
00:51:22.520 : en:Chapter 14
00:55:02.360 : en:Chapter 15
00:58:58.040 : en:Chapter 16
01:02:22.680 : en:Chapter 17
01:06:22.520 : en:Chapter 18
01:10:04.160 : en:Chapter 19
01:13:45.800 : en:Chapter 20
01:17:22.440 : en:Chapter 21
01:20:50.880 : en:Chapter 22
01:24:48.480 : en:Chapter 23
01:28:19.720 : en:Chapter 24
01:32:41.000 : en:Chapter 25
01:36:42.640 : en:Chapter 26
01:40:34.080 : en:Chapter 27
01:44:44.360 : en:Chapter 28
01:48:27.600 : en:Chapter 29
01:51:58.640 : en:Chapter 30
01:55:30.680 : en:Chapter 31
01:58:56.160 : en:Chapter 32
02:02:41.800 : en:Chapter 33
02:06:24.360 : en:Chapter 34
02:10:30.240 : en:Chapter 35
02:14:00.800 : en:Chapter 36
02:17:40.400 : en:Chapter 37
02:21:14.640 : en:Chapter 38
02:24:57.200 : en:Chapter 39
02:28:45.400 : en:Chapter 40
02:32:09.440 : en:Chapter 41
02:35:31.600 : en:Chapter 42
02:39:08.240 : en:Chapter 43
02:42:34.320 : en:Chapter 44


Трекер:  [ 01-Мар-2011 01:49 ]

  

Скачать .torrent

Размер .torrent файла 155 KB


Размер: 7.75 GB
Хэш (hash) релиза: fbf8008f53869f12a05b53e0ebb2126d5af6af61

Торренты, похожие на ALL Scooter Videos скачать торрент

Форум Название Автор Размер S L Добавлен
Электронная музыка (video) ·· SCOOTER EXCESS ALL AREAS THE VIDEOS [2006 г., Techno, DVD9] Galfimbul 53658767365 GB 0 0 1294835820

15:37

12-Янв-11

Еще никто не оставлял запись к записи скачать торрент ALL Scooter Videos . Будь первым!

!Обратная связь