Скачать через торрент Battlefield 3 Gameplay Teaser HD Игра для ПК (PC) бесплатно torrent

Если у вас наблюдаются проблемы со скриншотами, переходом по ссылками, скачиванием торрентов - проблемы в блокировщике рекламы AdBlock. #хорошегоДня!


Статистика раздачи
Размер:  16 MB   |    Зарегистрирован:  6 лет 5 месяцев   |    .torrent скачан:  162 раза   |   
Раздают:  1  
   
Загрузка...
 
Автор Сообщение

Demonessa

avatar Demonessa


Battlefield 3 Gameplay Teaser HD
<<<In war, you have to hit the ground running>>>


Publisher: Electronic Arts
Developer: Digital Illusions CE
Release Date: Q3/2011
Platforms: PC, PlayStation 3, Xbox 360

Продолжительность: 00:00:42

Дата выхода игры: 4 квартал 2011

Описание: Первый геймплейный ролик нового Battlefield 3.

Качество: WEBRip 720p
Формат: WMV
Video: Windows Media Video 9 1280x720 29.97fps 3000kbps [Raw Video 0]
Audio: Windows Media Audio 44100Hz stereo 128kbps [Raw Audio 1]
Благодаря ядру Frostbite™ 2 — новейшей разработке студии DICE – игра Battlefield 3 достигла невероятных высот как в плане графики, так и в игровом процессе. Масштабы игры, система разрушений, динамическое озвучивание, «живая» анимация персонажей… Свист пуль над головой, трясущиеся стены, грохот взрывов – погружение в бой еще никогда не было таким реалистичным! В игре Battlefield 3 вам предстоит выступать в роли бойцов КМП США. Вас ждут захватывающая индивидуальная кампания и сетевые баталии во всех регионах земного шара, включая Париж, Тегеран и Нью-Йорк.

Особенности игры

• Frostbite 2 – новое графическое ядро, поднимающее реализацию анимации, системы разрушений, освещение и звук на невиданную высоту. Благодаря этой технологии вы ощутите себя в самой гуще битвы!
• Жар сражения — грохот взрывов, пули над головой, спасение раненых товарищей, развертывание орудий практически на любой местности… потрясающая графика и анимация Battlefield 3, а также захватывающий игровой процесс позволят вам с головой погрузиться в интенсивный современный бой.
• Военная техника — бои с участием техники на суше, море и в небе станут еще более интенсивными с введением в игру реактивных самолетов.
• Городской бой — в этой игре вам предстоит сражаться в различных уголках США, Европы и Ближнего Востока. Вас ждут узкие улочки, деловые районы мегаполисов… и открытые пространства, идеально подходящие для битвы с участием техники

Системные требования

• Информация будет доступна позже

Состав Расширенного издания

• Информация будет доступна позже

Бонусы за предварительный заказ Расширенного издания

• Сделай предварительный заказ* на Battlefield 3 Расширенное издание сейчас, и получи в подарок загружаемое дополнение Battlefield 3™: Back to Karkand. Это тематическое дополнение включает 4 легендарные карты из Battlefield 2, заново воссозданные на основе движка Frostbite™ 2 – с инновационной физикой, разрушениями и графикой. Также это дополнение включает классическую боевую технику и оружие Battlefield 2, редкие награды, новые достижения и трофеи, и многое другое.

* Покупатели, уже оформившие предварительный заказ на «Battlefield 3 Расширенное издание» до анонса «Battlefield 3: Back to Karkand», получат данное дополнение в подарок автоматически.
Общее
Полное имя : E:\Video\battlefield3_hitgr_gp_ts_hd.wmv
Формат : Windows Media
Размер файла : 15,5 Мбайт
Продолжительность : 42 с.
Общий поток : 3033 Кбит/сек
Максимальный общий битрейт : 3128 Кбит/сек
Дата кодирования : UTC 2011-02-23 19:08:45.000

Видео
Идентификатор : 1
Формат : VC-1
Профиль формата : MP
Идентификатор кодека : WMV3
Идентификатор кодека/Информация : Windows Media Video 9
Идентификатор кодека/Подсказка : WMV3
Описание кодека : Windows Media Video 9 - 2-pass CBR
Продолжительность : 42 с.
Битрейт : 3000 Кбит/сек
Ширина : 1280 пикс.
Высота : 720 пикс.
Соотношение сторон : 16:9
Частота кадров : 29,970 кадр/сек
Битовая глубина : 8 бит
Тип развёртки : Прогрессивная
Метод сжатия : С потерями
Бит/(Пиксели*Кадры) : 0.109
Размер потока : 15,4 Мбайт (99%)

Аудио
Идентификатор : 2
Формат : WMA
Версия формата : Version 2
Идентификатор кодека : 161
Идентификатор кодека/Информация : Windows Media Audio
Описание кодека : Windows Media Audio 9 - 128 kbps, 44 kHz, stereo CBR
Продолжительность : 42 с.
Битрейт : 128 Кбит/сек
Канал(ы) : 2 канала(ов)
Частота : 44,1 КГц
Битовая глубина : 16 бит
Размер потока : 671 Кбайт (4%)


Трекер:  [ 26-Фев-2011 13:08 ]

  

Скачать .torrent

Размер .torrent файла 5 KB


Размер: 16 MB
Хэш (hash) релиза: 73cd17980e1cac478612017a4bc492d58129cf10
Подписка на обновления:

shidorin

ну моно было хочь 2 скринов для приличия выложить )))

Demonessa

shidorin
просили скриншоты>>>пожалуйста смотрите

Cherterok

уже 150 тыщ раз видели это видео

shidorin

Demonessa писал(а):

Demonessa
СПС за скрины ))

Demonessa

shidorin
:bow:

Omega448

а я не видел

L

Молодец, конечно, но имхо розовый шрифт сюда явно не катит. Или там эмо-барби с пушками?

Cherterok

L. Lawliet
там фул эмо игра хХ всмысле видео

Хотите добавить комментарий к записи скачать торрент Battlefield 3 Gameplay Teaser HD

!Обратная связь