Скачать порно через торрент Kara no Naka no Kotori The Maiden Diaries UnionPeer.org бесплатно онлайн HD качество

Скачать новое порно 2015, 2014 новинки через торрент UnionPeer.org

Порно торрент бесплатно ЮнионПир.орг

Если у вас наблюдаются проблемы со скриншотами, переходом по ссылками, скачиванием торрентов - проблемы в блокировщике рекламы AdBlock. #хорошегоДня!


Статистика раздачи
Размер:  7.53 GB   |    Зарегистрирован:  3 года 2 месяца   |    .torrent скачан:  375 раз   |   
Раздают:  2  
   
Загрузка...
 
Автор Сообщение

Galfimbul

avatar Galfimbul


Kara no Naka no Kotori / The Maiden Diaries / Little Bird in the Shell / 殻の中の小鳥 / Девичий дневник

Год производства: 1998 г.
Жанр: BDSM, Group sex, Oral sex, Rape, Maids, Toys
Серии: ep. 1, 3-5 of 5
Продолжительность: 4х~28 min
Цензура: Отсутствует

Озвучка №1: Японская (Оригинальная)
Озвучка №2: Английская (Профессиональная, полное дублирование)
Субтитры: Английские

Режиссер: Takayama Hideki
Студия: Discovery, Kitty Media

Описание RUS: Фостер был молодым революционером. Его дни были заполнены деньгами и вином, а его ночи - самыми красивыми женщинами Европы. Когда Фостер терпит фиаско, его, нищего и опозоренного, принимает магнат железной дороги по имени Дред Бертон. Влиятельный бизнесмен связан с горьким прошлым Фостера, но он дает молодому человеку надежду на новую жизнь. Обучая проституток высокого класса для г. Дрида, Фостер пытается вернуть потерянную в прошлом любовь. Одна за другой, девочки входят в его дом. Неуклюжая Лиз, нетерпеливая Aya, невинная Ren и благородная Клер - все должны быть обучены Фостером и служить странным амбициям Дреда.

Описание ENG: Once, Foster was a young revolutionary. His days were filled money and wine, while his nights were filled with the most beautiful women in Europe. Now, fallen and disgraced, Foster is taken in by a railroad tycoon named Dred Burton. This powerful businessman has some bitter connection to Foster''''s past, but he still gives the young man a new life. Training high class prostitutes for Mr. Dread, Foster tries to piece together his shattered past and lost love. One by one, girls are added to his household. The clumsy Leese, the eager Aya, the innocent Ren, and the dignified Clair all must submit to Foster''''s training, and serve Dred''''s strange ambitions.

Информационные ссылки: AniDB - MAL - World Art - ХентайМаг - Kitty Media
Доп. информация: 2-го эпизода нет на диске, его нет без цензуры.
Спасибо: caifrat

Качество видео: DVD9
Формат видео: DVD Video
Видео кодек: MPEG2
Аудио кодек: AC3
Видео: 720х480, (4:3), 29,970 кадров/сек, ~ 8100 Кбит/сек, NTSC
Аудио №1: JAP, AC-3, 2 канала, 192 Кбит/сек, 48,0 КГц
Аудио №2: ENG, AC-3, 2 канала, 192 Кбит/сек, 48,0 КГц
Доп. материалы: Трейлеры
Общее
Полное имя : J:\VIDEO_TS\VTS_01_1.VOB
Формат : MPEG-PS
Размер файла : 1024 Мбайт
Продолжительность : 16 м.
Общий поток : 8613 Кбит/сек

Видео
Идентификатор : 224 (0xE0)
Формат : MPEG Video
Версия формата : Version 2
Профиль формата : Main@Main
Параметр BVOP формата : Да
Параметр матрицы формата : По умолчанию
Параметр GOP формата : M=3, N=13
Продолжительность : 16 м.
Битрейт : 8100 Кбит/сек
Ширина : 720 пикселей
Высота : 480 пикселей
Соотношение сторон : 4:3
Частота кадров : 29,970 кадров/сек
Стандарт вещания : NTSC
Цветовое пространство : YUV
Субдискретизация насыщенности : 4:2:0
Битовая глубина : 8 бит
Тип развёртки : Чересстрочная
Порядок развёртки : Верхнее поле первое
Метод сжатия : С потерями
Бит/(Пиксели*Кадры) : 0.782
Временной код первого кадра : 01:00:00;16
Оригинал временного кода : Group of pictures header
Размер потока : 958 Мбайт (94%)
Основные цвета : BT.601 NTSC
Характеристики трансфера : BT.601
Коэффициенты матрицы : BT.601

Аудио #1
Идентификатор : 189 (0xBD)-128 (0x80)
Формат : AC-3
Формат/Информация : Audio Coding 3
Расширение режима : CM (complete main)
Параметр Endianness формата : Big
Режим смешивания : DVD-Video
Продолжительность : 16 м.
Вид битрейта : Постоянный
Битрейт : 192 Кбит/сек
Каналы : 2 канала
Расположение каналов : Front: L R
Частота : 48,0 КГц
Битовая глубина : 16 бит
Метод сжатия : С потерями
Размер потока : 22,8 Мбайт (2%)

Аудио #2
Идентификатор : 189 (0xBD)-129 (0x81)
Формат : AC-3
Формат/Информация : Audio Coding 3
Расширение режима : CM (complete main)
Параметр Endianness формата : Big
Режим смешивания : DVD-Video
Продолжительность : 16 м.
Вид битрейта : Постоянный
Битрейт : 192 Кбит/сек
Каналы : 2 канала
Расположение каналов : Front: L R
Частота : 48,0 КГц
Битовая глубина : 16 бит
Метод сжатия : С потерями
Размер потока : 22,8 Мбайт (2%)

Текст
Идентификатор : 189 (0xBD)-32 (0x20)
Формат : RLE
Формат/Информация : Run-length encoding
Режим смешивания : DVD-Video

Меню
Время раздачи: с 09 до 00.00 (Киев), отдача: 100 кб/с (анальный инет)
1 Большая просьба, помогайте другим скачать (тогда релизов будет больше)
2 Если нет сидов - пишите в лс
3 Если сдохли постеры и скриншоты - пишите в лс

Трекер:  [ 06-Июн-2014 13:41 ]

  

Скачать .torrent

Размер .torrent файла 19 KB


Размер: 7.53 GB
Хэш (hash) релиза: 27ec38cae2f5d1958746e7dac19c823956424fd7

Еще никто не оставлял запись к записи скачать торрент Kara no Naka no Kotori The Maiden Diaries . Будь первым!

!Обратная связь