Скачать порно через торрент GloryHole+XtraCredits UnionPeer.org бесплатно онлайн HD качество

Скачать новое порно 2015, 2014 новинки через торрент UnionPeer.org

Порно торрент бесплатно ЮнионПир.орг

Если у вас наблюдаются проблемы со скриншотами, переходом по ссылками, скачиванием торрентов - проблемы в блокировщике рекламы AdBlock. #хорошегоДня!


Статистика раздачи
Размер:  349 MB   |    Зарегистрирован:  3 года 5 месяцев   |    .torrent скачан:  1377 раз   |   
Раздают:  1  
   
Загрузка...
 
Автор Сообщение

Galfimbul

avatar Galfimbul


GloryHole+XtraCredits (3DGspot) / ぱこぱこ学園(作者:3DGspot)

Год производства: 2014 г.
Жанр: school, blowjob,
Продолжительность: 9:24
Цензура: Есть во всех файлах

Озвучка: Оригинальная
Субтитры: Встроенные неотключаемые (хардсаб)

Студия: Affect3D

Описание: Our students Welcome is not a hot-blooded Nanoha to study the most Pakopako school. First Ariel of journalism majors is an interview with American football player Jake. Keana and big surprises in the restroom. This school, and ze are somehow!
content Gakuen Pakopako: Hen football interview (video) Pakopako school: a mysterious hole Edition (video)

Качество видео: GameRip
Разрешение видео: 720p
Формат видео: MPEG
Видео кодек: H.264/AVC
Аудио кодек: MP3
Видео: MPEG4 Video (H264) 1280x720 30fps 4975kbps
Аудио 1: MP3 44100Hz stereo 192kbps
Video
ID : 0
Format : AVC
Format/Info : Advanced Video Codec
Format profile : Main@L5.1
Format settings, CABAC : Yes
Format settings, ReFrames : 1 frame
Codec ID : H264
Duration : 9mn 24s
Bit rate : 4 976 Kbps
Width : 1 280 pixels
Height : 720 pixels
Display aspect ratio : 16:9
Frame rate : 30.000 fps
Color space : YUV
Chroma subsampling : 4:2:0
Bit depth : 8 bits
Scan type : Progressive
Bits/(Pixel*Frame) : 0.180
Stream size : 335 MiB (96%)

Audio
ID : 1
Format : MPEG Audio
Format version : Version 1
Format profile : Layer 3
Codec ID : 55
Codec ID/Hint : MP3
Duration : 9mn 24s
Bit rate mode : Constant
Bit rate : 192 Kbps
Channel(s) : 2 channels
Sampling rate : 44.1 KHz
Compression mode : Lossy
Stream size : 12.9 MiB (4%)
Alignment : Split accross interleaves
Interleave, duration : 34 ms (1.02 video frame)
Interleave, preload duration : 127 ms
Writing library : LAMELAME_MAJOR_€ム6


Трекер:  [ 06-Июн-2014 01:38 ]

  

Скачать .torrent

Размер .torrent файла 14 KB


Размер: 349 MB
Хэш (hash) релиза: 4f5daaa81c63cf05910d4f0e3c47e30cd59435c7

Еще никто не оставлял запись к записи скачать торрент GloryHole+XtraCredits . Будь первым!

!Обратная связь