Скачать порно через торрент Bikyaku Seido Kaichou Ai Чулки президента UnionPeer.org бесплатно онлайн HD качество

Скачать новое порно 2015, 2014 новинки через торрент UnionPeer.org

Порно торрент бесплатно ЮнионПир.орг

Если у вас наблюдаются проблемы со скриншотами, переходом по ссылками, скачиванием торрентов - проблемы в блокировщике рекламы AdBlock. #хорошегоДня!


Статистика раздачи
Размер:  889 MB   |    Зарегистрирован:  3 года 4 месяца   |    .torrent скачан:  700 раз   |   
Раздают:  1  
   
Загрузка...
 
Автор Сообщение

Galfimbul

avatar Galfimbul


Bikyaku Seido Kaichou Ai / 美脚性奴会長 亜衣 / Чулки президента / Прекрасные ножки секс-рабыни и президента студсовета Ай

Год производства: 2014 г.
Жанр: Big tits, Footjob, X-Ray, School, Rape, Virgin, Toys
Серии: ep. 1
Продолжительность: 1х~30 min
Цензура: Есть

Озвучка: Японская (Оригинальная)

Режиссер: Kaidou Tsukasa
Автор оригинала: Over-dose
Студия: Oz Inc.

Описание RUS: На мой взгляд не обычно весёлый сюжет, который редко встречается в жанрах хентая не менее занимательны и сами герои, но откинем детали и перейдём к сюжету. Наш главный герой Yoshizawa извращенец и фетишист из средней школы падкий на женские колготки "да, да не обычное увлечения для школьника" Кроме того новой целью обожания становится красавица и школьный президент. Но какие шансы у обычного парня, по этому что бы хоть как-то приблизиться к ней он вступает в школьный совет. Однажды проникая к ней в кабинет он находит компромат, хороший способ добиться своего и по шантажировать её. Что ему с лёгкостью удаётся, теперь он воплотит все свои грязные мысли в жизнь с самой популярной девочкой в школе. Что же послужило компроматом узнаем посмотрев хентай.

Описание ENG:Main character Yoshizawa Atsushi has a strong fetish for pantyhose. He instantly fell in love with student council president Ninomiya Ai''s black tights, and joined the council so he could be closer to her. One day, he sneaks into the president''s office and successfuly finds her weakness. He blackmails her and starts to train her into his sex slave...

Информационные ссылки: AniDB - MAL - World Art - ХентайМаг

Качество видео: DVD5
Формат видео: DVD Video
Видео кодек: MPEG2
Аудио кодек: AC3
Видео: 720х480, (16:9), 29,970 кадров/сек, ~ 3818 Кбит/сек, NTSC
Аудио: JAP, AC-3, 2 канала, 224 Кбит/сек, 48,0 КГц
Общее
Полное имя : H:\VIDEO_TS\VTS_01_1.VOB
Формат : MPEG-PS
Размер файла : 884 Мбайт
Продолжительность : 29 м.
Общий поток : 4124 Кбит/сек

Видео
Идентификатор : 224 (0xE0)
Формат : MPEG Video
Версия формата : Version 2
Профиль формата : Main@Main
Параметр BVOP формата : Нет
Параметр матрицы формата : Выборочная
Параметр GOP формата : Variable
Продолжительность : 33 мс.
Битрейт : 3818 Кбит/сек
Максимальный битрейт : 8000 Кбит/сек
Ширина : 720 пикселей
Высота : 480 пикселей
Соотношение сторон : 16:9
Частота кадров : 29,970 кадров/сек
Стандарт вещания : NTSC
Цветовое пространство : YUV
Субдискретизация насыщенности : 4:2:0
Битовая глубина : 8 бит
Тип развёртки : Прогрессивная
Порядок развёртки : Верхнее поле первое
Метод сжатия : С потерями
Бит/(Пиксели*Кадры) : 0.369
Размер потока : 15,5 Кбайт (0%)

Аудио
Идентификатор : 189 (0xBD)-128 (0x80)
Формат : AC-3
Формат/Информация : Audio Coding 3
Расширение режима : CM (complete main)
Параметр Endianness формата : Big
Режим смешивания : DVD-Video
Продолжительность : 29 м.
Вид битрейта : Постоянный
Битрейт : 224 Кбит/сек
Каналы : 2 канала
Расположение каналов : Front: L R
Частота : 48,0 КГц
Битовая глубина : 16 бит
Метод сжатия : С потерями
Размер потока : 48,0 Мбайт (5%)

Меню
Время раздачи: с 09 до 00.00 (Киев), отдача: 100 кб/с (анальный инет)
1 Большая просьба, помогайте другим скачать (тогда релизов будет больше)
2 Если нет сидов - пишите в лс
3 Если сдохли постеры и скриншоты - пишите в лс

Трекер:  [ 28-Май-2014 23:27 ]

  

Скачать .torrent

Размер .torrent файла 18 KB


Размер: 889 MB
Хэш (hash) релиза: 9d1423676c7e60b97ffe67efefdc2dfc3ab27eec

bot

Сообщение удалено

Хотите добавить комментарий к записи скачать торрент Bikyaku Seido Kaichou Ai Чулки президента

!Обратная связь