Скачать порно через торрент Sodomania 20: For Members Only | Содомания 20: Только для членов клуба UnionPeer.org бесплатно онлайн HD качество

Скачать новое порно 2015, 2014 новинки через торрент UnionPeer.org

Порно торрент бесплатно ЮнионПир.орг

Если у вас наблюдаются проблемы со скриншотами, переходом по ссылками, скачиванием торрентов - проблемы в блокировщике рекламы AdBlock. #хорошегоДня!


Статистика раздачи
Размер:  1.78 GB   |    Зарегистрирован:  3 года 4 месяца   |    .torrent скачан:  1091 раз   |   
Раздают:  1   Качают:  1  
   
Загрузка...
 
Автор Сообщение

Galfimbul

avatar Galfimbul


Sodomania 20: For Members Only | Содомания 20: Только для членов клуба

Год производства: 1997 г.
Страна: USA | США
Жанр: Anal, DP, Gonzo
Продолжительность: 02:01:28
Язык: Английский | English

Режиссер: Patrick Collins
Студия: Elegant Angel

В ролях:
Actresses
Alexandra Silk [Anal Facial DP]
Anita Blond [Facial]
Anita Dark [IR]
Leanna Heart [Facial]
Raven McCall [Anal Facial A2M]

Actors
Reinhardt
Sean Michaels
Tom Byron
TT Boy
Zenza Raggi
NonSex Performers
Andrew Load
Brockton O'Toole

Описание: Neighborhood Watch: When tall, leggy, Anita Blonde, goes into the garden for her first fag of the day, her nosy neighbor, TT Boy, points out the dangers of smoking and gives her something meatier to suck on. Tough shag up against the tree is really what she needs. Body Double: Things go wrong in the sex toy warehouse when thick packer, Tom Byron, overdoses on 'pecker pills' and starts to hallucinate. Playing second fiddle to an inflatable dolly may not be very flattering but a damn good dicking from the maestro himself probably soothed Leanna Hart's injured pride. Mallice in Chains: Stunning black haired Anita Dark and black stud Sean Michaels act out their 'Slave and Master' fantasies. Later they will change roles and he will become her slave. Right Place at the Right Time: Short skirted slut, Alexandra Silk, phones Roscoe at just the right time. She wants to audition for a porno movie and he has two European studs in his office ready and willing to give her a go. Epic anal and double penetration makes this a genuine test of the girl's suitability. Out of Sight, Out of Mind: Home alone housewife, Raven McCall, is frightened by the scary but harmless local retard, TT Boy. The thought that he might be an escaped predator clearly appeals to her deepest, darkest fantasies and he reacts by turning into the aggressive sexual pervert she wants him to be. She lets him fuck her in the ass then takes his spurting cock in her mouth.

Scene Breakdowns:

Scene 1. Anita Blond, TT Boy
Scene 2. Leanna Heart, Tom Byron
Scene 3. Anita Dark, Sean Michaels
Scene 4. Alexandra Silk, Reinhardt, Zenza Raggi
Scene 5. Raven McCall, TT Boy
Details:

Format : MPEG-4
Format profile : Base Media
Codec ID : isom
File size : 1.77 GiB
Duration : 2h 1mn
Overall bit rate mode : Variable
Overall bit rate : 2 089 Kbps
Encoded date : UTC 2014-05-24 13:43:37
Tagged date : UTC 2014-05-24 13:43:37

Video
ID : 1
Format : AVC
Format/Info : Advanced Video Codec
Format profile : High@L3.1
Format settings, CABAC : Yes
Format settings, ReFrames : 8 frames
Codec ID : avc1
Codec ID/Info : Advanced Video Coding
Duration : 2h 1mn
Bit rate : 1 953 Kbps
Maximum bit rate : 6 574 Kbps
Width : 708 pixels
Height : 480 pixels
Display aspect ratio : 4:3
Frame rate mode : Constant
Frame rate : 29.970 fps
Color space : YUV
Chroma subsampling : 4:2:0
Bit depth : 8 bits
Scan type : Progressive
Bits/(Pixel*Frame) : 0.192
Stream size : 1.66 GiB (93%)
Writing library : x264 core 142 r2431 ac76440

Encoded date : UTC 2014-05-24 13:43:37
Tagged date : UTC 2014-05-24 14:00:50

Audio
ID : 2
Format : AAC
Format/Info : Advanced Audio Codec
Format profile : LC
Codec ID : 40
Duration : 2h 1mn
Bit rate mode : Variable
Bit rate : 132 Kbps
Maximum bit rate : 192 Kbps
Channel(s) : 2 channels
Channel positions : Front: L R
Sampling rate : 48.0 KHz
Compression mode : Lossy
Stream size : 114 MiB (6%)
Encoded date : UTC 2014-05-24 01:22:24
Tagged date : UTC 2014-05-24 14:00:50
Качество видео: DVDRip
Формат видео: MP4
Видео кодек: H.264/AVC
Аудио кодек: AAC
Видео: 29.970 fps, 708x480, 1953 kbps
Аудио: 48.0 KHz, stereo, 132.3 kbps (VBR), 1 stream

Трекер:  [ 25-Май-2014 17:30 ]

  

Скачать .torrent

Размер .torrent файла 18 KB


Размер: 1.78 GB
Хэш (hash) релиза: ccd9bc8874ab93f9ae744f973f8e7e7a27f45d6e

Торренты, похожие на Sodomania 20: For Members Only | Содомания 20: Только для членов клуба скачать торрент

Форум Название Автор Размер S L Добавлен
Гонзо-фильмы ·· Sodomania 20: For Members Only / Содомания: Только для членов клуба (Patrick Collins, Elegant Angel) [1997 г., Anal, DP, Gonzo, VHSRip](Alexandra Silk, Anita Blond, Anita Dark, Leanna Heart, Raven McCall) LinGr 738402304704 MB 0 0 1377282453

21:27

23-Авг-13

Еще никто не оставлял запись к записи скачать торрент Sodomania 20: For Members Only | Содомания 20: Только для членов клуба . Будь первым!

!Обратная связь