Скачать порно через торрент Fela Pure: Mitarashi-san Chi no Jijou The Animation Оральные утехи сестрёнки ~ История семьи Митараи ~ UnionPeer.org бесплатно онлайн HD качество

Скачать новое порно 2015, 2014 новинки через торрент UnionPeer.org

Порно торрент бесплатно ЮнионПир.орг

Если у вас наблюдаются проблемы со скриншотами, переходом по ссылками, скачиванием торрентов - проблемы в блокировщике рекламы AdBlock. #хорошегоДня!


Статистика раздачи
Размер:  1.94 GB   |    Зарегистрирован:  3 года 6 месяцев   |    .torrent скачан:  1027 раз   |   
Раздают:  1  
   
Загрузка...
 
Автор Сообщение

Galfimbul

avatar Galfimbul


Fela Pure: Mitarashi-san Chi no Jijou The Animation / フェラピュア ~御手洗さん家の事情~ THE ANIMATION / Оральные утехи сестрёнки ~ История семьи Митараи ~

Год производства: 2014 г.
Жанр: Big tits, Oral sex, Titsjob, X-Ray, Incest
Серии: ep. 1
Продолжительность: 1х~30 min + 13 min трейлеры
Цензура: Есть

Озвучка: Японская (Оригинальная)

Режиссер: Tatsumi
Автор оригинала: Fue
Студия: Pink Pineapple

Описание RUS: Митараи Кейко, президент студенческого совета, за свою строгость её боятся (мужская часть) и уважают (женская часть) школы. Девушки восхищаются видя своего президента думающего о проблемах школы. Но о чём действительности думает Митараи? Её заботит лишь одно, как лучше отсосат у своег брата Нобору вечерам, когда они вернутся домой. Да наша президент Митараи жить не может без горячей и толстой сосиски своего младшего брата. Митараи согласно быть личным туалетом Нобору, вот такая она извращенка, что тут сказать как все президенты...

Описание ENG: Mitarai Keiko, student council president, for his strictness afraid of her (male part) and respect (female part) of the school. Seeing girls admire their president to think about problems of the school. But what really think Mitarai? It cares only one, as in better otsosat svoeg brother Noboru evenings when they return home. Yes, our President Mitarai can not live without hot and thick sausages of his younger brother. Mitarai according toilet Noboru be personal, it is such a pervert, what can I say as all presidents.

Информационные ссылки: AniDB - MAL - World Art - ХентайМаг

Качество видео: DVD5
Формат видео: DVD Video
Видео кодек: MPEG2
Аудио кодек: AC3
Видео: 720х480, (16:9), 29,970 кадров/сек, ~ 6279 Кбит/сек, NTSC
Аудио: JAP, AC-3, 2 канала, 192 Кбит/сек, 48,0 КГц
Общее
Полное имя : G:\VIDEO_TS\VTS_01_1.VOB
Формат : MPEG-PS
Размер файла : 1024 Мбайт
Продолжительность : 21 м.
Режим общего битрейта : Переменный
Общий поток : 6602 Кбит/сек

Видео
Идентификатор : 224 (0xE0)
Формат : MPEG Video
Версия формата : Version 2
Профиль формата : Main@Main
Параметр BVOP формата : Да
Параметр матрицы формата : Выборочная
Параметр GOP формата : Variable
Продолжительность : 21 м.
Вид битрейта : Переменный
Битрейт : 6279 Кбит/сек
Максимальный битрейт : 9800 Кбит/сек
Ширина : 720 пикселей
Высота : 480 пикселей
Соотношение сторон : 16:9
Частота кадров : 29,970 кадров/сек
Стандарт вещания : NTSC
Цветовое пространство : YUV
Субдискретизация насыщенности : 4:2:0
Битовая глубина : 8 бит
Тип развёртки : Чересстрочная
Порядок развёртки : Верхнее поле первое
Метод сжатия : С потерями
Бит/(Пиксели*Кадры) : 0.606
Временной код первого кадра : 01:00:11:00
Оригинал временного кода : Group of pictures header
Размер потока : 974 Мбайт (95%)

Аудио
Идентификатор : 189 (0xBD)-128 (0x80)
Формат : AC-3
Формат/Информация : Audio Coding 3
Расширение режима : CM (complete main)
Параметр Endianness формата : Big
Режим смешивания : DVD-Video
Продолжительность : 21 м.
Вид битрейта : Постоянный
Битрейт : 192 Кбит/сек
Каналы : 2 канала
Расположение каналов : Front: L R
Частота : 48,0 КГц
Битовая глубина : 16 бит
Метод сжатия : С потерями
Размер потока : 29,8 Мбайт (3%)

Меню


Трекер:  [ 11-Май-2014 13:52 ]

  

Скачать .torrent

Размер .torrent файла 20 KB


Размер: 1.94 GB
Хэш (hash) релиза: 0463d489cb0e3ddd73b5d4c7174d63691aa2774e

Еще никто не оставлял запись к записи скачать торрент Fela Pure: Mitarashi-san Chi no Jijou The Animation Оральные утехи сестрёнки ~ История семьи Митараи ~ . Будь первым!

!Обратная связь