Скачать порно через торрент Be steamed meat buns angrily UnionPeer.org бесплатно онлайн HD качество

Скачать новое порно 2015, 2014 новинки через торрент UnionPeer.org

Порно торрент бесплатно ЮнионПир.орг

Если у вас наблюдаются проблемы со скриншотами, переходом по ссылками, скачиванием торрентов - проблемы в блокировщике рекламы AdBlock. #хорошегоДня!


Статистика раздачи
Размер:  554 MB   |    Зарегистрирован:  3 года 3 месяца   |    .torrent скачан:  971 раз   |   
Раздают:  1  
   
Загрузка...
 
Автор Сообщение

Galfimbul

avatar Galfimbul


Be steamed meat buns angrily / ぷりぷり肉まん○
Год производства: 2014 г.
Жанр: Big tits, classic-hard sex, white juice,
Продолжительность: 22:03
Цензура: Есть во всех файлах

Язык: Японский
Озвучка: Оригинальная
Субтитры: Встроенные неотключаемые (хардсаб)

Студия:Pinkunoshiori

Описание: Sunday of after a long absence Younger Sister and two people-in-law.
The Younger Sister which would do the shop of the steamed meat bun by a school festival,
Have provoked it with one''s own Cosplay clothes!

Качество видео: GameRip
Формат видео: WMV
Видео кодек: Windows Media
Аудио кодек: WMA
Видео: Windows Media Video 9 808x608 30fps 3163kbps
Аудио 1: WMA 2 44100Hz stereo 320kbps
Video
ID : 1
Format : VC-1
Format profile : MP@HL
Codec ID : WMV3
Codec ID/Info : Windows Media Video 9
Codec ID/Hint : WMV3
Description of the codec : Windows Media Video 9
Duration : 22mn 3s
Bit rate mode : Variable
Bit rate : 3 163 Kbps
Width : 808 pixels
Height : 608 pixels
Display aspect ratio : 4:3
Frame rate : 30.000 fps
Bit depth : 8 bits
Scan type : Progressive
Compression mode : Lossy
Bits/(Pixel*Frame) : 0.215
Stream size : 499 MiB (90%)
Language : Latvian

Audio
ID : 2
Format : WMA
Format version : Version 2
Codec ID : 161
Codec ID/Info : Windows Media Audio
Description of the codec : Windows Media Audio 9.2 - 320 kbps, 44 kHz, stereo (A/V) 1-pass CBR
Duration : 22mn 3s
Bit rate mode : Constant
Bit rate : 320 Kbps
Channel(s) : 2 channels
Sampling rate : 44.1 KHz
Bit depth : 16 bits
Stream size : 50.5 MiB (9%)


Трекер:  [ 04-Май-2014 17:42 ]

  

Скачать .torrent

Размер .torrent файла 11 KB


Размер: 554 MB
Хэш (hash) релиза: 738b6832186ab8494a793fbb719df16b5052fcfd

Торренты, похожие на Be steamed meat buns angrily скачать торрент

Форум Название Автор Размер S L Добавлен
Хентайные и эротические игры ·· Be steamed meat buns angrily○ (pinkunoshiori) [cen] [2014, 3DCG, Flash, Animation, Straight, Big tits, Big Ass, Blowjob, Titsjob] [jap] Galfimbul 665226707634 MB 0 0 1399234182

23:09

4-Май-14

Еще никто не оставлял запись к записи скачать торрент Be steamed meat buns angrily . Будь первым!

!Обратная связь