Скачать порно через торрент Yabai! Fukushuu Yami Site Месть - Сайт Тьмы UnionPeer.org бесплатно онлайн HD качество

Скачать новое порно 2015, 2014 новинки через торрент UnionPeer.org

Порно торрент бесплатно ЮнионПир.орг

Если у вас наблюдаются проблемы со скриншотами, переходом по ссылками, скачиванием торрентов - проблемы в блокировщике рекламы AdBlock. #хорошегоДня!


Статистика раздачи
Размер:  3.25 GB   |    Зарегистрирован:  3 года 6 месяцев   |    .torrent скачан:  353 раза   |   
Раздают:  1  
   
Загрузка...
 
Автор Сообщение

Galfimbul

avatar Galfimbul


Yabai! Fukushuu Yami Site / ヤバい! -復讐・闇サイト- / Месть - Сайт Тьмы / Тёмная месть

Год производства: 2014 г.
Жанр: Bondage, Big tits, Rape, Virgin
Серии: ep. 1
Продолжительность: 1х~30 min
Цензура: Есть

Озвучка: Японская (Оригинальная)

Режиссер: Yokoyama Hiromi
Автор оригинала: Waffle
Студия: Suzuki Mirano

Описание RUS: Три студентки просыпаются в какой-то комнате, связанные по рукам и ногам. Пытаясь вспомнить что же с ними приключилось и как они оказались в этом не понятном месте, чуть позже к ним наведывается виновник торжества, злостный похититель маньяк и говорит.... игра началась. Простите, не удержалась, он говорит что теперь они станут актрисами в его фильме, фильм полон насилия, унижения, бдсм и прочим, прочим. У девушек не остаётся выбора как подчиниться, точнее даже выбирать не приходится ведь деваться не куда а он то и дело таскает их из комнаты в комнату, вытворяя всяческие извращения. Одну за другой он использует девушек для съёмок порно фильма в котором он мечтает стать главной звездой. Будем надеяться что девушкам удастся сбежать хотя сильно в этом сомневаюсь!

Описание ENG: Three students wake up in a room, bound hand and foot. Trying to remember what happened to them and how they ended up in this place is not clear, a little later they were visited by hero of the occasion, malicious maniac kidnapper says. and the game began. I'm sorry, could not resist, he says that now they will be actresses in his film, the film is full of violence, humiliation, BDSM, etc., etc. The girls have no choice but to obey , even more precisely because there is no choice but to go where he is not now and then drags them from room to room, vytvoryaya sorts of perversion . One after another, he uses girls to shoot porn film in which he dreams of becoming a major star. Let's hope that the girls will be able to escape though much doubt it!

Информационные ссылки: AniDB - MAL - World Art - ХентайМаг

Качество видео: DVD5
Формат видео: DVD Video
Видео кодек: MPEG2
Аудио кодек: AC3
Видео: 720х480, (16:9), 29,970 кадров/сек, ~ 6000 Кбит/сек, NTSC
Аудио №1: JAP, AC-3, 2 канала, 192 Кбит/сек, 48,0 КГц
Аудио №2: JAP, AC-3, 2 канала, 192 Кбит/сек, 48,0 КГц
Общее
Полное имя : G:\VIDEO_TS\VTS_01_1.VOB
Формат : MPEG-PS
Размер файла : 1024 Мбайт
Продолжительность : 2 м. 43 с.
Общий поток : 52,6 Мбит/сек

Видео
Идентификатор : 224 (0xE0)
Формат : MPEG Video
Версия формата : Version 2
Профиль формата : Main@Main
Параметр BVOP формата : Да
Параметр матрицы формата : Выборочная
Параметр GOP формата : Variable
Продолжительность : 2 м. 43 с.
Битрейт : 51,2 Мбит/сек
Максимальный битрейт : 7200 Кбит/сек
Ширина : 720 пикселей
Высота : 480 пикселей
Соотношение сторон : 16:9
Частота кадров : 29,970 кадров/сек
Стандарт вещания : NTSC
Цветовое пространство : YUV
Субдискретизация насыщенности : 4:2:0
Битовая глубина : 8 бит
Тип развёртки : Чересстрочная
Порядок развёртки : Верхнее поле первое
Метод сжатия : С потерями
Бит/(Пиксели*Кадры) : 4.939
Временной код первого кадра : 01:00:00:00
Оригинал временного кода : Group of pictures header
Размер потока : 996 Мбайт (97%)

Аудио #1
Идентификатор : 189 (0xBD)-128 (0x80)
Формат : AC-3
Формат/Информация : Audio Coding 3
Расширение режима : CM (complete main)
Параметр Endianness формата : Big
Режим смешивания : DVD-Video
Продолжительность : 2 м. 43 с.
Вид битрейта : Постоянный
Битрейт : 192 Кбит/сек
Каналы : 2 канала
Расположение каналов : Front: L R
Частота : 48,0 КГц
Битовая глубина : 16 бит
Метод сжатия : С потерями
Размер потока : 3,73 Мбайт (0%)

Аудио #2
Идентификатор : 189 (0xBD)-129 (0x81)
Формат : AC-3
Формат/Информация : Audio Coding 3
Расширение режима : CM (complete main)
Параметр Endianness формата : Big
Режим смешивания : DVD-Video
Продолжительность : 2 м. 43 с.
Вид битрейта : Постоянный
Битрейт : 192 Кбит/сек
Каналы : 2 канала
Расположение каналов : Front: L R
Частота : 48,0 КГц
Битовая глубина : 16 бит
Метод сжатия : С потерями
Размер потока : 3,73 Мбайт (0%)

Меню


Трекер:  [ 01-Май-2014 11:43 ]

  

Скачать .torrent

Размер .torrent файла 17 KB


Размер: 3.25 GB
Хэш (hash) релиза: 33e6220498dd1842892ab96964513b12c34a4871

Торренты, похожие на Yabai! Fukushuu Yami Site Месть - Сайт Тьмы скачать торрент

Форум Название Автор Размер S L Добавлен
Хентай | С цензурой ·· Yabai! Fukushuu Yami Site / Месть - Сайт Тьмы / Тёмная месть (Yokoyama Hiromi, Suzuki Mirano) (ep. 1-2 of 2) [cen] [2014 г., Bondage, Big tits, Oral sex, Rape, Virgin, Toys, 2x DVD5] [jap] Galfimbul 69448576696.47 GB 0 0 1401785775

11:56

3-Июн-14

Еще никто не оставлял запись к записи скачать торрент Yabai! Fukushuu Yami Site Месть - Сайт Тьмы . Будь первым!

!Обратная связь