Скачать порно через торрент Diary of a Perv Дневник извращенца UnionPeer.org бесплатно онлайн HD качество

Скачать новое порно 2015, 2014 новинки через торрент UnionPeer.org

Порно торрент бесплатно ЮнионПир.орг

Если у вас наблюдаются проблемы со скриншотами, переходом по ссылками, скачиванием торрентов - проблемы в блокировщике рекламы AdBlock. #хорошегоДня!


Статистика раздачи
Размер:  1.89 GB   |    Зарегистрирован:  3 года 6 месяцев   |    .torrent скачан:  675 раз   |   
Раздают:  1  
   
Загрузка...
 
Автор Сообщение

Galfimbul

avatar Galfimbul


Diary of a Perv / Дневник извращенца


Год производства: 2013 г.
Страна: USA
Жанр: Gonzo, Point Of View
Продолжительность: 03:00:03

Режиссёр: Robby D
Студия: Digital Playground

Язык: Английский

В ролях: Chanel Preston, Giselle Leon, Jesse Jane, Kirsten Price, Maddy O'Reilly, Selena Rose, Veruca James, Keiran Lee

Описание: Sex driven adult legend, Keiran Lee offers a glimpse from his daily life through four POV scenes. From banging his wife, Kirsten Price and Digital Playground Star, Jesse Jane in a scorching hot threesome, to experiencing casual sexual encounters with Chanel Preston in a hotel room and Maddy O’Reilly the house maid, to later screwing his best friend’s sister, Veruca James – Keiran is sure to make every man envious. Two additional POV scenes from the perspective of Xander Corvus and Erik Everhard include Digital Playground Star, Selena Rose and Giselle Leon.

Доп. информация: http://www.adultdvdempire.com/1696090/diary-of-a-perv-porn-movies.html

Релиз группы: XCiTE

Качество видео: DVDRip-AVC
Формат видео: MP4
Видео кодек: H.264/AVC
Аудио кодек: AAC
Видео: 720x400 (1.80:1), 29.970 fps, ~1335 kbps avg @ crf 19, 0.155 bit/pixel
Аудио: 48 kHz, 6 ch, ~161 kbps
Общее
Полное имя                               : Diary.Of.A.Perv.XXX.DVDRip.x264-XCiTE.mp4
Формат                                   : MPEG-4
Профиль формата                          : Base Media
Идентификатор кодека                     : isom
Размер файла                             : 1,89 Гбайт
Продолжительность                        : 3 ч. 0 м.
Режим общего битрейта                    : Переменный
Общий поток                              : 1500 Кбит/сек
Дата кодирования                         : UTC 2014-04-27 09:45:16
Дата пометки                             : UTC 2014-04-27 09:45:16

Видео
Идентификатор                            : 1
Формат                                   : AVC
Формат/Информация                        : Advanced Video Codec
Профиль формата                          : High@L3.1
Параметр CABAC формата                   : Да
Параметр ReFrames формата                : 5 кадров
Идентификатор кодека                     : avc1
Идентификатор кодека/Информация          : Advanced Video Coding
Продолжительность                        : 3 ч. 0 м.
Битрейт                                  : 1335 Кбит/сек
Максимальный битрейт                     : 6636 Кбит/сек
Ширина                                   : 720 пикселей
Высота                                   : 400 пикселей
Соотношение сторон                       : 16:9
Режим частоты кадров                     : Постоянный
Частота кадров                           : 29,970 кадров/сек
Цветовое пространство                    : YUV
Субдискретизация насыщенности            : 4:2:0
Битовая глубина                          : 8 бит
Тип развёртки                            : Прогрессивная
Бит/(Пиксели*Кадры)                      : 0.155
Размер потока                            : 1,68 Гбайт (89%)
Библиотека кодирования                   : x264 core 138 r2358 9e941d1
Настройки программы                      : cabac=1 / ref=5 / deblock=1:0:0 / analyse=0x3:0x113 / me=umh / subme=8 / psy=1 / psy_rd=1.00:0.00 / mixed_ref=1 / me_range=16 / chroma_me=1 / trellis=1 / 8x8dct=1 / cqm=0 / deadzone=21,11 / fast_pskip=0 / chroma_qp_offset=-2 / threads=12 / lookahead_threads=2 / sliced_threads=0 / nr=0 / decimate=1 / interlaced=0 / bluray_compat=0 / constrained_intra=0 / bframes=3 / b_pyramid=2 / b_adapt=2 / b_bias=0 / direct=3 / weightb=1 / open_gop=0 / weightp=2 / keyint=300 / keyint_min=29 / scenecut=40 / intra_refresh=0 / rc_lookahead=50 / rc=crf / mbtree=1 / crf=19.0 / qcomp=0.60 / qpmin=0 / qpmax=69 / qpstep=4 / ip_ratio=1.40 / aq=1:1.00
Дата кодирования                         : UTC 2014-04-27 06:17:12
Дата пометки                             : UTC 2014-04-27 09:47:31

Аудио
Идентификатор                            : 2
Формат                                   : AAC
Формат/Информация                        : Advanced Audio Codec
Профиль формата                          : LC
Идентификатор кодека                     : 40
Продолжительность                        : 3 ч. 0 м.
Вид битрейта                             : Переменный
Битрейт                                  : 161 Кбит/сек
Максимальный битрейт                     : 175 Кбит/сек
Каналы                                   : 6 каналов
Расположение каналов                     : Front: L C R, Side: L R, LFE
Частота                                  : 48,0 КГц
Метод сжатия                             : С потерями
Размер потока                            : 207 Мбайт (11%)
Дата кодирования                         : UTC 2014-04-27 06:24:21
Дата пометки                             : UTC 2014-04-27 09:47:31


Трекер:  [ 27-Апр-2014 16:30 ]

  

Скачать .torrent

Размер .torrent файла 19 KB


Размер: 1.89 GB
Хэш (hash) релиза: 78b3802797e18c246fadf56c4a43253e503bc68a

Еще никто не оставлял запись к записи скачать торрент Diary of a Perv Дневник извращенца . Будь первым!

!Обратная связь