Скачать порно через торрент Toriko no Chigiri: Kazoku no Tame ni Shintai o Sashidasu Ane to Imouto Контракт пленницы UnionPeer.org бесплатно онлайн HD качество

Скачать новое порно 2015, 2014 новинки через торрент UnionPeer.org

Порно торрент бесплатно ЮнионПир.орг

Если у вас наблюдаются проблемы со скриншотами, переходом по ссылками, скачиванием торрентов - проблемы в блокировщике рекламы AdBlock. #хорошегоДня!


Статистика раздачи
Размер:  1.16 GB   |    Зарегистрирован:  3 года 6 месяцев   |    .torrent скачан:  430 раз   |   
Раздают:  1  
   
Загрузка...
 
Автор Сообщение

Galfimbul

avatar Galfimbul


虜ノ契 ~家族のために身体を差し出す姉と妹~ | Toriko no Chigiri: Kazoku no Tame ni Shintai o Sashidasu Ane to Imouto | Контракт пленницы
Год выпуска: 2013
Страна: Япония
Жанр: anal sex, big tits, drama, gangbang, oral sex, rape, virgins
Продолжительность: >2 эп. по 20 мин.
Субтитры: Отсутствуют
Цензура: Присутствует
Режиссёр: Kotobuki Ranko
Студия: Mary Jane
Описание:
Based on the erotic game by Guilty eX.
Информационные ссылки: AniDB || MAL || World Art || ХентайМаг
Исходник: DVD-5
Видео: MPEG2 | NTSC | 16x9 | 720x480 | 8000 Kbps
Аудио JAP: AC-3 | 48000Hz | 192 Kbps | 2ch
01. Contract of Shame
02. Volume 2
General
Complete name : L:\VIDEO_TS\VTS_01_1.VOB
Format : MPEG-PS
File size : 572 MiB
Overall bit rate mode : Variable

Video
ID : 224 (0xE0)
Format : MPEG Video
Format version : Version 2
Format profile : Main@Main
Format settings, BVOP : Yes
Format settings, Matrix : Default
Bit rate mode : Variable
Maximum bit rate : 8 000 Kbps
Width : 720 pixels
Height : 480 pixels
Display aspect ratio : 16:9
Frame rate : 29.970 fps
Standard : NTSC
Color space : YUV
Chroma subsampling : 4:2:0
Bit depth : 8 bits
Compression mode : Lossy

Audio
ID : 189 (0xBD)-128 (0x80)
Format : AC-3
Format/Info : Audio Coding 3
Mode extension : CM (complete main)
Muxing mode : DVD-Video
Bit rate mode : Constant
Bit rate : 192 Kbps
Channel(s) : 2 channels
Channel positions : Front: L R
Sampling rate : 48.0 KHz
Bit depth : 16 bits
Compression mode : Lossy
Исходник: DVD-5
Видео: MPEG2 | NTSC | 16x9 | 720x480 | 8000 Kbps
Аудио JAP: AC-3 | 48000Hz | 224 Kbps | 2ch
General
Complete name : L:\VIDEO_TS\VTS_01_1.VOB
Format : MPEG-PS
File size : 606 MiB
Duration : 20mn 55s
Overall bit rate mode : Variable
Overall bit rate : 4 050 Kbps

Video
ID : 224 (0xE0)
Format : MPEG Video
Format version : Version 2
Format profile : Main@Main
Format settings, BVOP : Yes
Format settings, Matrix : Default
Duration : 20mn 55s
Bit rate mode : Variable
Bit rate : 3 746 Kbps
Maximum bit rate : 8 000 Kbps
Width : 720 pixels
Height : 480 pixels
Display aspect ratio : 16:9
Frame rate : 29.970 fps
Standard : NTSC
Color space : YUV
Chroma subsampling : 4:2:0
Bit depth : 8 bits
Compression mode : Lossy
Bits/(Pixel*Frame) : 0.362
Stream size : 560 MiB (92%)

Audio
ID : 189 (0xBD)-128 (0x80)
Format : AC-3
Format/Info : Audio Coding 3
Mode extension : CM (complete main)
Muxing mode : DVD-Video
Duration : 20mn 54s
Bit rate mode : Constant
Bit rate : 224 Kbps
Channel(s) : 2 channels
Channel positions : Front: L R
Sampling rate : 48.0 KHz
Bit depth : 16 bits
Compression mode : Lossy
Stream size : 33.5 MiB (6%)


Трекер:  [ 17-Апр-2014 11:56 ]

  

Скачать .torrent

Размер .torrent файла 12 KB


Размер: 1.16 GB
Хэш (hash) релиза: bb4dfe3035695cff3b66ef4f897f158ee3f33426

Торренты, похожие на Toriko no Chigiri: Kazoku no Tame ni Shintai o Sashidasu Ane to Imouto Контракт пленницы скачать торрент

Форум Название Автор Размер S L Добавлен
Хентай | С цензурой ·· Toriko no Chigiri: Kazoku no Tame ni Shintai o Sashidasu Ane to Imouto / Контракт пленницы (Kotobuki Ranko / Mary Jane) (ep. 1 of 2) [cen] [2013 г., Anal sex, Big tits, Drama, Gangbang, Oral sex, Rape, Virgins, DVD5] [jap] Galfimbul 605415075577 MB 0 0 1389109180

18:39

7-Янв-14

Еще никто не оставлял запись к записи скачать торрент Toriko no Chigiri: Kazoku no Tame ni Shintai o Sashidasu Ane to Imouto Контракт пленницы . Будь первым!

!Обратная связь