Скачать порно через торрент One x Boku UnionPeer.org бесплатно онлайн HD качество

Скачать новое порно 2015, 2014 новинки через торрент UnionPeer.org

Порно торрент бесплатно ЮнионПир.орг

Если у вас наблюдаются проблемы со скриншотами, переходом по ссылками, скачиванием торрентов - проблемы в блокировщике рекламы AdBlock. #хорошегоДня!


Статистика раздачи
Размер:  1.36 GB   |    Зарегистрирован:  3 года 7 месяцев   |    .torrent скачан:  749 раз   |   
Раздают:  1  
   
Загрузка...
 
Автор Сообщение

Galfimbul

avatar Galfimbul


One x Boku
Год производства: 2014 г.
Жанр: Older Sister,clasix sex , Breast Sex
Продолжительность: 31:22
Цензура: Есть во всех файлах

Язык: Японский
Озвучка: Оригинальная
Студия: Samu''s LABO

Описание: Yuu-kun lives next to a knockout babe named Misa.
One day while his parents are out she housesits.
With just the two of them in his bedroom, Yuu-kun''s heart goes thump thump.
She realizes that he''s excited and begins to tease him...

Качество видео: GameRip
Разрешение видео: 720p
Формат видео: WMV
Видео кодек: Windows Media
Аудио кодек: WMA
Видео: Windows Media Video 9 1280x720 29.97fps 4009kbps
Аудио 1: WMA 2 44100Hz stereo 176kbp
Video
ID : 2
Format : VC-1
Format profile : MP@HL
Codec ID : WMV3
Codec ID/Info : Windows Media Video 9
Codec ID/Hint : WMV3
Description of the codec : Windows Media Video 9
Duration : 31mn 22s
Bit rate mode : Variable
Bit rate : 4 009 Kbps
Width : 1 280 pixels
Height : 720 pixels
Display aspect ratio : 16:9
Frame rate : 29.970 fps
Bit depth : 8 bits
Scan type : Progressive
Compression mode : Lossy
Bits/(Pixel*Frame) : 0.145
Stream size : 900 MiB (65%)
Language : Japanese

Audio
ID : 1
Format : WMA
Format version : Version 2
Codec ID : 161
Codec ID/Info : Windows Media Audio
Description of the codec : Windows Media Audio 9.2 - VBR Quality 90, 44 kHz, stereo 1-pass VBR
Duration : 31mn 22s
Bit rate mode : Variable
Bit rate : 103 Kbps
Channel(s) : 2 channels
Sampling rate : 44.1 KHz
Bit depth : 16 bits
Stream size : 23.1 MiB (2%)


Трекер:  [ 15-Апр-2014 23:32 ]

  

Скачать .torrent

Размер .torrent файла 14 KB


Размер: 1.36 GB
Хэш (hash) релиза: e969cea75803771e2bb58695d8691c1c49ff7cc2

Торренты, похожие на One x Boku скачать торрент

Форум Название Автор Размер S L Добавлен
Хентайные и эротические игры ·· Boku no Elf Onee-san (Black Lilith) [cen] [2016, Elf,Dark skin,Virgin,Pregnant,Stockings,X-Ray,Toys,Big tits,Anal,Blowjob,Titsjob,Footjob,Rape,Group sex] [jap] Galfimbul 11793895001.1 GB 2 0 1482474669

09:31

23-Дек-16

Еще никто не оставлял запись к записи скачать торрент One x Boku . Будь первым!

!Обратная связь