Скачать порно через торрент Ma femme en club échangiste Ma femme en club échangiste UnionPeer.org бесплатно онлайн HD качество

Скачать новое порно 2015, 2014 новинки через торрент UnionPeer.org

Порно торрент бесплатно ЮнионПир.орг

Если у вас наблюдаются проблемы со скриншотами, переходом по ссылками, скачиванием торрентов - проблемы в блокировщике рекламы AdBlock. #хорошегоДня!


Статистика раздачи
Размер:  1.2 GB   |    Зарегистрирован:  3 года 6 месяцев   |    .torrent скачан:  383 раза   |   
Раздают:  1  
   
Загрузка...
 
Автор Сообщение

Galfimbul

avatar Galfimbul


Ma femme en club échangiste / Ma femme en club échangiste



Год производства: 2014 г.
Страна: FR
Жанр: Orgy
Продолжительность: 1h 5mn
Режиссер: Philippe Soine
Студия: Sélection Dorcel

Доп. информация:
Format : MPEG-4
Format profile : Base Media
Codec ID : isom
File size : 1.20 GiB
Duration : 1h 5mn
Overall bit rate : 2 632 Kbps
Encoded date : UTC 2014-02-24 09:15:54
Tagged date : UTC 2014-02-24 09:15:54

Video
ID : 2
Format : AVC
Format/Info : Advanced Video Codec
Format profile : Baseline@L3.0
Format settings, CABAC : No
Format settings, ReFrames : 1 frame
Muxing mode : Container profile=Baseline@4.1
Codec ID : avc1
Codec ID/Info : Advanced Video Coding
Duration : 1h 5mn
Bit rate mode : Variable
Bit rate : 2 499 Kbps
Width : 960 pixels
Height : 540 pixels
Display aspect ratio : 16:9
Frame rate mode : Constant
Frame rate : 25.000 fps
Color space : YUV
Chroma subsampling : 4:2:0
Bit depth : 8 bits
Scan type : Progressive
Bits/(Pixel*Frame) : 0.193
Stream size : 1.14 GiB (95%)
Writing library : u
Language : English

Audio
ID : 1
Format : AAC
Format/Info : Advanced Audio Codec
Format profile : LC
Codec ID : 40
Duration : 1h 5mn
Bit rate mode : Constant
Bit rate : 128 Kbps
Channel(s) : 2 channels
Channel positions : Front: L R
Sampling rate : 44.1 KHz
Compression mode : Lossy
Stream size : 60.0 MiB (5%)
Language : English
Качество видео: DVDRip

Трекер:  [ 13-Апр-2014 11:49 ]

  

Скачать .torrent

Размер .torrent файла 12 KB


Размер: 1.2 GB
Хэш (hash) релиза: ca69838be27c606b53d297d01ada8db68accc124

Торренты, похожие на Ma femme en club échangiste Ma femme en club échangiste скачать торрент

Форум Название Автор Размер S L Добавлен
Гонзо-фильмы ·· Ma femme en club échangiste / Ma femme en club échangiste (Philippe Soine, Sélection Dorcel) [2014 г., Amatrices, Amateurs, DVDRip] Galfimbul 800975657764 MB 0 0 1397472921

13:55

14-Апр-14

Еще никто не оставлял запись к записи скачать торрент Ma femme en club échangiste Ma femme en club échangiste . Будь первым!

!Обратная связь