Скачать порно через торрент The Best By Private 24: Holiday - In And Out "туда-сюда" UnionPeer.org бесплатно онлайн HD качество

Скачать новое порно 2015, 2014 новинки через торрент UnionPeer.org

Порно торрент бесплатно ЮнионПир.орг

Если у вас наблюдаются проблемы со скриншотами, переходом по ссылками, скачиванием торрентов - проблемы в блокировщике рекламы AdBlock. #хорошегоДня!


Статистика раздачи
Размер:  6.54 GB   |    Зарегистрирован:  3 года 6 месяцев   |    .torrent скачан:  235 раз   |   
Раздают:  1  
   
Загрузка...
 
Автор Сообщение

Galfimbul

avatar Galfimbul


The Best By Private 24: Holiday - In And Out / "туда-сюда"

Год производства: 2001 г.
Страна: Europe
Жанр: All Sex, Feature, Gonzo, Anal,
Продолжительность: 01:36:09

Режиссер: Kovi,Pierre Woodman,Antonio Adamo,J.V.Lecastel.
Студия: PRIVATE

Язык: Английский
Доп. языки: Francais,Deutsch,Espanol.
Субтитры: Nederlands,Svenska,Dansk,Portugues.

В ролях: Adrienne, Adrienne Klass, Dina Pearl,
Doroty Lake, Grety, Henriette Blond,
Lynn Stone, Melody Kord, Nikki Anderson,
Sharon Bright, Sissi, Ursula Moore.

Описание: Holiday In & Out: 12 horny girls are enjoying their holidays to the max!
12 gorgeous girls, hot and eager, are getting ready to enjoy their holidays.
They want to take it all in and get a taste of everything on offer!

Меню: Есть
Доп. материалы и бонусы: http://www.adultdvdmarketplace.com/dvd_view_27474.html
http://www.adultdvdempire.com/32425/best-holiday-in-out-the-porn-movies.html

Качество видео: DVD9
Аудио кодек: AC3
Видео: MPEG2 Video 720x480 (4:3) 29.97fps Bit rate 7.743 Kbps[V:mpeg2 main,yuv420p,720x480]
Аудио: Dolby AC3 48000Hz stereo 192kbps[A:ac3,48000 Hz,stereo,192 kb/s]
General
Complete name : The Best By Private 24 Holiday - In And Out\HOLIDAYINOUT\VIDEO_TS\VTS_01_1.VOB
Format : MPEG-PS
File size : 1 024 MiB
Duration : 16mn 28s
Overall bit rate mode : Variable
Overall bit rate : 8 684 Kbps

Video
ID : 224 (0xE0)
Format : MPEG Video
Format version : Version 2
Format profile : Main@Main
Format settings, BVOP : No
Format settings, Matrix : Custom
Format settings, GOP : M=3, N=12
Duration : 16mn 28s
Bit rate mode : Variable
Bit rate : 7 743 Kbps
Width : 720 pixels
Height : 480 pixels
Display aspect ratio : 4:3
Frame rate : 29.970 fps
Standard : NTSC
Color space : YUV
Chroma subsampling : 4:2:0
Bit depth : 8 bits
Compression mode : Lossy
Bits/(Pixel*Frame) : 0.748
Time code of first frame : 00:00:00:00
Time code source : Group of pictures header
Stream size : 913 MiB (89%)

Audio #1
ID : 189 (0xBD)-128 (0x80)
Format : AC-3
Format/Info : Audio Coding 3
Mode extension : CM (complete main)
Format settings, Endianness : Big
Muxing mode : DVD-Video
Duration : 16mn 28s
Bit rate mode : Constant
Bit rate : 192 Kbps
Channel(s) : 2 channels
Channel positions : Front: L R
Sampling rate : 48.0 KHz
Bit depth : 16 bits
Compression mode : Lossy
Delay relative to video : -49ms
Stream size : 22.6 MiB (2%)

Audio #2
ID : 189 (0xBD)-129 (0x81)
Format : AC-3
Format/Info : Audio Coding 3
Mode extension : CM (complete main)
Format settings, Endianness : Big
Muxing mode : DVD-Video
Duration : 16mn 28s
Bit rate mode : Constant
Bit rate : 192 Kbps
Channel(s) : 2 channels
Channel positions : Front: L R
Sampling rate : 48.0 KHz
Bit depth : 16 bits
Compression mode : Lossy
Delay relative to video : -49ms
Stream size : 22.6 MiB (2%)

Audio #3
ID : 189 (0xBD)-130 (0x82)
Format : AC-3
Format/Info : Audio Coding 3
Mode extension : CM (complete main)
Format settings, Endianness : Big
Muxing mode : DVD-Video
Duration : 16mn 28s
Bit rate mode : Constant
Bit rate : 192 Kbps
Channel(s) : 2 channels
Channel positions : Front: L R
Sampling rate : 48.0 KHz
Bit depth : 16 bits
Compression mode : Lossy
Delay relative to video : -49ms
Stream size : 22.6 MiB (2%)

Audio #4
ID : 189 (0xBD)-131 (0x83)
Format : AC-3
Format/Info : Audio Coding 3
Mode extension : CM (complete main)
Format settings, Endianness : Big
Muxing mode : DVD-Video
Duration : 16mn 28s
Bit rate mode : Constant
Bit rate : 192 Kbps
Channel(s) : 2 channels
Channel positions : Front: L R
Sampling rate : 48.0 KHz
Bit depth : 16 bits
Compression mode : Lossy
Delay relative to video : -49ms
Stream size : 22.6 MiB (2%)

Menu


Трекер:  [ 08-Апр-2014 12:19 ]

  

Скачать .torrent

Размер .torrent файла 17 KB


Размер: 6.54 GB
Хэш (hash) релиза: c89a344e6feeb7628d141479a8f096bea074648d

Еще никто не оставлял запись к записи скачать торрент The Best By Private 24: Holiday - In And Out "туда-сюда" . Будь первым!

!Обратная связь